Поиск

(Soul, R&B) [CD] Nick Waterhouse - Never Twice - 2016, FLAC (tracks+.cue), lossless

(Soul, R&B) [CD] Nick Waterhouse - Never Twice - 2016, FLAC (tracks+.cue), lossless
Треклист:
Nick Waterhouse - Never Twice Жанр: Soul, R&B
Носитель: CD
Год издания: 2016
Издатель (лейбл): IL Records
Номер по каталогу: IL 2037
Аудиокодек: FLAC (*.flac)
Тип рипа: tracks+.cue
Битрейт аудио: lossless
Продолжительность: 38:46
Rip by jlgt
Наличие сканов в содержимом раздачи: да
Треклист:
01. It's Time (3:08)
02. I Had Some Money (But I Spent It) (3:11)
03. Straight Love Affair (3:18)
04. Stanyan Street (7:48)
05. The Old Place (3:23)
06. Katchi feat. Leon Bridges (3:40)
07. Baby I'm In The Mood For You (3:07)
08. Tracy (2:33)
09. Lucky Once (5:44)
10. LA Turnaround (2:52)
 
 
Лог создания рипа
Exact Audio Copy V1.0 beta 3 from 29. August 2011
EAC extraction logfile from 18. December 2016, 17:39
Nick Waterhouse / Never Twice
Used drive : ASUS DRW-24F1ST a Adapter: 0 ID: 0
Read mode : Secure
Utilize accurate stream : Yes
Defeat audio cache : Yes
Make use of C2 pointers : No
Read offset correction : 6
Overread into Lead-In and Lead-Out : No
Fill up missing offset samples with silence : Yes
Delete leading and trailing silent blocks : No
Null samples used in CRC calculations : Yes
Used interface : Native Win32 interface for Win NT & 2000
Gap handling : Appended to previous track
Used output format : User Defined Encoder
Selected bitrate : 128 kBit/s
Quality : High
Add ID3 tag : No
Command line compressor : C:\Program Files (x86)\Exact Audio Copy\FLAC\FLAC.EXE
Additional command line options : -8 -V -T "ARTIST=%artist%" -T "TITLE=%title%" -T "ALBUM=%albumtitle%" -T "DATE=%year%" -T "TRACKNUMBER=%tracknr%" -T "TOTALTRACKS=%numtracks%" -T "GENRE=%genre%" -T "ALBUMARTIST=%albumartist%" -T "ALBUM ARTIST=%albumartist%" -T "COMMENT=EAC Secure Mode, Test & Copy, AccurateRip, FLAC -8" %source%
TOC of the extracted CD
Track | Start | Length | Start sector | End sector
---------------------------------------------------------
1 | 0:00.00 | 3:07.71 | 0 | 14095
2 | 3:07.71 | 3:11.35 | 14096 | 28455
3 | 6:19.31 | 3:17.60 | 28456 | 43290
4 | 9:37.16 | 7:47.74 | 43291 | 78389
5 | 17:25.15 | 3:23.35 | 78390 | 93649
6 | 20:48.50 | 3:40.18 | 93650 | 110167
7 | 24:28.68 | 3:07.35 | 110168 | 124227
8 | 27:36.28 | 2:33.24 | 124228 | 135726
9 | 30:09.52 | 5:44.10 | 135727 | 161536
10 | 35:53.62 | 2:51.69 | 161537 | 174430
Track 1
Filename K:\EAC\01 - It's Time.wav
Pre-gap length 0:00:02.00
Peak level 96.6 %
Extraction speed 4.1 X
Track quality 100.0 %
Test CRC D2F29B18
Copy CRC D2F29B18
Accurately ripped (confidence 6) [BBDDCEF4] (AR v2)
Copy OK
Track 2
Filename K:\EAC\02 - I Had Some Money (But I Spent It).wav
Peak level 96.6 %
Extraction speed 4.5 X
Track quality 100.0 %
Test CRC 24252234
Copy CRC 24252234
Accurately ripped (confidence 6) [6613529C] (AR v2)
Copy OK
Track 3
Filename K:\EAC\03 - Straight Love Affair.wav
Peak level 96.6 %
Extraction speed 4.8 X
Track quality 100.0 %
Test CRC F8CD0FDB
Copy CRC F8CD0FDB
Accurately ripped (confidence 6) [E9F4A84A] (AR v2)
Copy OK
Track 4
Filename K:\EAC\04 - Stanyan Street.wav
Peak level 97.7 %
Extraction speed 5.9 X
Track quality 100.0 %
Test CRC 50436720
Copy CRC 50436720
Accurately ripped (confidence 6) [2C3C69EE] (AR v2)
Copy OK
Track 5
Filename K:\EAC\05 - The Old Place.wav
Peak level 97.7 %
Extraction speed 5.8 X
Track quality 100.0 %
Test CRC CF7612D3
Copy CRC CF7612D3
Accurately ripped (confidence 6) [FE593EFE] (AR v2)
Copy OK
Track 6
Filename K:\EAC\06 - Katchi feat. Leon Bridges.wav
Peak level 97.7 %
Extraction speed 6.1 X
Track quality 100.0 %
Test CRC 8293FB6A
Copy CRC 8293FB6A
Accurately ripped (confidence 6) [9554E956] (AR v2)
Copy OK
Track 7
Filename K:\EAC\07 - Baby I'm In The Mood For You.wav
Peak level 96.6 %
Extraction speed 6.2 X
Track quality 100.0 %
Test CRC CC15A497
Copy CRC CC15A497
Accurately ripped (confidence 6) [BB8EC248] (AR v2)
Copy OK
Track 8
Filename K:\EAC\08 - Tracy.wav
Peak level 97.7 %
Extraction speed 6.1 X
Track quality 100.0 %
Test CRC 1F876218
Copy CRC 1F876218
Accurately ripped (confidence 6) [72AC7857] (AR v2)
Copy OK
Track 9
Filename K:\EAC\09 - Lucky Once.wav
Peak level 97.7 %
Extraction speed 7.2 X
Track quality 100.0 %
Test CRC D0775FE7
Copy CRC D0775FE7
Accurately ripped (confidence 6) [F892E121] (AR v2)
Copy OK
Track 10
Filename K:\EAC\10 - LA Turnaround.wav
Peak level 97.7 %
Extraction speed 6.8 X
Track quality 100.0 %
Test CRC F633F1B4
Copy CRC F633F1B4
Accurately ripped (confidence 6) [E32FA003] (AR v2)
Copy OK
All tracks accurately ripped
No errors occurred
End of status report
==== Log checksum E745F055D14B37DA579E6C4CD1479356FA7D3B92FFD0A4B5922CEA72FFC9584F ====
 
Содержание индексной карты (.CUE)
REM GENRE R&B
REM DATE 2016
REM DISCID 8109150A
REM COMMENT "ExactAudioCopy v1.0b3"
PERFORMER "Nick Waterhouse"
TITLE "Never Twice"
FILE "01 - It's Time.wav" WAVE
TRACK 01 AUDIO
TITLE "It's Time"
PERFORMER "Nick Waterhouse"
INDEX 01 00:00:00
FILE "02 - I Had Some Money (But I Spent It).wav" WAVE
TRACK 02 AUDIO
TITLE "I Had Some Money (But I Spent It)"
PERFORMER "Nick Waterhouse"
INDEX 01 00:00:00
FILE "03 - Straight Love Affair.wav" WAVE
TRACK 03 AUDIO
TITLE "Straight Love Affair"
PERFORMER "Nick Waterhouse"
INDEX 01 00:00:00
FILE "04 - Stanyan Street.wav" WAVE
TRACK 04 AUDIO
TITLE "Stanyan Street"
PERFORMER "Nick Waterhouse"
INDEX 01 00:00:00
FILE "05 - The Old Place.wav" WAVE
TRACK 05 AUDIO
TITLE "The Old Place"
PERFORMER "Nick Waterhouse"
INDEX 01 00:00:00
FILE "06 - Katchi feat. Leon Bridges.wav" WAVE
TRACK 06 AUDIO
TITLE "Katchi feat. Leon Bridges"
PERFORMER "Nick Waterhouse"
INDEX 01 00:00:00
FILE "07 - Baby I'm In The Mood For You.wav" WAVE
TRACK 07 AUDIO
TITLE "Baby I'm In The Mood For You"
PERFORMER "Nick Waterhouse"
INDEX 01 00:00:00
FILE "08 - Tracy.wav" WAVE
TRACK 08 AUDIO
TITLE "Tracy"
PERFORMER "Nick Waterhouse"
INDEX 01 00:00:00
FILE "09 - Lucky Once.wav" WAVE
TRACK 09 AUDIO
TITLE "Lucky Once"
PERFORMER "Nick Waterhouse"
INDEX 01 00:00:00
FILE "10 - LA Turnaround.wav" WAVE
TRACK 10 AUDIO
TITLE "LA Turnaround"
PERFORMER "Nick Waterhouse"
INDEX 01 00:00:00
Приватный:
Нет (DHT включён)
Размер:
318.81 Мб (334,294,288 байт) » файлов: 20
Участники:
0 раздают, 0 качают (0 участников всего)
Внешние участники:
7 раздают, 2 качают (9 участников всего) [ Обновить ]
Есть вопросы - пишите личное сообщение пользователю M0p94ok.
12:40
73
Нет комментариев. Ваш будет первым!