Поиск

(Funk, Soul, Pop, Religious, Gospel, Vocal) [CD] Joann Rosario - More, More, More - 2002, FLAC (tracks+.cue), lossless

(Funk, Soul, Pop, Religious, Gospel, Vocal) [CD] Joann Rosario - More, More, More - 2002, FLAC (tracks+.cue), lossless
Треклист:
Joann Rosario / More, More, More
Жанр: Funk, Soul, Pop, Religious, Gospel, Vocal
Носитель: CD
Страна-производитель диска (релиза): USA
Год издания: 2002
Издатель (лейбл): Fhammond Music, Verity
Номер по каталогу: 01241-43167-2
Аудиокодек: FLAC (*.flac)
Тип рипа: tracks+.cue
Битрейт аудио: lossless
Продолжительность: 01:01:10
Источник (релизер): DP
Наличие сканов в содержимом раздачи: нет
Треклист:
01. Serve You Only 3:32
02. Your Consuming Fire 4:03
03. Follow Me/Sigueme 5:00
04. I Appreciate 5:25
05. You Mean That Much To Me 4:33
06. And We Overcome 5:27
07. More, More, More 6:23
08. Serve You Only (Remix) 4:10
09. Since You Came My Way 4:10
10. If It`s Not You 4:44
11. Think Of Me 5:22
12. As I Come Into Your House 4:38
13. I Appreciate (Remix) 3:37
 
Лог создания рипа
Exact Audio Copy V1.0 beta 3 from 29. August 2011
EAC extraction logfile from 8. November 2013, 16:07
Joann Rosario / More, More, More
Used drive : HL-DT-STDVDRAM GH22NS50 Adapter: 2 ID: 1
Read mode : Secure
Utilize accurate stream : Yes
Defeat audio cache : Yes
Make use of C2 pointers : No
Read offset correction : 667
Overread into Lead-In and Lead-Out : No
Fill up missing offset samples with silence : Yes
Delete leading and trailing silent blocks : No
Null samples used in CRC calculations : Yes
Used interface : Native Win32 interface for Win NT & 2000
Gap handling : Appended to previous track
Used output format : User Defined Encoder
Selected bitrate : 1024 kBit/s
Quality : High
Add ID3 tag : No
Command line compressor : C:\Program Files\FLAC\flac.exe
Additional command line options : -V -8 -T "artist=%artist%" -T "title=%title%" -T "album=%albumtitle%" -T "date=%year%" -T "tracknumber=%tracknr%" -T "genre=%genre%" %source%
TOC of the extracted CD
Track | Start | Length | Start sector | End sector
---------------------------------------------------------
1 | 0:00.00 | 3:32.27 | 0 | 15926
2 | 3:32.27 | 4:03.22 | 15927 | 34173
3 | 7:35.49 | 5:00.49 | 34174 | 56722
4 | 12:36.23 | 5:25.34 | 56723 | 81131
5 | 18:01.57 | 4:33.59 | 81132 | 101665
6 | 22:35.41 | 5:27.59 | 101666 | 126249
7 | 28:03.25 | 6:23.54 | 126250 | 155028
8 | 34:27.04 | 4:10.50 | 155029 | 173828
9 | 38:37.54 | 4:10.17 | 173829 | 192595
10 | 42:47.71 | 4:44.62 | 192596 | 213957
11 | 47:32.58 | 5:22.47 | 213958 | 238154
12 | 52:55.30 | 4:38.02 | 238155 | 259006
13 | 57:33.32 | 3:37.04 | 259007 | 275285
Track 1
Filename F:\upload\Joann Rosario - More, More, More [2002] [FLAC]\01 - Serve You Only.wav
Pre-gap length 0:00:02.00
Peak level 97.6 %
Extraction speed 1.9 X
Track quality 99.7 %
Test CRC E7E96658
Copy CRC E7E96658
Track not present in AccurateRip database
Copy OK
Track 2
Filename F:\upload\Joann Rosario - More, More, More [2002] [FLAC]\02 - Your Consuming Fire.wav
Peak level 97.6 %
Extraction speed 4.7 X
Track quality 100.0 %
Test CRC 9E9BF5A2
Copy CRC 9E9BF5A2
Track not present in AccurateRip database
Copy OK
Track 3
Filename F:\upload\Joann Rosario - More, More, More [2002] [FLAC]\03 - Follow Me.wav
Peak level 97.6 %
Extraction speed 5.3 X
Track quality 100.0 %
Test CRC 258C5CDA
Copy CRC 258C5CDA
Track not present in AccurateRip database
Copy OK
Track 4
Filename F:\upload\Joann Rosario - More, More, More [2002] [FLAC]\04 - I Appreciate.wav
Peak level 97.6 %
Extraction speed 6.0 X
Track quality 100.0 %
Test CRC 28B3AB04
Copy CRC 28B3AB04
Track not present in AccurateRip database
Copy OK
Track 5
Filename F:\upload\Joann Rosario - More, More, More [2002] [FLAC]\05 - You Mean That Much to Me.wav
Peak level 97.6 %
Extraction speed 6.0 X
Track quality 100.0 %
Test CRC 4412AED7
Copy CRC 4412AED7
Track not present in AccurateRip database
Copy OK
Track 6
Filename F:\upload\Joann Rosario - More, More, More [2002] [FLAC]\06 - And We Overcome.wav
Peak level 97.6 %
Extraction speed 6.7 X
Track quality 100.0 %
Test CRC 4C716915
Copy CRC 4C716915
Track not present in AccurateRip database
Copy OK
Track 7
Filename F:\upload\Joann Rosario - More, More, More [2002] [FLAC]\07 - More, More, More.wav
Peak level 97.6 %
Extraction speed 7.1 X
Track quality 100.0 %
Test CRC 71AC19AD
Copy CRC 71AC19AD
Track not present in AccurateRip database
Copy OK
Track 8
Filename F:\upload\Joann Rosario - More, More, More [2002] [FLAC]\08 - Serve You Only (Remix).wav
Peak level 97.6 %
Extraction speed 5.7 X
Track quality 99.9 %
Test CRC CE06C761
Copy CRC CE06C761
Track not present in AccurateRip database
Copy OK
Track 9
Filename F:\upload\Joann Rosario - More, More, More [2002] [FLAC]\09 - Since You Come My Way.wav
Peak level 97.6 %
Extraction speed 5.9 X
Track quality 99.9 %
Test CRC 548BE68B
Copy CRC 548BE68B
Track not present in AccurateRip database
Copy OK
Track 10
Filename F:\upload\Joann Rosario - More, More, More [2002] [FLAC]\10 - If It's Not You.wav
Peak level 97.6 %
Extraction speed 6.4 X
Track quality 99.9 %
Test CRC 8C413085
Copy CRC 8C413085
Track not present in AccurateRip database
Copy OK
Track 11
Filename F:\upload\Joann Rosario - More, More, More [2002] [FLAC]\11 - Think Of Me.wav
Peak level 97.6 %
Extraction speed 8.1 X
Track quality 100.0 %
Test CRC BBA26950
Copy CRC BBA26950
Track not present in AccurateRip database
Copy OK
Track 12
Filename F:\upload\Joann Rosario - More, More, More [2002] [FLAC]\12 - As I Come Into Your House.wav
Peak level 97.6 %
Extraction speed 8.4 X
Track quality 100.0 %
Test CRC 1B76A89F
Copy CRC 1B76A89F
Track not present in AccurateRip database
Copy OK
Track 13
Filename F:\upload\Joann Rosario - More, More, More [2002] [FLAC]\13 - I Appreciate (Remix).wav
Peak level 97.6 %
Extraction speed 8.2 X
Track quality 100.0 %
Test CRC A0682E7D
Copy CRC A0682E7D
Track not present in AccurateRip database
Copy OK
None of the tracks are present in the AccurateRip database
No errors occurred
End of status report
==== Log checksum 2DE7F98190316B8D297654F979BCF1122E316872969326F56842E78B4D977F8D ====
 
Содержание индексной карты (.CUE)
REM GENRE Gospel
REM DATE 2002
REM DISCID C90E560D
REM COMMENT "ExactAudioCopy v1.0b3"
CATALOG 0000000000000
PERFORMER "Joann Rosario"
TITLE "More, More, More"
FILE "01 - Serve You Only.wav" WAVE
TRACK 01 AUDIO
TITLE "Serve You Only"
PERFORMER "Joann Rosario"
ISRC USVE20200002
INDEX 01 00:00:00
FILE "02 - Your Consuming Fire.wav" WAVE
TRACK 02 AUDIO
TITLE "Your Consuming Fire"
PERFORMER "Joann Rosario"
ISRC USVE20200007
INDEX 01 00:00:00
FILE "03 - Follow Me.wav" WAVE
TRACK 03 AUDIO
TITLE "Follow Me"
PERFORMER "Joann Rosario"
ISRC USVE20200008
INDEX 01 00:00:00
FILE "04 - I Appreciate.wav" WAVE
TRACK 04 AUDIO
TITLE "I Appreciate"
PERFORMER "Joann Rosario"
ISRC USVE20200009
INDEX 01 00:00:00
FILE "05 - You Mean That Much to Me.wav" WAVE
TRACK 05 AUDIO
TITLE "You Mean That Much to Me"
PERFORMER "Joann Rosario"
ISRC USVE20200010
INDEX 01 00:00:00
FILE "06 - And We Overcome.wav" WAVE
TRACK 06 AUDIO
TITLE "And We Overcome"
PERFORMER "Joann Rosario"
ISRC USVE20200011
INDEX 01 00:00:00
FILE "07 - More, More, More.wav" WAVE
TRACK 07 AUDIO
TITLE "More, More, More"
PERFORMER "Joann Rosario"
ISRC USVE20100019
INDEX 01 00:00:00
FILE "08 - Serve You Only (Remix).wav" WAVE
TRACK 08 AUDIO
TITLE "Serve You Only (Remix)"
PERFORMER "Joann Rosario"
ISRC USVE20200012
INDEX 01 00:00:00
FILE "09 - Since You Come My Way.wav" WAVE
TRACK 09 AUDIO
TITLE "Since You Come My Way"
PERFORMER "Joann Rosario"
ISRC USVE20200013
INDEX 01 00:00:00
FILE "10 - If It's Not You.wav" WAVE
TRACK 10 AUDIO
TITLE "If It's Not You"
PERFORMER "Joann Rosario"
ISRC USVE20200014
INDEX 01 00:00:00
FILE "11 - Think Of Me.wav" WAVE
TRACK 11 AUDIO
TITLE "Think Of Me"
PERFORMER "Joann Rosario"
ISRC USVE20200015
INDEX 01 00:00:00
FILE "12 - As I Come Into Your House.wav" WAVE
TRACK 12 AUDIO
TITLE "As I Come Into Your House"
PERFORMER "Joann Rosario"
ISRC USVE20200016
INDEX 01 00:00:00
FILE "13 - I Appreciate (Remix).wav" WAVE
TRACK 13 AUDIO
TITLE "I Appreciate (Remix)"
PERFORMER "Joann Rosario"
ISRC USVE20200017
INDEX 01 00:00:00
 
Лог проверки качества
foobar2000 1.1.10 / Dynamic Range Meter 1.1.1
log date: 2017-01-08 20:27:22
--------------------------------------------------------------------------------
Analyzed: Joann Rosario / More, More, More
--------------------------------------------------------------------------------
DR Peak RMS Duration Track
--------------------------------------------------------------------------------
DR7 -0.21 dB -8.05 dB 3:32 ?-Serve You Only
DR7 -0.21 dB -8.74 dB 4:03 ?-Your Consuming Fire
DR8 -0.21 dB -10.22 dB 5:01 ?-Follow Me
DR8 -0.21 dB -9.33 dB 5:25 ?-I Appreciate
DR7 -0.21 dB -9.00 dB 4:34 ?-You Mean That Much to Me
DR8 -0.21 dB -10.89 dB 5:28 ?-And We Overcome
DR7 -0.21 dB -9.39 dB 6:24 ?-More, More, More
DR7 -0.21 dB -8.13 dB 4:11 ?-Serve You Only (Remix)
DR8 -0.21 dB -9.78 dB 4:10 ?-Since You Come My Way
DR7 -0.21 dB -8.52 dB 4:45 ?-If It's Not You
DR7 -0.21 dB -9.38 dB 5:23 ?-Think Of Me
DR7 -0.21 dB -8.67 dB 4:38 ?-As I Come Into Your House
DR7 -0.21 dB -9.11 dB 3:37 ?-I Appreciate (Remix)
--------------------------------------------------------------------------------
Number of tracks: 13
Official DR value: DR7
Samplerate: 44100 Hz
Channels: 2
Bits per sample: 16
Bitrate: 1004 kbps
Codec: FLAC
================================================================================
 
Состав
Lead Vocals, Backing Vocals – Joann Rosario
Keyboards, Bass, Drum Programming – Fred Hammond
Track 1
Acoustic Guitar – Joey Woolfalk
Instruments – Tommie Walker
Track 2
Accordion [Overdubs] – Luther "Mano" Hanes
Acoustic Guitar – Joey Woolfalk
Backing Vocals – Bryan J. Pratt, Marcus R. Cole
Track 3
Acoustic Guitar [Lead] – Joey Woolfalk
Keyboards – Noel Hall
Percussion [Additional] – Darius Fentress
Track 4
Acoustic Guitar – Darryl Dixon
Drum Programming [Additional] – Tommie Walker
Keyboards [Additional] – Noel Hall
Track 5
Guitar – Darryl Dixon
Keyboards – Noel Hall
Track 6
Backing Vocals – Bricie Byars, Bryan J. Pratt, Davey Hammond, Frederick Purifoy II, Marsha D. Johns, PamKenyon M. Donald
Bass [Live] – Fred Hammond
Drums [Live] – Marvin McQuitty
Effects [Keyboard, Additional], Percussion [Additional] – Tommie Walker
Guitar – Darryl Dixon
Keyboards – Noel Hall
Percussion [Live] – Darius Fentress
Track 7
Backing Vocals – Radical For Christ, Motor City Mass Choir
Drums [Live] – Marvin McQuitty
Keyboards, Piano, Organ – Noel Hall
Track 8
Remix, Instruments – Fred Hammond
Track 9
Drum Programming [Additional] – Tommie Walker
Keyboards – Luther "Mano" Hanes
Track 10 I
Drum Programming, Keyboards – Tommie Walker
Track 11
Drum Programming [Additional], Keyboards [Additional], Synthesizer – Tommie Walker
Keyboards – Luther "Mano" Hanes
Keyboards [Additional] – Noel Hall
Track 12
Acoustic Guitar – Joey Woolfalk
Drum Programming, Keyboards – Tommie Walker
Track 13
Remix, Instruments – Tommie Walker
Приватный:
Нет (DHT включён)
Размер:
426.79 Мб (447,522,822 байт) » файлов: 17
Участники:
0 раздают, 0 качают (0 участников всего)
Внешние участники:
1 раздают, 0 качают (1 участников всего) [ Обновить ]
Есть вопросы - пишите личное сообщение пользователю M0p94ok.
12:41
80
Нет комментариев. Ваш будет первым!