Поиск

(Jazz/Soul/Rhythm & Blues/Funk) [CD] Mario Biondi 2CD - Best Of Soul - 2016, FLAC (image+.cue), lossless

(Jazz/Soul/Rhythm & Blues/Funk) [CD] Mario Biondi 2CD - Best Of Soul - 2016, FLAC (image+.cue), lossless
Треклист:
Mario Biondi 2CD / Best Of Soul
Жанр: Jazz/Soul/Rhythm & Blues/Funk
Носитель: CD
Страна-производитель диска (релиза): Kivi
Год издания: 2016
Аудиокодек: FLAC (*.flac)
Тип рипа: image+.cue
Битрейт аудио: lossless
Продолжительность: 51'19'' + 47'19''
Источник (релизер): RedHotBlues
Наличие сканов в содержимом раздачи: да
Треклист:
CD: Mario Biondi - Best Of Soul CD1
01. Do You Feel Like I Feel [0:03:45.30]
02. Chilly Girl [0:03:54.53]
03. You Are My Queen [0:04:17.16]
04. The Mistery Of Man [0:05:25.44]
05. I Will Never Stop Loving You [0:03:01.07]
06. Stay With Me [0:05:33.18]
07. This Is What You Are [0:07:15.10]
08. A Handful Of Soul [0:04:26.00]
09. No Mercy For Me [0:03:52.39]
10. Rio De Janeiro Blue [0:04:12.32]
11. Never Die [0:05:34.40]
CD: Mario Biondi - Best Of Soul CD2
01. Gratitude [0:05:15.43]
02. Be Lonely [0:03:34.27]
03. Shine On [0:03:41.58]
04. What Have You Done To Me [0:03:28.64]
05. Deep Space [0:03:27.07]
06. Come To Me [0:05:22.04]
07. Open Up Your Eyes [0:04:18.73]
08. Love Is a Temple [0:03:39.66]
09. Another Kind Of Love [0:04:03.51]
10. All I Want Is You [0:04:58.33]
11. Nightshift [0:05:26.64]
 
Лог создания рипа
Exact Audio Copy V1.1 from 23. June 2015
Отчёт EAC об извлечении, выполненном 27. декабря 2016, 18:55
Mario Biondi / Best Of Soul CD1
Дисковод: _NEC DVD_RW ND-4570A Adapter: 1 ID: 0
Режим чтения : Достоверность
Использование точного потока : Да
Отключение кэша аудио : Да
Использование указателей C2 : Нет
Коррекция смещения при чтении : 48
Способность читать области Lead-in и Lead-out : Нет
Заполнение пропущенных сэмплов тишиной : Да
Удаление блоков с тишиной в начале и конце : Нет
При вычислениях CRC использовались нулевые сэмплы : Да
Интерфейс : Встроенный Win32-интерфейс для Win NT/2000
Выходной формат : Пользовательский кодировщик
Выбранный битрейт : 768 kBit/s
Качество : Высокий
Добавление ID3-тега : Нет
Утилита сжатия : C:\Program Files\Exact Audio Copy\FLAC\FLAC.EXE
Дополнительные параметры : -6 -V -T "ARTIST=%artist%" -T "TITLE=%title%" -T "ALBUM=%albumtitle%" -T "DATE=%year%" -T "TRACKNUMBER=%tracknr%" -T "GENRE=%genre%" -T "COMMENT=%comment%" -T "BAND=%albuminterpret%" -T "ALBUMARTIST=%albuminterpret%" -T "COMPOSER=%composer%" %haslyrics%--tag-from-file=LYRICS="%lyricsfile%"%haslyrics% -T "DISCNUMBER=%cdnumber%" -T "TOTALDISCS=%totalcds%" -T "TOTALTRACKS=%numtracks%" %hascover%--picture="%coverfile%"%hascover% %source% -o %dest%
TOC извлечённого CD
Трек | Старт | Длительность | Начальный сектор | Конечный сектор
---------------------------------------------------------------------
1 | 0:00.00 | 3:45.30 | 0 | 16904
2 | 3:45.30 | 3:54.53 | 16905 | 34507
3 | 7:40.08 | 4:17.16 | 34508 | 53798
4 | 11:57.24 | 5:25.44 | 53799 | 78217
5 | 17:22.68 | 3:01.07 | 78218 | 91799
6 | 20:24.00 | 5:33.18 | 91800 | 116792
7 | 25:57.18 | 7:15.10 | 116793 | 149427
8 | 33:12.28 | 4:26.00 | 149428 | 169377
9 | 37:38.28 | 3:52.39 | 169378 | 186816
10 | 41:30.67 | 4:12.32 | 186817 | 205748
11 | 45:43.24 | 5:34.40 | 205749 | 230838
Характеристики диапазона извлечения и сообщения об ошибках
Выбранный диапазон
Имя файла D:\New Uploads 01.12.2016\Mario Biondi - Best Of Soul CD1 51'19''\Mario Biondi - Best Of Soul CD1.wav
Пиковый уровень 99.9 %
Скорость извлечения 7.1 X
Качество диапазона 100.0 %
CRC теста 114F7F29
CRC копии 114F7F29
Копирование... OK
Ошибок не произошло
Конец отчёта
---- CUETools DB Plugin V2.1.6
[CTDB TOCID: 8tgPJDENJg.Q8sHzuWo6r4gmBnw-] found
Submit result: 8tgPJDENJg.Q8sHzuWo6r4gmBnw- has been confirmed
Track | CTDB Status
1 | (10/10) Accurately ripped
2 | (10/10) Accurately ripped
3 | (10/10) Accurately ripped
4 | (10/10) Accurately ripped
5 | (10/10) Accurately ripped
6 | (10/10) Accurately ripped
7 | (10/10) Accurately ripped
8 | (10/10) Accurately ripped
9 | (10/10) Accurately ripped
10 | (10/10) Accurately ripped
11 | (10/10) Accurately ripped
==== Контрольная сумма отчёта 910CC8554CEBA9BE9DBDC908ED1F27CF50BAD4EA433CF5F800DF11CD61AA6947 ====
Exact Audio Copy V1.1 from 23. June 2015
Отчёт EAC об извлечении, выполненном 27. декабря 2016, 19:31
Mario Biondi / Best Of Soul CD2
Дисковод: ASUS DRW-22B3S Adapter: 1 ID: 2
Режим чтения : Достоверность
Использование точного потока : Да
Отключение кэша аудио : Да
Использование указателей C2 : Нет
Коррекция смещения при чтении : 6
Способность читать области Lead-in и Lead-out : Нет
Заполнение пропущенных сэмплов тишиной : Да
Удаление блоков с тишиной в начале и конце : Нет
При вычислениях CRC использовались нулевые сэмплы : Да
Интерфейс : Встроенный Win32-интерфейс для Win NT/2000
Выходной формат : Пользовательский кодировщик
Выбранный битрейт : 768 kBit/s
Качество : Высокий
Добавление ID3-тега : Нет
Утилита сжатия : C:\Program Files\Exact Audio Copy\FLAC\FLAC.EXE
Дополнительные параметры : -6 -V -T "ARTIST=%artist%" -T "TITLE=%title%" -T "ALBUM=%albumtitle%" -T "DATE=%year%" -T "TRACKNUMBER=%tracknr%" -T "GENRE=%genre%" -T "COMMENT=%comment%" -T "BAND=%albuminterpret%" -T "ALBUMARTIST=%albuminterpret%" -T "COMPOSER=%composer%" %haslyrics%--tag-from-file=LYRICS="%lyricsfile%"%haslyrics% -T "DISCNUMBER=%cdnumber%" -T "TOTALDISCS=%totalcds%" -T "TOTALTRACKS=%numtracks%" %hascover%--picture="%coverfile%"%hascover% %source% -o %dest%
TOC извлечённого CD
Трек | Старт | Длительность | Начальный сектор | Конечный сектор
---------------------------------------------------------------------
1 | 0:00.00 | 5:15.43 | 0 | 23667
2 | 5:15.43 | 3:34.27 | 23668 | 39744
3 | 8:49.70 | 3:41.58 | 39745 | 56377
4 | 12:31.53 | 3:28.64 | 56378 | 72041
5 | 16:00.42 | 3:27.07 | 72042 | 87573
6 | 19:27.49 | 5:22.04 | 87574 | 111727
7 | 24:49.53 | 4:18.73 | 111728 | 131150
8 | 29:08.51 | 3:39.66 | 131151 | 147641
9 | 32:48.42 | 4:03.51 | 147642 | 165917
10 | 36:52.18 | 4:58.33 | 165918 | 188300
11 | 41:50.51 | 5:26.64 | 188301 | 212814
Характеристики диапазона извлечения и сообщения об ошибках
Выбранный диапазон
Имя файла D:\New Uploads 01.12.2016\Mario Biondi - Best Of Soul CD2 47'19''\Mario Biondi - Best Of Soul CD2.wav
Пиковый уровень 99.9 %
Скорость извлечения 3.1 X
Качество диапазона 100.0 %
CRC теста 5B540151
CRC копии 5B540151
Копирование... OK
Ошибок не произошло
Конец отчёта
---- CUETools DB Plugin V2.1.6
[CTDB TOCID: Ura3wxrmoM_DeBfcho5igebHI2w-] found
Submit result: Ura3wxrmoM_DeBfcho5igebHI2w- has been confirmed
Track | CTDB Status
1 | (9/9) Accurately ripped
2 | (9/9) Accurately ripped
3 | (9/9) Accurately ripped
4 | (9/9) Accurately ripped
5 | (9/9) Accurately ripped
6 | (9/9) Accurately ripped
7 | (9/9) Accurately ripped
8 | (9/9) Accurately ripped
9 | (9/9) Accurately ripped
10 | (9/9) Accurately ripped
11 | (9/9) Accurately ripped
==== Контрольная сумма отчёта C66DEA62F43E72FFE6820EF717E162896A1298809EE461E6807014600227BCD0 ====
 
Содержание индексной карты (.CUE)
REM GENRE Soul
REM DATE 2016
REM DISCID 960C050B
REM COMMENT "ExactAudioCopy v1.1"
PERFORMER "Mario Biondi"
TITLE "Best Of Soul CD1"
FILE "Mario Biondi - Best Of Soul CD1.flac" WAVE
TRACK 01 AUDIO
TITLE "Do You Feel Like I Feel "
PERFORMER "Mario Biondi"
INDEX 01 00:00:00
TRACK 02 AUDIO
TITLE "Chilly Girl"
PERFORMER "Mario Biondi"
INDEX 00 03:41:58
INDEX 01 03:45:30
TRACK 03 AUDIO
TITLE "You Are My Queen"
PERFORMER "Mario Biondi"
INDEX 00 07:38:08
INDEX 01 07:40:08
TRACK 04 AUDIO
TITLE "The Mistery Of Man"
PERFORMER "Mario Biondi"
INDEX 00 11:55:00
INDEX 01 11:57:24
TRACK 05 AUDIO
TITLE "I Will Never Stop Loving You"
PERFORMER "Mario Biondi"
INDEX 00 17:19:12
INDEX 01 17:22:68
TRACK 06 AUDIO
TITLE "Stay With Me"
PERFORMER "Mario Biondi"
INDEX 00 20:22:03
INDEX 01 20:24:00
TRACK 07 AUDIO
TITLE "This Is What You Are"
PERFORMER "Mario Biondi"
INDEX 00 25:54:48
INDEX 01 25:57:18
TRACK 08 AUDIO
TITLE "A Handful Of Soul"
PERFORMER "Mario Biondi"
INDEX 00 33:08:40
INDEX 01 33:12:28
TRACK 09 AUDIO
TITLE "No Mercy For Me"
PERFORMER "Mario Biondi"
INDEX 00 37:33:73
INDEX 01 37:38:28
TRACK 10 AUDIO
TITLE "Rio De Janeiro Blue"
PERFORMER "Mario Biondi"
INDEX 00 41:28:07
INDEX 01 41:30:67
TRACK 11 AUDIO
TITLE "Never Die"
PERFORMER "Mario Biondi"
INDEX 00 45:41:36
INDEX 01 45:43:24
REM GENRE Soul
REM DATE 2016
REM DISCID 870B150B
REM COMMENT "ExactAudioCopy v1.1"
PERFORMER "Mario Biondi"
TITLE "Best Of Soul CD2"
FILE "Mario Biondi - Best Of Soul CD2.flac" WAVE
TRACK 01 AUDIO
TITLE "Gratitude"
PERFORMER "Mario Biondi"
INDEX 01 00:00:00
TRACK 02 AUDIO
TITLE "Be Lonely"
PERFORMER "Mario Biondi"
INDEX 00 05:11:72
INDEX 01 05:15:43
TRACK 03 AUDIO
TITLE "Shine On "
PERFORMER "Mario Biondi"
INDEX 00 08:47:07
INDEX 01 08:49:70
TRACK 04 AUDIO
TITLE "What Have You Done To Me"
PERFORMER "Mario Biondi"
INDEX 00 12:28:27
INDEX 01 12:31:53
TRACK 05 AUDIO
TITLE "Deep Space"
PERFORMER "Mario Biondi"
INDEX 00 15:57:21
INDEX 01 16:00:42
TRACK 06 AUDIO
TITLE "Come To Me"
PERFORMER "Mario Biondi"
INDEX 00 19:22:73
INDEX 01 19:27:49
TRACK 07 AUDIO
TITLE "Open Up Your Eyes"
PERFORMER "Mario Biondi"
INDEX 00 24:46:50
INDEX 01 24:49:53
TRACK 08 AUDIO
TITLE "Love Is a Temple"
PERFORMER "Mario Biondi"
INDEX 00 29:04:69
INDEX 01 29:08:51
TRACK 09 AUDIO
TITLE "Another Kind Of Love"
PERFORMER "Mario Biondi"
INDEX 00 32:45:57
INDEX 01 32:48:42
TRACK 10 AUDIO
TITLE "All I Want Is You"
PERFORMER "Mario Biondi"
INDEX 00 36:47:39
INDEX 01 36:52:18
TRACK 11 AUDIO
TITLE "Nightshift"
PERFORMER "Mario Biondi"
INDEX 00 41:47:00
INDEX 01 41:50:51
 
Лог проверки качества
-----------------------
DON'T MODIFY THIS FILE
-----------------------
PERFORMER: auCDtect Task Manager, ver. 1.5.1RC4 build 1.5.1.5
Copyright (c) 2008-2010 y-soft. All rights reserved
http://y-soft.org
ANALYZER: auCDtect: CD records authenticity detector, version 0.8.2
Copyright (c) 2004 Oleg Berngardt. All rights reserved.
Copyright (c) 2004 Alexander Djourik. All rights reserved.
FILE: Mario Biondi - Best Of Soul CD1.flac
Size: 379842347 Hash: 6BFE98DB9461FF3B5172D5122AD79260 Accuracy: -m0
Conclusion: CDDA 100%
Signature: 8198F52EF681891241D0C83CEBBA5785CEC471AD
 
Скриншот спектра частот
Доп. информация: CD2 определился, как 95%MPEG, а Тау вообще корректно не определила ни одного трека - сказала, что Unknown ...
Разместил спектры на все треки CD2 ...
Приватный:
Нет (DHT включён)
Размер:
835.12 Мб (875,688,294 байт) » файлов: 25
Участники:
0 раздают, 0 качают (0 участников всего)
Внешние участники:
21 раздают, 7 качают (28 участников всего) [ Обновить ]
No seeders - write a personal message to user M0p94ok. Нет сидеров - пишите личное сообщение пользователю M0p94ok.
12:39
239
Нет комментариев. Ваш будет первым!