Поиск

(Soul, R&B) [CD] Billy Paul - Going East (1971) - 2013, FLAC (tracks+.cue), lossless

(Soul, R&B) [CD] Billy Paul - Going East (1971) - 2013, FLAC (tracks+.cue), lossless
Треклист:
Billy Paul - Going East (1971) Жанр: Soul, R&B
Носитель: CD
Год издания: 2013
Издатель (лейбл): Sony Music/Big Break Records/Cherry Red Records
Номер по каталогу: CDBBR 0203
Аудиокодек: FLAC (*.flac)
Тип рипа: tracks+.cue
Битрейт аудио: lossless
Продолжительность: 50:27
Источник (релизер): ruskaval
Наличие сканов в содержимом раздачи: да
Треклист:
01. East (6:29)
02. (If You Let Me Make Love To You Then) Why Can't I Touch You (2:43)
03. This Is Your Life (4:17)
04. Jesus Boy (You Only Look Like A Man) (4:18)
05. Magic Carpet Ride (5:21)
06. I Wish It Were Yesterday (3:50)
07. Compared To What (5:21)
08. Love Buddies (3:40)
09. There's A Small Hotel (4:30)
~ Bonus tracks ~
10. Jesus Boy (You Only Look Like A Man) (Single Version) (3:20)
11. Magic Carpet Ride (Single Version) (3:50)
12. This Is Your Life (Single Version) (2:50)
 
 
Об альбоме и исполнителе
Born and raised in North Philadelphia, PA, Grammy Award Winner, BILLY PAUL began singing at the age of 12 and sometimes performed on local radio shows. Drawing inspiration from his family’s collection of 78’s, BILLY PAUL would incorporate Jazz, R&B and Pop into his style, resulting in a unique sound that became synonymous with Philadelphia International Records.
Billy became known on the local circuit singing in clubs and later around college campuses all over the country which later led to him performing live with some of the biggest names in black music of the 60s and 70s including Dinah Washington, Miles Davis, Nina Simone and Roberta Flack to name a few, he also spent a brief spell standing in as a ‘Blue Note’ with Harold Melvin & The Blue Notes.
Originally signed to Kenny Gamble’s Gamble Records, Billy Paul later joined the legendary Philadelphia International Records, headed by Kenny Gamble and Leon Huff.
This legendary album was both Philadelphia International Records’ and Billy Paul’s debut release and was released in 1971. It kick-started a decade of dominance for the label and created a partnership that would last almost 20 years and produce a string of hits and awards for all involved.
BBR is very excited to bring you GOING EAST entirely re-mastered and repackaged complete with extensive liner notes featuring a brand new interview with BILLY PAUL and extended bonus content.
GOING EAST is a must have for all Philly Soul, Funk & Pop fans out there!

 
 
Лог создания рипа
Exact Audio Copy V1.0 beta 3 from 29. August 2011
EAC extraction logfile from 12. February 2013, 22:50
Billy Paul / Going East
Used drive : hp CDDVDW SN-208BB Adapter: 0 ID: 1
Read mode : Secure
Utilize accurate stream : Yes
Defeat audio cache : Yes
Make use of C2 pointers : No
Read offset correction : 6
Overread into Lead-In and Lead-Out : No
Fill up missing offset samples with silence : Yes
Delete leading and trailing silent blocks : No
Null samples used in CRC calculations : Yes
Used interface : Native Win32 interface for Win NT & 2000
Gap handling : Appended to previous track
Used output format : User Defined Encoder
Selected bitrate : 256 kBit/s
Quality : High
Add ID3 tag : No
Command line compressor : C:\Program Files (x86)\Exact Audio Copy\Flac\flac.exe
Additional command line options : -8 -V -T "ARTIST=%artist%" -T "TITLE=%title%" -T "ALBUM=%albumtitle%" -T "DATE=%year%" -T "TRACKNUMBER=%tracknr%" -T "TOTALTRACKS=%numtracks%" -T "GENRE=%genre%" -T "ALBUMARTIST=%albumartist%" -T "ALBUM ARTIST=%albumartist%" -T "COMMENT=EAC Secure Mode, Test & Copy, AccurateRip, FLAC -8" %source%
TOC of the extracted CD
Track | Start | Length | Start sector | End sector
---------------------------------------------------------
1 | 0:00.00 | 6:28.39 | 0 | 29138
2 | 6:28.39 | 2:42.52 | 29139 | 41340
3 | 9:11.16 | 4:16.44 | 41341 | 60584
4 | 13:27.60 | 4:17.38 | 60585 | 79897
5 | 17:45.23 | 5:20.46 | 79898 | 103943
6 | 23:05.69 | 3:50.09 | 103944 | 121202
7 | 26:56.03 | 5:21.08 | 121203 | 145285
8 | 32:17.11 | 3:40.34 | 145286 | 161819
9 | 35:57.45 | 4:29.49 | 161820 | 182043
10 | 40:27.19 | 3:20.09 | 182044 | 197052
11 | 43:47.28 | 3:49.45 | 197053 | 214272
12 | 47:36.73 | 2:49.43 | 214273 | 226990
Track 1
Filename C:\Users\addis\Documents\AddisTheEthiopianGodFlac\01 - East .wav
Pre-gap length 0:00:02.00
Peak level 96.1 %
Extraction speed 2.5 X
Track quality 100.0 %
Test CRC F3DBC8C9
Copy CRC F3DBC8C9
Track not present in AccurateRip database
Copy OK
Track 2
Filename C:\Users\addis\Documents\AddisTheEthiopianGodFlac\02 - (If You Let Me Make Love To You Then) Why Can't I Touch You .wav
Pre-gap length 0:00:01.46
Peak level 96.1 %
Extraction speed 1.8 X
Track quality 99.9 %
Test CRC 35955EB3
Copy CRC 35955EB3
Track not present in AccurateRip database
Copy OK
Track 3
Filename C:\Users\addis\Documents\AddisTheEthiopianGodFlac\03 - This Is Your Life .wav
Pre-gap length 0:00:01.29
Peak level 96.1 %
Extraction speed 2.8 X
Track quality 100.0 %
Test CRC F3AA8893
Copy CRC F3AA8893
Track not present in AccurateRip database
Copy OK
Track 4
Filename C:\Users\addis\Documents\AddisTheEthiopianGodFlac\04 - Jesus Boy (You Only Look Like A Man) .wav
Pre-gap length 0:00:01.51
Peak level 96.1 %
Extraction speed 3.0 X
Track quality 100.0 %
Test CRC 83E6BC22
Copy CRC 83E6BC22
Track not present in AccurateRip database
Copy OK
Track 5
Filename C:\Users\addis\Documents\AddisTheEthiopianGodFlac\05 - Magic Carpet Ride .wav
Pre-gap length 0:00:00.38
Peak level 96.1 %
Extraction speed 3.3 X
Track quality 100.0 %
Test CRC B9978977
Copy CRC B9978977
Track not present in AccurateRip database
Copy OK
Track 6
Filename C:\Users\addis\Documents\AddisTheEthiopianGodFlac\06 - I Wish It Were Yesterday .wav
Pre-gap length 0:00:01.41
Peak level 96.1 %
Extraction speed 3.4 X
Track quality 100.0 %
Test CRC E88168F7
Copy CRC E88168F7
Track not present in AccurateRip database
Copy OK
Track 7
Filename C:\Users\addis\Documents\AddisTheEthiopianGodFlac\07 - Compared To What .wav
Pre-gap length 0:00:01.55
Peak level 96.1 %
Extraction speed 3.7 X
Track quality 100.0 %
Test CRC E0336AE3
Copy CRC E0336AE3
Track not present in AccurateRip database
Copy OK
Track 8
Filename C:\Users\addis\Documents\AddisTheEthiopianGodFlac\08 - Love Buddies .wav
Pre-gap length 0:00:01.46
Peak level 96.1 %
Extraction speed 2.8 X
Track quality 99.9 %
Test CRC 67CDE950
Copy CRC 67CDE950
Track not present in AccurateRip database
Copy OK
Track 9
Filename C:\Users\addis\Documents\AddisTheEthiopianGodFlac\09 - There's A Small Hotel .wav
Pre-gap length 0:00:01.22
Peak level 96.1 %
Extraction speed 3.9 X
Track quality 100.0 %
Test CRC 2078B22E
Copy CRC 2078B22E
Track not present in AccurateRip database
Copy OK
Track 10
Filename C:\Users\addis\Documents\AddisTheEthiopianGodFlac\10 - Jesus Boy (You Only Look Like A Man) (Single Version) .wav
Pre-gap length 0:00:03.38
Peak level 96.6 %
Extraction speed 3.9 X
Track quality 100.0 %
Test CRC ACE00B1C
Copy CRC ACE00B1C
Track not present in AccurateRip database
Copy OK
Track 11
Filename C:\Users\addis\Documents\AddisTheEthiopianGodFlac\11 - Magic Carpet Ride (Single Version) .wav
Pre-gap length 0:00:01.53
Peak level 96.1 %
Extraction speed 4.1 X
Track quality 100.0 %
Test CRC 2E08E30C
Copy CRC 2E08E30C
Track not present in AccurateRip database
Copy OK
Track 12
Filename C:\Users\addis\Documents\AddisTheEthiopianGodFlac\12 - This Is Your Life (Single Version) .wav
Pre-gap length 0:00:01.52
Peak level 96.6 %
Extraction speed 4.0 X
Track quality 100.0 %
Test CRC 338F6410
Copy CRC 338F6410
Track not present in AccurateRip database
Copy OK
None of the tracks are present in the AccurateRip database
No errors occurred
End of status report
==== Log checksum 8A42F2832783E675983A82412417FB620E4875DFA0D8EB29EBF46BB5BECB20F0 ====
 
Содержание индексной карты (.CUE)
REM GENRE Soul
REM DATE 2013
REM DISCID BF0BD20C
REM COMMENT "ExactAudioCopy v1.0b3"
PERFORMER "Billy Paul"
TITLE "Going East"
FILE "01 - East.wav" WAVE
TRACK 01 AUDIO
TITLE "East"
PERFORMER "Billy Paul"
INDEX 01 00:00:00
TRACK 02 AUDIO
TITLE "(If You Let Me Make Love To You Then) Why Can't I Touch You"
PERFORMER "Billy Paul"
INDEX 00 06:26:68
FILE "02 - (If You Let Me Make Love To You Then) Why Can't I Touch You.wav" WAVE
INDEX 01 00:00:00
TRACK 03 AUDIO
TITLE "This Is Your Life"
PERFORMER "Billy Paul"
INDEX 00 02:41:23
FILE "03 - This Is Your Life.wav" WAVE
INDEX 01 00:00:00
TRACK 04 AUDIO
TITLE "Jesus Boy (You Only Look Like A Man)"
PERFORMER "Billy Paul"
INDEX 00 04:14:68
FILE "04 - Jesus Boy (You Only Look Like A Man).wav" WAVE
INDEX 01 00:00:00
TRACK 05 AUDIO
TITLE "Magic Carpet Ride"
PERFORMER "Billy Paul"
INDEX 00 04:17:00
FILE "05 - Magic Carpet Ride.wav" WAVE
INDEX 01 00:00:00
TRACK 06 AUDIO
TITLE "I Wish It Were Yesterday"
PERFORMER "Billy Paul"
INDEX 00 05:19:05
FILE "06 - I Wish It Were Yesterday.wav" WAVE
INDEX 01 00:00:00
TRACK 07 AUDIO
TITLE "Compared To What"
PERFORMER "Billy Paul"
INDEX 00 03:48:29
FILE "07 - Compared To What.wav" WAVE
INDEX 01 00:00:00
TRACK 08 AUDIO
TITLE "Love Buddies"
PERFORMER "Billy Paul"
INDEX 00 05:19:37
FILE "08 - Love Buddies.wav" WAVE
INDEX 01 00:00:00
TRACK 09 AUDIO
TITLE "There's A Small Hotel"
PERFORMER "Billy Paul"
INDEX 00 03:39:12
FILE "09 - There's A Small Hotel.wav" WAVE
INDEX 01 00:00:00
TRACK 10 AUDIO
TITLE "Jesus Boy (You Only Look Like A Man) (Single Version)"
PERFORMER "Billy Paul"
INDEX 00 04:26:11
FILE "10 - Jesus Boy (You Only Look Like A Man) (Single Version).wav" WAVE
INDEX 01 00:00:00
TRACK 11 AUDIO
TITLE "Magic Carpet Ride (Single Version)"
PERFORMER "Billy Paul"
INDEX 00 03:18:31
FILE "11 - Magic Carpet Ride (Single Version).wav" WAVE
INDEX 01 00:00:00
TRACK 12 AUDIO
TITLE "This Is Your Life (Single Version)"
PERFORMER "Billy Paul"
INDEX 00 03:47:68
FILE "12 - This Is Your Life (Single Version).wav" WAVE
INDEX 01 00:00:00
Приватный:
Нет (DHT включён)
Размер:
383.90 Мб (402,549,727 байт) » файлов: 26
Участники:
0 раздают, 0 качают (0 участников всего)
Внешние участники:
5 раздают, 1 качают (6 участников всего) [ Обновить ]
Есть вопросы - пишите личное сообщение пользователю M0p94ok.
12:39
80
Нет комментариев. Ваш будет первым!