Поиск

(Soul, Folk, World, & Country, Rhythm & Blues) [CD] Billy Vera & The Beaters - By Request: The Best Of Billy Vera & The Beaters - 1986, FLAC (tracks+.cue), lossless

(Soul, Folk, World, & Country, Rhythm & Blues) [CD] Billy Vera & The Beaters - By Request: The Best Of Billy Vera & The Beaters - 1986, FLAC (tracks+.cue), lossless
Треклист:
Billy Vera & The Beaters / By Request: The Best Of Billy Vera & The Beaters
Жанр: Soul, Folk, World, & Country, Rhythm & Blues
Носитель: CD
Страна-производитель диска (релиза): USA
Год издания: 1986
Издатель (лейбл): Rhino Records
Номер по каталогу: RNCD 70858
Аудиокодек: FLAC (*.flac)
Тип рипа: tracks+.cue
Битрейт аудио: lossless
Продолжительность: 45:33
Источник (релизер): DP
Наличие сканов в содержимом раздачи: да
Треклист:
1. Corner Of The Night
2. Someone Will School You, Someone Will Cool You
3. Strange Things Happen
4. I Can Take Care Of Myself
5. Millie, Make Some Chili
6. Peanut Butter
7. Hopeless Romantic
8. At This Moment
9. Here Comes The Dawn Again
 
Лог создания рипа
Exact Audio Copy V1.0 beta 3 from 29. August 2011
EAC extraction logfile from 3. January 2017, 22:42
Billy Vera & The Beaters / By Request (The Best of Billy Vera & The Beaters)
Used drive : HL-DT-STDVDRAM SP80NB60 Adapter: 0 ID: 0
Read mode : Secure
Utilize accurate stream : Yes
Defeat audio cache : Yes
Make use of C2 pointers : No
Read offset correction : 6
Overread into Lead-In and Lead-Out : No
Fill up missing offset samples with silence : Yes
Delete leading and trailing silent blocks : No
Null samples used in CRC calculations : Yes
Used interface : Native Win32 interface for Win NT & 2000
Gap handling : Appended to previous track
Used output format : User Defined Encoder
Selected bitrate : 1024 kBit/s
Quality : High
Add ID3 tag : No
Command line compressor : C:\Program Files (x86)\FLAC Frontend\tools\flac.exe
Additional command line options : -8 -e -V -T "ARTIST=%artist%" -T "TITLE=%title%" -T "ALBUM=%albumtitle%" -T "DATE=%year%" -T "TRACKNUMBER=%tracknr%" -T "GENRE=%genre%" -T "PERFORMER=%albuminterpret%" -T "COMPOSER=%composer%" %haslyrics%--tag-from-file=LYRICS="%lyricsfile%"%haslyrics% -T "ALBUMARTIST=%albumartist%" -T "DISCNUMBER=%cdnumber%" -T "TOTALDISCS=%totalcds%" -T "TOTALTRACKS=%numtracks%" -T "COMMENT=%comment%" %source% -o %dest%
TOC of the extracted CD
Track | Start | Length | Start sector | End sector
---------------------------------------------------------
1 | 0:00.32 | 5:27.70 | 32 | 24626
2 | 5:28.27 | 4:00.38 | 24627 | 42664
3 | 9:28.65 | 3:58.55 | 42665 | 60569
4 | 13:27.45 | 3:29.57 | 60570 | 76301
5 | 16:57.27 | 4:16.60 | 76302 | 95561
6 | 21:14.12 | 2:59.70 | 95562 | 109056
7 | 24:14.07 | 5:08.20 | 109057 | 132176
8 | 29:22.27 | 4:19.50 | 132177 | 151651
9 | 33:42.02 | 11:51.55 | 151652 | 205031
Track 1
Filename C:\EAC Rips\Billy Vera & The Beaters - [1986] By Request (The Best of Billy Vera & The Beaters) - FLAC\01 - Corner of the Night.wav
Pre-gap length 0:00:02.42
Peak level 100.0 %
Extraction speed 1.3 X
Track quality 100.0 %
Test CRC 84BC02D4
Copy CRC 84BC02D4
Accurately ripped (confidence 6) [A4DB6892] (AR v2)
Copy OK
Track 2
Filename C:\EAC Rips\Billy Vera & The Beaters - [1986] By Request (The Best of Billy Vera & The Beaters) - FLAC\02 - Someone Will School You, Someone Will Cool You.wav
Pre-gap length 0:00:00.04
Peak level 100.0 %
Extraction speed 1.4 X
Track quality 100.0 %
Test CRC 50199D09
Copy CRC 50199D09
Accurately ripped (confidence 6) [D3383530] (AR v2)
Copy OK
Track 3
Filename C:\EAC Rips\Billy Vera & The Beaters - [1986] By Request (The Best of Billy Vera & The Beaters) - FLAC\03 - Strange Things Happen.wav
Pre-gap length 0:00:00.04
Peak level 100.0 %
Extraction speed 1.4 X
Track quality 99.9 %
Test CRC 2E6F996A
Copy CRC 2E6F996A
Accurately ripped (confidence 6) [6A4ED0DF] (AR v2)
Copy OK
Track 4
Filename C:\EAC Rips\Billy Vera & The Beaters - [1986] By Request (The Best of Billy Vera & The Beaters) - FLAC\04 - I Can Take Care of Myself.wav
Pre-gap length 0:00:00.04
Peak level 100.0 %
Extraction speed 1.6 X
Track quality 100.0 %
Test CRC F4DC0F4E
Copy CRC F4DC0F4E
Accurately ripped (confidence 6) [7BCC21D6] (AR v2)
Copy OK
Track 5
Filename C:\EAC Rips\Billy Vera & The Beaters - [1986] By Request (The Best of Billy Vera & The Beaters) - FLAC\05 - Millie, Make Some Chili.wav
Pre-gap length 0:00:00.04
Peak level 100.0 %
Extraction speed 1.8 X
Track quality 100.0 %
Test CRC 41225DB7
Copy CRC 41225DB7
Accurately ripped (confidence 6) [8364D888] (AR v2)
Copy OK
Track 6
Filename C:\EAC Rips\Billy Vera & The Beaters - [1986] By Request (The Best of Billy Vera & The Beaters) - FLAC\06 - Peanut Butter.wav
Pre-gap length 0:00:00.04
Peak level 100.0 %
Extraction speed 1.5 X
Track quality 99.9 %
Test CRC F1F48386
Copy CRC F1F48386
Accurately ripped (confidence 6) [0036562B] (AR v2)
Copy OK
Track 7
Filename C:\EAC Rips\Billy Vera & The Beaters - [1986] By Request (The Best of Billy Vera & The Beaters) - FLAC\07 - Hopeless Romantic.wav
Pre-gap length 0:00:02.37
Peak level 100.0 %
Extraction speed 2.0 X
Track quality 100.0 %
Test CRC A8F73F0A
Copy CRC A8F73F0A
Accurately ripped (confidence 6) [9A54EA47] (AR v2)
Copy OK
Track 8
Filename C:\EAC Rips\Billy Vera & The Beaters - [1986] By Request (The Best of Billy Vera & The Beaters) - FLAC\08 - At This Moment.wav
Pre-gap length 0:00:00.04
Peak level 100.0 %
Extraction speed 2.1 X
Track quality 100.0 %
Test CRC BEC62220
Copy CRC BEC62220
Accurately ripped (confidence 6) [E3E68597] (AR v2)
Copy OK
Track 9
Filename C:\EAC Rips\Billy Vera & The Beaters - [1986] By Request (The Best of Billy Vera & The Beaters) - FLAC\09 - Here Comes the Dawn Again.wav
Pre-gap length 0:00:00.04
Peak level 100.0 %
Extraction speed 2.4 X
Track quality 100.0 %
Test CRC FD016068
Copy CRC FD016068
Accurately ripped (confidence 5) [538E3A04] (AR v2)
Copy OK
All tracks accurately ripped
No errors occurred
End of status report
==== Log checksum 9E856D8D11708FCA5007A38684E602D3EAB5A5620535455345437EA991A63C8C ====
 
Содержание индексной карты (.CUE)
REM GENRE Rock/Soul/R&B
REM DATE 1986
REM DISCID 6A0AAD09
REM COMMENT "ExactAudioCopy v1.0b3"
CATALOG 0075677085827
PERFORMER "Billy Vera & The Beaters"
TITLE "By Request (The Best of Billy Vera & The Beaters)"
FILE "01 - Corner of the Night.wav" WAVE
TRACK 01 AUDIO
TITLE "Corner of the Night"
PERFORMER "Billy Vera & The Beaters"
PREGAP 00:00:32
INDEX 01 00:00:00
TRACK 02 AUDIO
TITLE "Someone Will School You, Someone Will Cool You"
PERFORMER "Billy Vera & The Beaters"
INDEX 00 05:27:67
FILE "02 - Someone Will School You, Someone Will Cool You.wav" WAVE
INDEX 01 00:00:00
TRACK 03 AUDIO
TITLE "Strange Things Happen"
PERFORMER "Billy Vera & The Beaters"
INDEX 00 04:00:35
FILE "03 - Strange Things Happen.wav" WAVE
INDEX 01 00:00:00
TRACK 04 AUDIO
TITLE "I Can Take Care of Myself"
PERFORMER "Billy Vera & The Beaters"
INDEX 00 03:58:52
FILE "04 - I Can Take Care of Myself.wav" WAVE
INDEX 01 00:00:00
TRACK 05 AUDIO
TITLE "Millie, Make Some Chili"
PERFORMER "Billy Vera & The Beaters"
INDEX 00 03:29:54
FILE "05 - Millie, Make Some Chili.wav" WAVE
INDEX 01 00:00:00
TRACK 06 AUDIO
TITLE "Peanut Butter"
PERFORMER "Billy Vera & The Beaters"
INDEX 00 04:16:57
FILE "06 - Peanut Butter.wav" WAVE
INDEX 01 00:00:00
TRACK 07 AUDIO
TITLE "Hopeless Romantic"
PERFORMER "Billy Vera & The Beaters"
INDEX 00 02:57:42
FILE "07 - Hopeless Romantic.wav" WAVE
INDEX 01 00:00:00
TRACK 08 AUDIO
TITLE "At This Moment"
PERFORMER "Billy Vera & The Beaters"
INDEX 00 05:08:17
FILE "08 - At This Moment.wav" WAVE
INDEX 01 00:00:00
TRACK 09 AUDIO
TITLE "Here Comes the Dawn Again"
PERFORMER "Billy Vera & The Beaters"
INDEX 00 04:19:47
FILE "09 - Here Comes the Dawn Again.wav" WAVE
INDEX 01 00:00:00
 
DR Log
foobar2000 1.1.10 / Dynamic Range Meter 1.1.1
log date: 2017-01-05 14:30:13
--------------------------------------------------------------------------------
Analyzed: Billy Vera & The Beaters / By Request (The Best of Billy Vera & The Beaters)
--------------------------------------------------------------------------------
DR Peak RMS Duration Track
--------------------------------------------------------------------------------
DR14 0.00 dB -15.95 dB 5:28 ?-Corner of the Night
DR13 0.00 dB -15.58 dB 4:01 ?-Someone Will School You, Someone Will Cool You
DR13 0.00 dB -15.66 dB 3:59 ?-Strange Things Happen
DR14 0.00 dB -16.05 dB 3:30 ?-I Can Take Care of Myself
DR13 0.00 dB -15.20 dB 4:17 ?-Millie, Make Some Chili
DR14 0.00 dB -15.84 dB 3:00 ?-Peanut Butter
DR14 0.00 dB -18.56 dB 5:08 ?-Hopeless Romantic
DR14 0.00 dB -17.94 dB 4:20 ?-At This Moment
DR14 0.00 dB -18.43 dB 11:52 ?-Here Comes the Dawn Again
--------------------------------------------------------------------------------
Number of tracks: 9
Official DR value: DR14
Samplerate: 44100 Hz
Channels: 2
Bits per sample: 16
Bitrate: 748 kbps
Codec: FLAC
================================================================================
 
Состав
Bass – Chuck Fiore (tracks: 1 to 5, 7, 8), Tommy Cogbill (tracks: 6, 7)
Drums – Beau Segal (tracks: 1 to 5, 7, 8), Gene Chrisman (tracks: 6, 7)
Guitar – George Marinelli, Jr (tracks: 1 to 5, 7, 8), Jimmy Johnson (tracks: 6, 7), Pete Carr (tracks: 6, 7)
Keyboards – Barry Beckett (tracks: 6, 7)
Pedal Steel Guitar – Jeff Baxter (tracks: 1 to 5, 7, 8)
Piano – Jim Ehinger
Saxophone – Bryan Cumming (tracks: 1 to 5, 7, 8), Jerry Peterson, Lon Price, Ron Viola
Vocals, Guitar – Billy Vera
Приватный:
Нет (DHT включён)
Размер:
268.56 Мб (281,604,723 байт) » файлов: 18
Участники:
0 раздают, 0 качают (0 участников всего)
Внешние участники:
1 раздают, 0 качают (1 участников всего) [ Обновить ]
Есть вопросы - пишите личное сообщение пользователю M0p94ok.
12:38
58
Нет комментариев. Ваш будет первым!