Поиск

(Funk, Soul, Jazz Rock) [CD] Mr. Chop - Silver Frequencies - 2009, FLAC (tracks+.cue), lossless

(Funk, Soul, Jazz Rock) [CD] Mr. Chop - Silver Frequencies - 2009, FLAC (tracks+.cue), lossless
Треклист:
Mr. Chop / Silver Frequencies
Жанр: Funk, Soul, Jazz Rock
Носитель: CD
Страна-производитель диска (релиза): UK
Год издания: 2009
Издатель (лейбл): Now-Again Records, Five Day Weekend
Номер по каталогу: FDW 7704P
Аудиокодек: FLAC (*.flac)
Тип рипа: tracks+.cue
Битрейт аудио: lossless
Продолжительность: 01:05:24
Источник (релизер): DP
Наличие сканов в содержимом раздачи: да
 
Треклист

01. Silver Frequencies (06:18)
02. Feathers On Fire (04:20)
03. Intermezzo 1 (01:46)
04. Psychic Psych (04:19)
05. Intermezzo 2 (02:36)
06. 8000 Volts (04:44)
07. Intermezzo 3 (04:29)
08. Outside My Door (06:01)
09. Ends And Means Dub (04:25)
10. Intermezzo 4 (01:16)
11. The Zero Point (03:28)
12. Intermezzo 5 (02:12)
13. Hole In The Sky (03:42)
14. Intermezzo 6 (03:55)
15. Magic Box (05:17)
16. Flashbacks (03:32)
17. Intermezzo 7 (02:11)
 
Лог создания рипа
Exact Audio Copy V1.0 beta 3 from 29. August 2011
EAC extraction logfile from 20. June 2013, 2:03
Mr. Chop / Silver Frequencies
Used drive : PIONEER DVD-RW DVR-116D Adapter: 5 ID: 1
Read mode : Secure
Utilize accurate stream : Yes
Defeat audio cache : Yes
Make use of C2 pointers : No
Read offset correction : 96
Overread into Lead-In and Lead-Out : No
Fill up missing offset samples with silence : Yes
Delete leading and trailing silent blocks : No
Null samples used in CRC calculations : Yes
Used interface : Native Win32 interface for Win NT & 2000
Gap handling : Appended to previous track
Used output format : User Defined Encoder
Selected bitrate : 1024 kBit/s
Quality : High
Add ID3 tag : No
Command line compressor : C:\Program Files\Exact Audio Copy\FLAC\FLAC.EXE
Additional command line options : -8 -V -T "ARTIST=%artist%" -T "TITLE=%title%" -T "ALBUM=%albumtitle%" -T "DATE=%year%" -T "TRACKNUMBER=%tracknr%" -T "GENRE=%genre%" -T "PERFORMER=%albuminterpret%" -T "COMPOSER=%composer%" %haslyrics%--tag-from-file=LYRICS="%lyricsfile%"%haslyrics% -T "ALBUMARTIST=%albumartist%" -T "DISCNUMBER=%cdnumber%" -T "TOTALDISCS=%totalcds%" -T "TOTALTRACKS=%numtracks%" -T "COMMENT=%comment%" %source% -o %dest%
TOC of the extracted CD
Track | Start | Length | Start sector | End sector
---------------------------------------------------------
1 | 0:00.00 | 6:19.26 | 0 | 28450
2 | 6:19.26 | 4:24.40 | 28451 | 48290
3 | 10:43.66 | 1:48.41 | 48291 | 56431
4 | 12:32.32 | 4:24.29 | 56432 | 76260
5 | 16:56.61 | 2:38.29 | 76261 | 88139
6 | 19:35.15 | 4:47.28 | 88140 | 109692
7 | 24:22.43 | 4:35.55 | 109693 | 130372
8 | 28:58.23 | 6:01.04 | 130373 | 157451
9 | 34:59.27 | 4:24.37 | 157452 | 177288
10 | 39:23.64 | 1:19.36 | 177289 | 183249
11 | 40:43.25 | 3:30.49 | 183250 | 199048
12 | 44:13.74 | 2:12.64 | 199049 | 209012
13 | 46:26.63 | 3:43.33 | 209013 | 225770
14 | 50:10.21 | 4:02.46 | 225771 | 243966
15 | 54:12.67 | 5:18.49 | 243967 | 267865
16 | 59:31.41 | 3:38.36 | 267866 | 284251
17 | 63:10.02 | 2:14.20 | 284252 | 294321
Track 1
Filename F:\Muzak - FLAC\Mr. Chop - Silver Frequencies (2009)\01 - Silver Frequencies.wav
Pre-gap length 0:00:02.00
Peak level 100.0 %
Extraction speed 3.0 X
Track quality 100.0 %
Test CRC 6AFDF0E9
Copy CRC 6AFDF0E9
Track not present in AccurateRip database
Copy OK
Track 2
Filename F:\Muzak - FLAC\Mr. Chop - Silver Frequencies (2009)\02 - Feathers on Fire.wav
Peak level 91.6 %
Extraction speed 3.2 X
Track quality 100.0 %
Test CRC 994D5222
Copy CRC 994D5222
Track not present in AccurateRip database
Copy OK
Track 3
Filename F:\Muzak - FLAC\Mr. Chop - Silver Frequencies (2009)\03 - Intermezzo 1.wav
Peak level 100.0 %
Extraction speed 2.3 X
Track quality 99.9 %
Test CRC 4CE910A4
Copy CRC 4CE910A4
Track not present in AccurateRip database
Copy OK
Track 4
Filename F:\Muzak - FLAC\Mr. Chop - Silver Frequencies (2009)\04 - Psychic Psych.wav
Peak level 94.0 %
Extraction speed 3.6 X
Track quality 100.0 %
Test CRC DD7FF25A
Copy CRC DD7FF25A
Track not present in AccurateRip database
Copy OK
Track 5
Filename F:\Muzak - FLAC\Mr. Chop - Silver Frequencies (2009)\05 - Intermezzo 2.wav
Peak level 94.9 %
Extraction speed 2.9 X
Track quality 99.9 %
Test CRC FADB3302
Copy CRC FADB3302
Track not present in AccurateRip database
Copy OK
Track 6
Filename F:\Muzak - FLAC\Mr. Chop - Silver Frequencies (2009)\06 - 8000 Volts.wav
Peak level 96.0 %
Extraction speed 3.9 X
Track quality 100.0 %
Test CRC DFF6F1B1
Copy CRC DFF6F1B1
Track not present in AccurateRip database
Copy OK
Track 7
Filename F:\Muzak - FLAC\Mr. Chop - Silver Frequencies (2009)\07 - Intermezzo 3.wav
Peak level 100.0 %
Extraction speed 4.1 X
Track quality 100.0 %
Test CRC 75C7A085
Copy CRC 75C7A085
Track not present in AccurateRip database
Copy OK
Track 8
Filename F:\Muzak - FLAC\Mr. Chop - Silver Frequencies (2009)\08 - Outside My Door.wav
Peak level 100.0 %
Extraction speed 4.5 X
Track quality 100.0 %
Test CRC 8B8E4D72
Copy CRC 8B8E4D72
Track not present in AccurateRip database
Copy OK
Track 9
Filename F:\Muzak - FLAC\Mr. Chop - Silver Frequencies (2009)\09 - Ends and Means Dub.wav
Peak level 100.0 %
Extraction speed 4.5 X
Track quality 100.0 %
Test CRC EE44CCD4
Copy CRC EE44CCD4
Track not present in AccurateRip database
Copy OK
Track 10
Filename F:\Muzak - FLAC\Mr. Chop - Silver Frequencies (2009)\10 - Intermezzo 4.wav
Peak level 38.6 %
Extraction speed 3.6 X
Track quality 100.0 %
Test CRC 2D752544
Copy CRC 2D752544
Track not present in AccurateRip database
Copy OK
Track 11
Filename F:\Muzak - FLAC\Mr. Chop - Silver Frequencies (2009)\11 - The Zero Point.wav
Peak level 91.3 %
Extraction speed 4.6 X
Track quality 100.0 %
Test CRC 229F4B7D
Copy CRC 229F4B7D
Track not present in AccurateRip database
Copy OK
Track 12
Filename F:\Muzak - FLAC\Mr. Chop - Silver Frequencies (2009)\12 - Intermezzo 5.wav
Peak level 72.6 %
Extraction speed 4.3 X
Track quality 100.0 %
Test CRC E5FD7AC1
Copy CRC E5FD7AC1
Track not present in AccurateRip database
Copy OK
Track 13
Filename F:\Muzak - FLAC\Mr. Chop - Silver Frequencies (2009)\13 - Hole in the Sky.wav
Peak level 94.8 %
Extraction speed 4.3 X
Track quality 99.9 %
Test CRC 289F3A0C
Copy CRC 289F3A0C
Track not present in AccurateRip database
Copy OK
Track 14
Filename F:\Muzak - FLAC\Mr. Chop - Silver Frequencies (2009)\14 - Intermezzo 6.wav
Peak level 45.1 %
Extraction speed 5.0 X
Track quality 100.0 %
Test CRC 87A8898E
Copy CRC 87A8898E
Track not present in AccurateRip database
Copy OK
Track 15
Filename F:\Muzak - FLAC\Mr. Chop - Silver Frequencies (2009)\15 - Magic Box.wav
Peak level 89.5 %
Extraction speed 2.9 X
Track quality 99.7 %
Test CRC 51AAD310
Copy CRC 51AAD310
Track not present in AccurateRip database
Copy OK
Track 16
Filename F:\Muzak - FLAC\Mr. Chop - Silver Frequencies (2009)\16 - Flashbacks.wav
Peak level 100.0 %
Extraction speed 4.7 X
Track quality 99.9 %
Test CRC D82F7BB8
Copy CRC D82F7BB8
Track not present in AccurateRip database
Copy OK
Track 17
Filename F:\Muzak - FLAC\Mr. Chop - Silver Frequencies (2009)\17 - Intermezzo 7.wav
Peak level 100.0 %
Extraction speed 4.9 X
Track quality 100.0 %
Test CRC 7EA72FB1
Copy CRC 7EA72FB1
Track not present in AccurateRip database
Copy OK
None of the tracks are present in the AccurateRip database
No errors occurred
End of status report
---- CUETools DB Plugin V2.1.3
[CTDB TOCID: bpIkTwx5IDCGuUbneivRoqzgGns-] disk not present in database, Submit result: bpIkTwx5IDCGuUbneivRoqzgGns- has been uploaded
==== Log checksum FD8FB91775B0A18869BD96C08B53E6D2BDD0ECB569583D3DF70C1C7388C88403 ====
 
Содержание индексной карты (.CUE)
REM GENRE Electronic
REM DATE 2009
REM DISCID EB0F5411
REM COMMENT "ExactAudioCopy v1.0b3"
PERFORMER "Mr. Chop"
TITLE "Silver Frequencies"
FILE "01 - Silver Frequencies.wav" WAVE
TRACK 01 AUDIO
TITLE "Silver Frequencies"
PERFORMER "Mr. Chop"
INDEX 01 00:00:00
FILE "02 - Feathers on Fire.wav" WAVE
TRACK 02 AUDIO
TITLE "Feathers on Fire"
PERFORMER "Mr. Chop"
INDEX 01 00:00:00
FILE "03 - Intermezzo 1.wav" WAVE
TRACK 03 AUDIO
TITLE "Intermezzo 1"
PERFORMER "Mr. Chop"
INDEX 01 00:00:00
FILE "04 - Psychic Psych.wav" WAVE
TRACK 04 AUDIO
TITLE "Psychic Psych"
PERFORMER "Mr. Chop"
INDEX 01 00:00:00
FILE "05 - Intermezzo 2.wav" WAVE
TRACK 05 AUDIO
TITLE "Intermezzo 2"
PERFORMER "Mr. Chop"
INDEX 01 00:00:00
FILE "06 - 8000 Volts.wav" WAVE
TRACK 06 AUDIO
TITLE "8000 Volts"
PERFORMER "Mr. Chop"
INDEX 01 00:00:00
FILE "07 - Intermezzo 3.wav" WAVE
TRACK 07 AUDIO
TITLE "Intermezzo 3"
PERFORMER "Mr. Chop"
INDEX 01 00:00:00
FILE "08 - Outside My Door.wav" WAVE
TRACK 08 AUDIO
TITLE "Outside My Door"
PERFORMER "Mr. Chop"
INDEX 01 00:00:00
FILE "09 - Ends and Means Dub.wav" WAVE
TRACK 09 AUDIO
TITLE "Ends and Means Dub"
PERFORMER "Mr. Chop"
INDEX 01 00:00:00
FILE "10 - Intermezzo 4.wav" WAVE
TRACK 10 AUDIO
TITLE "Intermezzo 4"
PERFORMER "Mr. Chop"
INDEX 01 00:00:00
FILE "11 - The Zero Point.wav" WAVE
TRACK 11 AUDIO
TITLE "The Zero Point"
PERFORMER "Mr. Chop"
INDEX 01 00:00:00
FILE "12 - Intermezzo 5.wav" WAVE
TRACK 12 AUDIO
TITLE "Intermezzo 5"
PERFORMER "Mr. Chop"
INDEX 01 00:00:00
FILE "13 - Hole in the Sky.wav" WAVE
TRACK 13 AUDIO
TITLE "Hole in the Sky"
PERFORMER "Mr. Chop"
INDEX 01 00:00:00
FILE "14 - Intermezzo 6.wav" WAVE
TRACK 14 AUDIO
TITLE "Intermezzo 6"
PERFORMER "Mr. Chop"
INDEX 01 00:00:00
FILE "15 - Magic Box.wav" WAVE
TRACK 15 AUDIO
TITLE "Magic Box"
PERFORMER "Mr. Chop"
INDEX 01 00:00:00
FILE "16 - Flashbacks.wav" WAVE
TRACK 16 AUDIO
TITLE "Flashbacks"
PERFORMER "Mr. Chop"
INDEX 01 00:00:00
FILE "17 - Intermezzo 7.wav" WAVE
TRACK 17 AUDIO
TITLE "Intermezzo 7"
PERFORMER "Mr. Chop"
INDEX 01 00:00:00
 
DR Log
foobar2000 1.1.10 / Dynamic Range Meter 1.1.1
log date: 2017-01-05 09:23:33
--------------------------------------------------------------------------------
Analyzed: Mr. Chop / Silver Frequencies
--------------------------------------------------------------------------------
DR Peak RMS Duration Track
--------------------------------------------------------------------------------
DR6 0.00 dB -7.51 dB 6:19 ?-Silver Frequencies
DR8 -0.76 dB -10.51 dB 4:25 ?-Feathers on Fire
DR16 0.00 dB -17.56 dB 1:49 ?-Intermezzo 1
DR6 -0.53 dB -9.09 dB 4:24 ?-Psychic Psych
DR10 -0.45 dB -13.37 dB 2:38 ?-Intermezzo 2
DR7 -0.35 dB -9.58 dB 4:47 ?-8000 Volts
DR10 0.00 dB -13.40 dB 4:36 ?-Intermezzo 3
DR8 0.00 dB -9.03 dB 6:01 ?-Outside My Door
DR8 0.00 dB -9.91 dB 4:24 ?-Ends and Means Dub
DR13 -8.27 dB -23.86 dB 1:19 ?-Intermezzo 4
DR8 -0.78 dB -9.64 dB 3:31 ?-The Zero Point
DR14 -2.77 dB -19.08 dB 2:13 ?-Intermezzo 5
DR7 -0.46 dB -9.71 dB 3:43 ?-Hole in the Sky
DR11 -6.92 dB -23.11 dB 4:03 ?-Intermezzo 6
DR5 -0.96 dB -8.06 dB 5:19 ?-Magic Box
DR11 0.00 dB -13.16 dB 3:38 ?-Flashbacks
--------------------------------------------------------------------------------
Number of tracks: 16
Official DR value: DR9
Samplerate: 44100 Hz
Channels: 2
Bits per sample: 16
Bitrate: 750 kbps
Codec: FLAC
================================================================================
 
Об альбоме (сборнике)
Coz Littler aka Mr. Chop has been releasing his music on his own label, then on Gerald 'Jazzman' Short's Stark Reality label, then on Dusty's Jazz & Milk Records. He's now signed on Stones Throw's subsidiary label Now-Again Records and is releasing new music with the help of, among others UK psych-heads, Malcolm Catto & Mike Burnham from The Heliocentrics. Mr. Chop has a new mind-blowing album coming out in november (Switched On), and if you're a fan of mixtures of fuzzy psychedelia, electronics, cinematics, funk and jazz with a heavy dose of mind-expanding tripping grooves, don't pass out on this one... and if you're able to find some information about this promo-only album released in 2009, Silver Frequencies, don't hesitate to share it with us!!!
 
Состав
Bass, Guitar, Synthesizer [Ems Vcs3], Synthesizer [Modular Synth], Mellotron, Percussion – Coz Littler
Brass – Steve Parry
Clavinet, Electric Piano [Fender Rhodes], Organ [Hammond], Piano – Glyn Williams
Drums, Bass, Guitar, Percussion – Mike Burnham
Track 4
Bass – Dave Spencer
Drums – Colin Lamont
Tenor Saxophone – Bob Whittaker
Приватный:
Нет (DHT включён)
Размер:
419.03 Мб (439,385,128 байт) » файлов: 25
Участники:
0 раздают, 0 качают (0 участников всего)
Внешние участники:
1 раздают, 0 качают (1 участников всего) [ Обновить ]
No seeders - write a personal message to user M0p94ok. Нет сидеров - пишите личное сообщение пользователю M0p94ok.
12:37
54
Нет комментариев. Ваш будет первым!