Поиск

(Funk, Soul) [CD] Chuck Jackson - The Motown Anthology - 2005 (2CD), FLAC (tracks+.cue), lossless

(Funk, Soul) [CD] Chuck Jackson - The Motown Anthology - 2005 (2CD), FLAC (tracks+.cue), lossless
Треклист:
Chuck Jackson / The Motown Anthology
Жанр: Funk, Soul
Носитель: CD
Страна-производитель диска (релиза): UK
Год издания: 2005
Издатель (лейбл): Motown
Номер по каталогу: 983 293-1
Аудиокодек: FLAC (*.flac)
Тип рипа: tracks+.cue
Битрейт аудио: lossless
Продолжительность: 02:24:53
Источник (релизер): DP
Наличие сканов в содержимом раздачи: нет
 
CD 1
Chuck Jackson Arrives
01. (You Can't Let the Boy Overpower) The Man in You (03:00)
02. Your Wonderful Love (02:56)
03. Lonely Lonely Man Am I (02:31)
04. Ain't No Sun Since You've Been Gone (03:03)
05. I Can't Go on Sharing Your Love (02:53)
06. Forgive My Jealousy (02:12)
07. To See the Sun Again (02:41)
08. What Am I Gonna Do Without You (02:31)
09. I Like Everything About You (03:11)
10. We'll Find a Way (02:16)
11. Where You Gonna Run to Now (03:02)
12. Girls Girls Girls (02:44)
Goin' Back To Chuck Jackson
13. Are You Lonely for Me Baby (03:19)
14. Honey Come Back (03:36)
15. Can You Feel It, Babe (03:39)
16. Loving You Is Sweeter Than Ever (03:04)
17. Cry Like a Baby (02:58)
18. You Keep Running Away (03:56)
19. Can I Change My Mind (03:17)
20. I'd Still Love You (02:52)
21. The Chokin' Kind (02:48)
22. The Day My World Stood Still (03:21)
23. No More Water in the Well (02:38)
24. Rosalind (03:20)
 
Лог создания рипа
X Lossless Decoder version 20161007 (149.3)
XLD extraction logfile from 2017-01-01 16:35:52 +0100
Chuck Jackson / The Motown Anthology [Motown 983-293-1]
Used drive : Optiarc DVD RW AD-5280S (revision 1.Z7)
Media type : Pressed CD
Ripper mode : XLD Secure Ripper
Disable audio cache : OK for the drive with a cache less than 1375KiB
Make use of C2 pointers : NO
Read offset correction : 48
Max retry count : 20
Gap status : Analyzed, Appended (except HTOA)
TOC of the extracted CD
Track | Start | Length | Start sector | End sector
---------------------------------------------------------
1 | 00:00:00 | 03:00:30 | 0 | 13529
2 | 03:00:30 | 02:56:63 | 13530 | 26792
3 | 05:57:18 | 02:31:52 | 26793 | 38169
4 | 08:28:70 | 03:04:22 | 38170 | 51991
5 | 11:33:17 | 02:53:68 | 51992 | 65034
6 | 14:27:10 | 02:13:10 | 65035 | 75019
7 | 16:40:20 | 02:42:16 | 75020 | 87185
8 | 19:22:36 | 02:31:69 | 87186 | 98579
9 | 21:54:30 | 03:11:34 | 98580 | 112938
10 | 25:05:64 | 02:17:05 | 112939 | 123218
11 | 27:22:69 | 03:02:67 | 123219 | 136935
12 | 30:25:61 | 02:45:07 | 136936 | 149317
13 | 33:10:68 | 03:19:61 | 149318 | 164303
14 | 36:30:54 | 03:36:64 | 164304 | 180567
15 | 40:07:43 | 03:40:04 | 180568 | 197071
16 | 43:47:47 | 03:05:17 | 197072 | 210963
17 | 46:52:64 | 02:59:10 | 210964 | 224398
18 | 49:51:74 | 03:56:72 | 224399 | 242170
19 | 53:48:71 | 03:18:21 | 242171 | 257041
20 | 57:07:17 | 02:52:44 | 257042 | 269985
21 | 59:59:61 | 02:48:47 | 269986 | 282632
22 | 62:48:33 | 03:21:73 | 282633 | 297780
23 | 66:10:31 | 02:38:74 | 297781 | 309704
24 | 68:49:30 | 03:20:63 | 309705 | 324767
AccurateRip Summary (DiscID: 003c1f0f-041b7255-5610ea18)
Track 01 : OK (v1+v2, confidence 6/6)
Track 02 : OK (v1+v2, confidence 6/6)
Track 03 : OK (v1+v2, confidence 6/6)
Track 04 : OK (v1+v2, confidence 6/6)
Track 05 : OK (v1+v2, confidence 6/6)
Track 06 : OK (v1+v2, confidence 6/6)
Track 07 : OK (v1+v2, confidence 6/6)
Track 08 : OK (v1+v2, confidence 6/6)
Track 09 : OK (v1+v2, confidence 6/6)
Track 10 : OK (v1+v2, confidence 6/6)
Track 11 : OK (v1+v2, confidence 6/6)
Track 12 : OK (v1+v2, confidence 6/6)
Track 13 : OK (v1+v2, confidence 6/6)
Track 14 : OK (v1+v2, confidence 6/6)
Track 15 : OK (v1+v2, confidence 6/6)
Track 16 : OK (v1+v2, confidence 6/6)
Track 17 : OK (v1+v2, confidence 6/6)
Track 18 : OK (v1+v2, confidence 6/6)
Track 19 : OK (v1+v2, confidence 6/6)
Track 20 : OK (v1+v2, confidence 6/6)
Track 21 : OK (v1+v2, confidence 6/6)
Track 22 : OK (v1+v2, confidence 6/6)
Track 23 : OK (v1+v2, confidence 6/6)
Track 24 : OK (v1+v2, confidence 6/6)
->All tracks accurately ripped.
All Tracks
Statistics
Read error : 0
Jitter error (maybe fixed) : 0
Retry sector count : 0
Damaged sector count : 0
Track 01
Filename : /Users/bork/Desktop/The Motown Anthology [Motown 983-293-1]/D1/01 Chuck Jackson - (You Can't Let The Boy Overpower) The Man In You.flac
Pre-gap length : 00:02:00
CRC32 hash (test run) : 1E921332
CRC32 hash : 1E921332
CRC32 hash (skip zero) : 5850256E
AccurateRip v1 signature : 9D8B0CC3
AccurateRip v2 signature : 3891BE54
->Accurately ripped (v1+v2, confidence 3+3/6)
Statistics
Read error : 0
Jitter error (maybe fixed) : 0
Retry sector count : 0
Damaged sector count : 0
Track 02
Filename : /Users/bork/Desktop/The Motown Anthology [Motown 983-293-1]/D1/02 Chuck Jackson - Your Wonderful Love.flac
Pre-gap length : 00:01:58
CRC32 hash (test run) : B4D93581
CRC32 hash : B4D93581
CRC32 hash (skip zero) : 69EA7B6D
AccurateRip v1 signature : B714A0C3
AccurateRip v2 signature : E97D1E9B
->Accurately ripped (v1+v2, confidence 3+3/6)
Statistics
Read error : 0
Jitter error (maybe fixed) : 0
Retry sector count : 0
Damaged sector count : 0
Track 03
Filename : /Users/bork/Desktop/The Motown Anthology [Motown 983-293-1]/D1/03 Chuck Jackson - Lonely Lonely Man Am I.flac
Pre-gap length : 00:01:58
CRC32 hash (test run) : CC0EC41C
CRC32 hash : CC0EC41C
CRC32 hash (skip zero) : DB481D54
AccurateRip v1 signature : 6CD8B2E7
AccurateRip v2 signature : 775EF8DE
->Accurately ripped (v1+v2, confidence 3+3/6)
Statistics
Read error : 0
Jitter error (maybe fixed) : 0
Retry sector count : 0
Damaged sector count : 0
Track 04
Filename : /Users/bork/Desktop/The Motown Anthology [Motown 983-293-1]/D1/04 Chuck Jackson - Ain't No Sun Since You've Been Gone.flac
Pre-gap length : 00:01:58
CRC32 hash (test run) : B5B16A13
CRC32 hash : B5B16A13
CRC32 hash (skip zero) : B743A399
AccurateRip v1 signature : 0C33BA69
AccurateRip v2 signature : B0A29332
->Accurately ripped (v1+v2, confidence 3+3/6)
Statistics
Read error : 0
Jitter error (maybe fixed) : 0
Retry sector count : 0
Damaged sector count : 0
Track 05
Filename : /Users/bork/Desktop/The Motown Anthology [Motown 983-293-1]/D1/05 Chuck Jackson - I Can't Go On Sharing Your Love.flac
Pre-gap length : 00:01:58
CRC32 hash (test run) : CC5CBDFA
CRC32 hash : CC5CBDFA
CRC32 hash (skip zero) : BAC54457
AccurateRip v1 signature : ECC9514E
AccurateRip v2 signature : D8B6A955
->Accurately ripped (v1+v2, confidence 3+3/6)
Statistics
Read error : 0
Jitter error (maybe fixed) : 0
Retry sector count : 0
Damaged sector count : 0
Track 06
Filename : /Users/bork/Desktop/The Motown Anthology [Motown 983-293-1]/D1/06 Chuck Jackson - Forgive My Jealousy.flac
Pre-gap length : 00:01:58
CRC32 hash (test run) : 3ED87665
CRC32 hash : 3ED87665
CRC32 hash (skip zero) : D8F9415F
AccurateRip v1 signature : 6760491E
AccurateRip v2 signature : 5A4A82FB
->Accurately ripped (v1+v2, confidence 3+3/6)
Statistics
Read error : 0
Jitter error (maybe fixed) : 0
Retry sector count : 0
Damaged sector count : 0
Track 07
Filename : /Users/bork/Desktop/The Motown Anthology [Motown 983-293-1]/D1/07 Chuck Jackson - To See The Sun Again.flac
Pre-gap length : 00:01:58
CRC32 hash (test run) : E1CFB0DB
CRC32 hash : E1CFB0DB
CRC32 hash (skip zero) : 4B95C839
AccurateRip v1 signature : C1723EAC
AccurateRip v2 signature : 495F7114
->Accurately ripped (v1+v2, confidence 3+3/6)
Statistics
Read error : 0
Jitter error (maybe fixed) : 0
Retry sector count : 0
Damaged sector count : 0
Track 08
Filename : /Users/bork/Desktop/The Motown Anthology [Motown 983-293-1]/D1/08 Chuck Jackson - What Am I Gonna Do Without You.flac
Pre-gap length : 00:01:58
CRC32 hash (test run) : 3F444F49
CRC32 hash : 3F444F49
CRC32 hash (skip zero) : 524539DE
AccurateRip v1 signature : 7C99945A
AccurateRip v2 signature : AA305E7D
->Accurately ripped (v1+v2, confidence 3+3/6)
Statistics
Read error : 0
Jitter error (maybe fixed) : 0
Retry sector count : 0
Damaged sector count : 0
Track 09
Filename : /Users/bork/Desktop/The Motown Anthology [Motown 983-293-1]/D1/09 Chuck Jackson - I Like Everything About You.flac
Pre-gap length : 00:01:58
CRC32 hash (test run) : 7FD5332D
CRC32 hash : 7FD5332D
CRC32 hash (skip zero) : 541589FF
AccurateRip v1 signature : EA6A82C7
AccurateRip v2 signature : D7987012
->Accurately ripped (v1+v2, confidence 3+3/6)
Statistics
Read error : 0
Jitter error (maybe fixed) : 0
Retry sector count : 0
Damaged sector count : 0
Track 10
Filename : /Users/bork/Desktop/The Motown Anthology [Motown 983-293-1]/D1/10 Chuck Jackson - We'll Find A Way.flac
Pre-gap length : 00:01:58
CRC32 hash (test run) : C9FC0629
CRC32 hash : C9FC0629
CRC32 hash (skip zero) : D2C82BB7
AccurateRip v1 signature : 1BB66B65
AccurateRip v2 signature : 738F5139
->Accurately ripped (v1+v2, confidence 3+3/6)
Statistics
Read error : 0
Jitter error (maybe fixed) : 0
Retry sector count : 0
Damaged sector count : 0
Track 11
Filename : /Users/bork/Desktop/The Motown Anthology [Motown 983-293-1]/D1/11 Chuck Jackson - Where You Gonna Run To Now.flac
Pre-gap length : 00:01:58
CRC32 hash (test run) : 2816DF02
CRC32 hash : 2816DF02
CRC32 hash (skip zero) : 60755760
AccurateRip v1 signature : 3BC73ABB
AccurateRip v2 signature : B4A29B7A
->Accurately ripped (v1+v2, confidence 3+3/6)
Statistics
Read error : 0
Jitter error (maybe fixed) : 0
Retry sector count : 0
Damaged sector count : 0
Track 12
Filename : /Users/bork/Desktop/The Motown Anthology [Motown 983-293-1]/D1/12 Chuck Jackson - Girls Girls Girls.flac
Pre-gap length : 00:01:58
CRC32 hash (test run) : 14B5A71A
CRC32 hash : 14B5A71A
CRC32 hash (skip zero) : BDDC148E
AccurateRip v1 signature : D60C7142
AccurateRip v2 signature : A0BB975A
->Accurately ripped (v1+v2, confidence 3+3/6)
Statistics
Read error : 0
Jitter error (maybe fixed) : 0
Retry sector count : 0
Damaged sector count : 0
Track 13
Filename : /Users/bork/Desktop/The Motown Anthology [Motown 983-293-1]/D1/13 Chuck Jackson - Are You Lonely For Me Baby.flac
Pre-gap length : 00:01:58
CRC32 hash (test run) : B01A3E6D
CRC32 hash : B01A3E6D
CRC32 hash (skip zero) : B18E5A20
AccurateRip v1 signature : AF2D23AD
AccurateRip v2 signature : 8651504B
->Accurately ripped (v1+v2, confidence 3+3/6)
Statistics
Read error : 0
Jitter error (maybe fixed) : 0
Retry sector count : 0
Damaged sector count : 0
Track 14
Filename : /Users/bork/Desktop/The Motown Anthology [Motown 983-293-1]/D1/14 Chuck Jackson - Honey Come Back.flac
Pre-gap length : 00:01:58
CRC32 hash (test run) : 89E9E1DF
CRC32 hash : 89E9E1DF
CRC32 hash (skip zero) : 8673667F
AccurateRip v1 signature : D929D93B
AccurateRip v2 signature : E75FBA82
->Accurately ripped (v1+v2, confidence 3+3/6)
Statistics
Read error : 0
Jitter error (maybe fixed) : 0
Retry sector count : 0
Damaged sector count : 0
Track 15
Filename : /Users/bork/Desktop/The Motown Anthology [Motown 983-293-1]/D1/15 Chuck Jackson - Can You Feel It, Babe.flac
Pre-gap length : 00:01:58
CRC32 hash (test run) : 8B1B5E1E
CRC32 hash : 8B1B5E1E
CRC32 hash (skip zero) : E8F428F9
AccurateRip v1 signature : 031B0421
AccurateRip v2 signature : 923D8E79
->Accurately ripped (v1+v2, confidence 3+3/6)
Statistics
Read error : 0
Jitter error (maybe fixed) : 0
Retry sector count : 0
Damaged sector count : 0
Track 16
Filename : /Users/bork/Desktop/The Motown Anthology [Motown 983-293-1]/D1/16 Chuck Jackson - Loving You Is Sweeter Than Ever.flac
Pre-gap length : 00:01:58
CRC32 hash (test run) : 7418C533
CRC32 hash : 7418C533
CRC32 hash (skip zero) : 59F5CE30
AccurateRip v1 signature : CF0C8A48
AccurateRip v2 signature : 4A9EFAE6
->Accurately ripped (v1+v2, confidence 3+3/6)
Statistics
Read error : 0
Jitter error (maybe fixed) : 0
Retry sector count : 0
Damaged sector count : 0
Track 17
Filename : /Users/bork/Desktop/The Motown Anthology [Motown 983-293-1]/D1/17 Chuck Jackson - Cry Like A Baby.flac
Pre-gap length : 00:01:58
CRC32 hash (test run) : B252B00D
CRC32 hash : B252B00D
CRC32 hash (skip zero) : 748DD442
AccurateRip v1 signature : DA2B864F
AccurateRip v2 signature : A8D1FFBE
->Accurately ripped (v1+v2, confidence 3+3/6)
Statistics
Read error : 0
Jitter error (maybe fixed) : 0
Retry sector count : 0
Damaged sector count : 0
Track 18
Filename : /Users/bork/Desktop/The Motown Anthology [Motown 983-293-1]/D1/18 Chuck Jackson - You Keep Running Away.flac
Pre-gap length : 00:01:58
CRC32 hash (test run) : D9307E7D
CRC32 hash : D9307E7D
CRC32 hash (skip zero) : DC20BF14
AccurateRip v1 signature : F960EEC3
AccurateRip v2 signature : CCBC23B8
->Accurately ripped (v1+v2, confidence 3+3/6)
Statistics
Read error : 0
Jitter error (maybe fixed) : 0
Retry sector count : 0
Damaged sector count : 0
Track 19
Filename : /Users/bork/Desktop/The Motown Anthology [Motown 983-293-1]/D1/19 Chuck Jackson - Can I Change My Mind.flac
Pre-gap length : 00:01:58
CRC32 hash (test run) : 5E253B04
CRC32 hash : 5E253B04
CRC32 hash (skip zero) : 2673890A
AccurateRip v1 signature : 805F25DA
AccurateRip v2 signature : A18FEC54
->Accurately ripped (v1+v2, confidence 3+3/6)
Statistics
Read error : 0
Jitter error (maybe fixed) : 0
Retry sector count : 0
Damaged sector count : 0
Track 20
Filename : /Users/bork/Desktop/The Motown Anthology [Motown 983-293-1]/D1/20 Chuck Jackson - I'd Still Love You.flac
Pre-gap length : 00:01:58
CRC32 hash (test run) : 6781767F
CRC32 hash : 6781767F
CRC32 hash (skip zero) : E1D9FE43
AccurateRip v1 signature : 57111632
AccurateRip v2 signature : 54B70326
->Accurately ripped (v1+v2, confidence 3+3/6)
Statistics
Read error : 0
Jitter error (maybe fixed) : 0
Retry sector count : 0
Damaged sector count : 0
Track 21
Filename : /Users/bork/Desktop/The Motown Anthology [Motown 983-293-1]/D1/21 Chuck Jackson - The Chokin' Kind.flac
Pre-gap length : 00:01:58
CRC32 hash (test run) : 8263530D
CRC32 hash : 8263530D
CRC32 hash (skip zero) : 4AEAA006
AccurateRip v1 signature : 994AD911
AccurateRip v2 signature : 6C3B5D33
->Accurately ripped (v1+v2, confidence 3+3/6)
Statistics
Read error : 0
Jitter error (maybe fixed) : 0
Retry sector count : 0
Damaged sector count : 0
Track 22
Filename : /Users/bork/Desktop/The Motown Anthology [Motown 983-293-1]/D1/22 Chuck Jackson - The Day My World Stood Still.flac
Pre-gap length : 00:01:58
CRC32 hash (test run) : ED63A5FB
CRC32 hash : ED63A5FB
CRC32 hash (skip zero) : F2B67035
AccurateRip v1 signature : 7ECC282B
AccurateRip v2 signature : E13A0FDA
->Accurately ripped (v1+v2, confidence 3+3/6)
Statistics
Read error : 0
Jitter error (maybe fixed) : 0
Retry sector count : 0
Damaged sector count : 0
Track 23
Filename : /Users/bork/Desktop/The Motown Anthology [Motown 983-293-1]/D1/23 Chuck Jackson - No More Water In The Well.flac
Pre-gap length : 00:01:58
CRC32 hash (test run) : F68F989E
CRC32 hash : F68F989E
CRC32 hash (skip zero) : B4B4CA10
AccurateRip v1 signature : A7AA1CC6
AccurateRip v2 signature : E1DBC10C
->Accurately ripped (v1+v2, confidence 3+3/6)
Statistics
Read error : 0
Jitter error (maybe fixed) : 0
Retry sector count : 0
Damaged sector count : 0
Track 24
Filename : /Users/bork/Desktop/The Motown Anthology [Motown 983-293-1]/D1/24 Chuck Jackson - Rosalind.flac
Pre-gap length : 00:01:58
CRC32 hash (test run) : 7F5960E3
CRC32 hash : 7F5960E3
CRC32 hash (skip zero) : FDFAD999
AccurateRip v1 signature : AFA1E99E
AccurateRip v2 signature : FBAEED11
->Accurately ripped (v1+v2, confidence 3+3/6)
Statistics
Read error : 0
Jitter error (maybe fixed) : 0
Retry sector count : 0
Damaged sector count : 0
No errors occurred
End of status report
 
Содержание индексной карты (.CUE)
TITLE "The Motown Anthology [Motown 983-293-1]"
PERFORMER "Chuck Jackson"
CATALOG 0602498329320
REM GENRE "Oldies"
REM DISCNUMBER 1
REM TOTALDISCS 2
REM DISCID 5610EA18
FILE "01 Chuck Jackson - (You Can't Let The Boy Overpower) The Man In You.flac" WAVE
TRACK 01 AUDIO
TITLE "(You Can't Let The Boy Overpower) The Man In You"
ISRC USUM70501385
INDEX 01 00:00:00
TRACK 02 AUDIO
TITLE "Your Wonderful Love"
ISRC USUM70501386
INDEX 00 02:58:47
FILE "02 Chuck Jackson - Your Wonderful Love.flac" WAVE
INDEX 01 00:00:00
TRACK 03 AUDIO
TITLE "Lonely Lonely Man Am I"
ISRC USUM70501387
INDEX 00 02:55:05
FILE "03 Chuck Jackson - Lonely Lonely Man Am I.flac" WAVE
INDEX 01 00:00:00
TRACK 04 AUDIO
TITLE "Ain't No Sun Since You've Been Gone"
ISRC USMO10300474
INDEX 00 02:29:69
FILE "04 Chuck Jackson - Ain't No Sun Since You've Been Gone.flac" WAVE
INDEX 01 00:00:00
TRACK 05 AUDIO
TITLE "I Can't Go On Sharing Your Love"
ISRC USUM70501388
INDEX 00 03:02:39
FILE "05 Chuck Jackson - I Can't Go On Sharing Your Love.flac" WAVE
INDEX 01 00:00:00
TRACK 06 AUDIO
TITLE "Forgive My Jealousy"
ISRC USUM70501389
INDEX 00 02:52:10
FILE "06 Chuck Jackson - Forgive My Jealousy.flac" WAVE
INDEX 01 00:00:00
TRACK 07 AUDIO
TITLE "To See The Sun Again"
ISRC USUM70501391
INDEX 00 02:11:27
FILE "07 Chuck Jackson - To See The Sun Again.flac" WAVE
INDEX 01 00:00:00
TRACK 08 AUDIO
TITLE "What Am I Gonna Do Without You"
ISRC USMO10200415
INDEX 00 02:40:33
FILE "08 Chuck Jackson - What Am I Gonna Do Without You.flac" WAVE
INDEX 01 00:00:00
TRACK 09 AUDIO
TITLE "I Like Everything About You"
ISRC USMO10200411
INDEX 00 02:30:11
FILE "09 Chuck Jackson - I Like Everything About You.flac" WAVE
INDEX 01 00:00:00
TRACK 10 AUDIO
TITLE "We'll Find A Way"
ISRC USUM70501392
INDEX 00 03:09:51
FILE "10 Chuck Jackson - We'll Find A Way.flac" WAVE
INDEX 01 00:00:00
TRACK 11 AUDIO
TITLE "Where You Gonna Run To Now"
ISRC USUM70501393
INDEX 00 02:15:22
FILE "11 Chuck Jackson - Where You Gonna Run To Now.flac" WAVE
INDEX 01 00:00:00
TRACK 12 AUDIO
TITLE "Girls Girls Girls"
ISRC USUM70501394
INDEX 00 03:01:09
FILE "12 Chuck Jackson - Girls Girls Girls.flac" WAVE
INDEX 01 00:00:00
TRACK 13 AUDIO
TITLE "Are You Lonely For Me Baby"
ISRC USMO16982630
INDEX 00 02:43:24
FILE "13 Chuck Jackson - Are You Lonely For Me Baby.flac" WAVE
INDEX 01 00:00:00
TRACK 14 AUDIO
TITLE "Honey Come Back"
ISRC USUM70504146
INDEX 00 03:18:03
FILE "14 Chuck Jackson - Honey Come Back.flac" WAVE
INDEX 01 00:00:00
TRACK 15 AUDIO
TITLE "Can You Feel It, Babe"
ISRC USUM70501396
INDEX 00 03:35:06
FILE "15 Chuck Jackson - Can You Feel It, Babe.flac" WAVE
INDEX 01 00:00:00
TRACK 16 AUDIO
TITLE "Loving You Is Sweeter Than Ever"
ISRC USUM70501397
INDEX 00 03:38:21
FILE "16 Chuck Jackson - Loving You Is Sweeter Than Ever.flac" WAVE
INDEX 01 00:00:00
TRACK 17 AUDIO
TITLE "Cry Like A Baby"
ISRC USUM70501398
INDEX 00 03:03:34
FILE "17 Chuck Jackson - Cry Like A Baby.flac" WAVE
INDEX 01 00:00:00
TRACK 18 AUDIO
TITLE "You Keep Running Away"
ISRC USUM70501399
INDEX 00 02:57:27
FILE "18 Chuck Jackson - You Keep Running Away.flac" WAVE
INDEX 01 00:00:00
TRACK 19 AUDIO
TITLE "Can I Change My Mind"
ISRC USUM70501400
INDEX 00 03:55:14
FILE "19 Chuck Jackson - Can I Change My Mind.flac" WAVE
INDEX 01 00:00:00
TRACK 20 AUDIO
TITLE "I'd Still Love You"
ISRC USUM70501401
INDEX 00 03:16:38
FILE "20 Chuck Jackson - I'd Still Love You.flac" WAVE
INDEX 01 00:00:00
TRACK 21 AUDIO
TITLE "The Chokin' Kind"
ISRC USUM70501402
INDEX 00 02:50:61
FILE "21 Chuck Jackson - The Chokin' Kind.flac" WAVE
INDEX 01 00:00:00
TRACK 22 AUDIO
TITLE "The Day My World Stood Still"
ISRC USUM70501403
INDEX 00 02:46:64
FILE "22 Chuck Jackson - The Day My World Stood Still.flac" WAVE
INDEX 01 00:00:00
TRACK 23 AUDIO
TITLE "No More Water In The Well"
ISRC USUM70501404
INDEX 00 03:20:15
FILE "23 Chuck Jackson - No More Water In The Well.flac" WAVE
INDEX 01 00:00:00
TRACK 24 AUDIO
TITLE "Rosalind"
ISRC USUM70501405
INDEX 00 02:37:16
FILE "24 Chuck Jackson - Rosalind.flac" WAVE
INDEX 01 00:00:00
 
DR Log
foobar2000 1.1.10 / Dynamic Range Meter 1.1.1
log date: 2017-01-03 18:17:39
--------------------------------------------------------------------------------
Analyzed: Chuck Jackson / The Motown Anthology [Motown 983-293-1]
--------------------------------------------------------------------------------
DR Peak RMS Duration Track
--------------------------------------------------------------------------------
DR11 -0.13 dB -12.62 dB 3:00 ?-(You Can't Let The Boy Overpower) The Man In You
DR11 -0.66 dB -14.15 dB 2:57 ?-Your Wonderful Love
DR11 -0.39 dB -14.13 dB 2:32 ?-Lonely Lonely Man Am I
DR11 -0.78 dB -14.05 dB 3:04 ?-Ain't No Sun Since You've Been Gone
DR11 -0.53 dB -12.83 dB 2:54 ?-I Can't Go On Sharing Your Love
DR9 -0.42 dB -11.96 dB 2:13 ?-Forgive My Jealousy
DR10 -0.22 dB -11.98 dB 2:42 ?-To See The Sun Again
DR10 -0.23 dB -13.02 dB 2:32 ?-What Am I Gonna Do Without You
DR12 -0.83 dB -14.02 dB 3:11 ?-I Like Everything About You
DR10 -0.51 dB -12.98 dB 2:17 ?-We'll Find A Way
DR12 -0.72 dB -14.07 dB 3:03 ?-Where You Gonna Run To Now
DR11 -0.33 dB -13.18 dB 2:45 ?-Girls Girls Girls
DR11 -0.19 dB -13.55 dB 3:20 ?-Are You Lonely For Me Baby
DR11 -0.35 dB -14.55 dB 3:37 ?-Honey Come Back
DR12 -0.28 dB -14.47 dB 3:40 ?-Can You Feel It, Babe
DR11 -0.40 dB -13.50 dB 3:05 ?-Loving You Is Sweeter Than Ever
DR12 -0.46 dB -14.38 dB 2:59 ?-Cry Like A Baby
DR12 -0.32 dB -13.84 dB 3:57 ?-You Keep Running Away
DR11 -0.36 dB -13.30 dB 3:18 ?-Can I Change My Mind
DR11 -0.20 dB -13.84 dB 2:53 ?-I'd Still Love You
DR12 -0.49 dB -14.49 dB 2:49 ?-The Chokin' Kind
DR10 -0.36 dB -12.22 dB 3:22 ?-The Day My World Stood Still
DR11 -0.29 dB -13.92 dB 2:39 ?-No More Water In The Well
DR11 -0.48 dB -13.33 dB 3:21 ?-Rosalind
--------------------------------------------------------------------------------
Number of tracks: 24
Official DR value: DR11
Samplerate: 44100 Hz
Channels: 2
Bits per sample: 16
Bitrate: 867 kbps
Codec: FLAC
================================================================================
 
CD 2
Teardrops Keep Falling On My Heart
01. Let Somebody Love Me (03:40)
02. I Can't Let My Heaven Walk Away (02:31)
03. Is There Anything Love Can't Do (03:08)
04. The Thrill Is Gone (03:24)
05. Baby I'll Get It (02:44)
06. Rainy Night in Georgia (04:11)
07. Just a Little Love (Before My Life Is Gone) (02:55)
08. I'll Fight It ('Til I Win Your Love) (03:00)
09. There's a Rainbow in Your Heart (02:35)
10. Two Feet from Happiness (03:03)
11. That's Me Lovin' You (02:54)
12. Have You Heard About the Fool (03:16)
Rare And Unreleased
13. Pet Names (02:53)
14. Who You Gonna Run To (03:21)
15. It Must Be Love Baby (02:41)
16. Shake Me, Wake Me (When It's Over) (03:13)
17. Nothing Can Ever Come Between Us (02:28)
18. Fan the Flame (02:28)
19. Thanks But No Thanks (03:17)
20. At Last I Found a True Love (02:32)
21. Without Your Love (03:01)
22. Here Comes the Morning (02:59)
23. Helpless (03:34)
24. Pinpoint It Down (02:34)
 
Лог создания рипа
X Lossless Decoder version 20161007 (149.3)
XLD extraction logfile from 2017-01-01 16:49:55 +0100
Chuck Jackson / The Motown Anthology [Motown 983-293-1]
Used drive : Optiarc DVD RW AD-5280S (revision 1.Z7)
Media type : Pressed CD
Ripper mode : XLD Secure Ripper
Disable audio cache : OK for the drive with a cache less than 1375KiB
Make use of C2 pointers : NO
Read offset correction : 48
Max retry count : 20
Gap status : Analyzed, Appended (except HTOA)
TOC of the extracted CD
Track | Start | Length | Start sector | End sector
---------------------------------------------------------
1 | 00:00:00 | 03:41:07 | 0 | 16581
2 | 03:41:07 | 02:31:54 | 16582 | 27960
3 | 06:12:61 | 03:08:63 | 27961 | 42123
4 | 09:21:49 | 03:24:72 | 42124 | 57495
5 | 12:46:46 | 02:44:22 | 57496 | 69817
6 | 15:30:68 | 04:11:31 | 69818 | 88673
7 | 19:42:24 | 02:55:65 | 88674 | 101863
8 | 22:38:14 | 03:00:35 | 101864 | 115398
9 | 25:38:49 | 02:36:12 | 115399 | 127110
10 | 28:14:61 | 03:03:45 | 127111 | 140880
11 | 31:18:31 | 02:55:01 | 140881 | 154006
12 | 34:13:32 | 03:16:32 | 154007 | 168738
13 | 37:29:64 | 02:54:02 | 168739 | 181790
14 | 40:23:66 | 03:21:73 | 181791 | 196938
15 | 43:45:64 | 02:42:12 | 196939 | 209100
16 | 46:28:01 | 03:14:16 | 209101 | 223666
17 | 49:42:17 | 02:28:55 | 223667 | 234821
18 | 52:10:72 | 02:29:07 | 234822 | 246003
19 | 54:40:04 | 03:18:16 | 246004 | 260869
20 | 57:58:20 | 02:33:13 | 260870 | 272357
21 | 60:31:33 | 03:02:04 | 272358 | 286011
22 | 63:33:37 | 02:59:55 | 286012 | 299491
23 | 66:33:17 | 03:35:25 | 299492 | 315641
24 | 70:08:42 | 02:34:52 | 315642 | 327243
AccurateRip Summary (DiscID: 003f8bf6-0446d3ed-57110b18)
Track 01 : OK (v1+v2, confidence 5/5)
Track 02 : OK (v1+v2, confidence 5/5)
Track 03 : OK (v1+v2, confidence 6/6)
Track 04 : OK (v1+v2, confidence 6/6)
Track 05 : OK (v1+v2, confidence 6/6)
Track 06 : OK (v1+v2, confidence 6/6)
Track 07 : OK (v1+v2, confidence 6/6)
Track 08 : OK (v1+v2, confidence 6/6)
Track 09 : OK (v1+v2, confidence 6/6)
Track 10 : OK (v1+v2, confidence 6/6)
Track 11 : OK (v1+v2, confidence 6/6)
Track 12 : OK (v1+v2, confidence 6/6)
Track 13 : OK (v1+v2, confidence 6/6)
Track 14 : OK (v1+v2, confidence 6/6)
Track 15 : OK (v1+v2, confidence 6/6)
Track 16 : OK (v1+v2, confidence 6/6)
Track 17 : OK (v1+v2, confidence 6/6)
Track 18 : OK (v1+v2, confidence 6/6)
Track 19 : OK (v1+v2, confidence 6/6)
Track 20 : OK (v1+v2, confidence 6/6)
Track 21 : OK (v1+v2, confidence 6/6)
Track 22 : OK (v1+v2, confidence 6/6)
Track 23 : OK (v1+v2, confidence 6/6)
Track 24 : OK (v1+v2, confidence 6/6)
->All tracks accurately ripped.
All Tracks
Statistics
Read error : 0
Jitter error (maybe fixed) : 0
Retry sector count : 0
Damaged sector count : 0
Track 01
Filename : /Users/bork/Desktop/The Motown Anthology [Motown 983-293-1]/D2/01 Chuck Jackson - Let Somebody Love Me.flac
Pre-gap length : 00:02:00
CRC32 hash (test run) : 7A38CFEF
CRC32 hash : 7A38CFEF
CRC32 hash (skip zero) : 33D7E958
AccurateRip v1 signature : 01B299D6
AccurateRip v2 signature : 9F4C184B
->Accurately ripped (v1+v2, confidence 3+2/5)
Statistics
Read error : 0
Jitter error (maybe fixed) : 0
Retry sector count : 0
Damaged sector count : 0
Track 02
Filename : /Users/bork/Desktop/The Motown Anthology [Motown 983-293-1]/D2/02 Chuck Jackson - I Can't Let My Heaven Walk Away.flac
Pre-gap length : 00:01:58
CRC32 hash (test run) : 4C79D6CA
CRC32 hash : 4C79D6CA
CRC32 hash (skip zero) : 7650752C
AccurateRip v1 signature : BDFD63AB
AccurateRip v2 signature : 87BF3791
->Accurately ripped (v1+v2, confidence 3+2/5)
Statistics
Read error : 0
Jitter error (maybe fixed) : 0
Retry sector count : 0
Damaged sector count : 0
Track 03
Filename : /Users/bork/Desktop/The Motown Anthology [Motown 983-293-1]/D2/03 Chuck Jackson - Is There Anything Love Can't Do.flac
Pre-gap length : 00:01:58
CRC32 hash (test run) : 841BCC46
CRC32 hash : 841BCC46
CRC32 hash (skip zero) : DF9BA32D
AccurateRip v1 signature : 33F84734
AccurateRip v2 signature : 922B386D
->Accurately ripped (v1+v2, confidence 3+3/6)
Statistics
Read error : 0
Jitter error (maybe fixed) : 0
Retry sector count : 0
Damaged sector count : 0
Track 04
Filename : /Users/bork/Desktop/The Motown Anthology [Motown 983-293-1]/D2/04 Chuck Jackson - The Thrill Is Gone.flac
Pre-gap length : 00:01:58
CRC32 hash (test run) : F2B17EAA
CRC32 hash : F2B17EAA
CRC32 hash (skip zero) : 47E3EF6C
AccurateRip v1 signature : 0F83F8AD
AccurateRip v2 signature : C415984F
->Accurately ripped (v1+v2, confidence 3+3/6)
Statistics
Read error : 0
Jitter error (maybe fixed) : 0
Retry sector count : 0
Damaged sector count : 0
Track 05
Filename : /Users/bork/Desktop/The Motown Anthology [Motown 983-293-1]/D2/05 Chuck Jackson - Baby, I'll Get It.flac
Pre-gap length : 00:01:58
CRC32 hash (test run) : 97F13239
CRC32 hash : 97F13239
CRC32 hash (skip zero) : 507D642B
AccurateRip v1 signature : 38285BA8
AccurateRip v2 signature : 84AC5C18
->Accurately ripped (v1+v2, confidence 3+3/6)
Statistics
Read error : 0
Jitter error (maybe fixed) : 0
Retry sector count : 0
Damaged sector count : 0
Track 06
Filename : /Users/bork/Desktop/The Motown Anthology [Motown 983-293-1]/D2/06 Chuck Jackson - Rainy Night In Georgia.flac
Pre-gap length : 00:01:58
CRC32 hash (test run) : BC22D5A3
CRC32 hash : BC22D5A3
CRC32 hash (skip zero) : 30C346C1
AccurateRip v1 signature : CB157336
AccurateRip v2 signature : BB5D8131
->Accurately ripped (v1+v2, confidence 3+3/6)
Statistics
Read error : 0
Jitter error (maybe fixed) : 0
Retry sector count : 0
Damaged sector count : 0
Track 07
Filename : /Users/bork/Desktop/The Motown Anthology [Motown 983-293-1]/D2/07 Chuck Jackson - Just A Little Love (Before My Life Is Gone).flac
Pre-gap length : 00:01:58
CRC32 hash (test run) : F987015E
CRC32 hash : F987015E
CRC32 hash (skip zero) : 25D2526C
AccurateRip v1 signature : 1AB15C29
AccurateRip v2 signature : AEE92207
->Accurately ripped (v1+v2, confidence 3+3/6)
Statistics
Read error : 0
Jitter error (maybe fixed) : 0
Retry sector count : 0
Damaged sector count : 0
Track 08
Filename : /Users/bork/Desktop/The Motown Anthology [Motown 983-293-1]/D2/08 Chuck Jackson - I'll Fight It ('til I Win Your Love).flac
Pre-gap length : 00:01:58
CRC32 hash (test run) : D7170C22
CRC32 hash : D7170C22
CRC32 hash (skip zero) : 105AF4EC
AccurateRip v1 signature : F23B6E2E
AccurateRip v2 signature : EDB61E0E
->Accurately ripped (v1+v2, confidence 3+3/6)
Statistics
Read error : 0
Jitter error (maybe fixed) : 0
Retry sector count : 0
Damaged sector count : 0
Track 09
Filename : /Users/bork/Desktop/The Motown Anthology [Motown 983-293-1]/D2/09 Chuck Jackson - There's A Rainbow In Your Heart.flac
Pre-gap length : 00:01:58
CRC32 hash (test run) : 2EF13219
CRC32 hash : 2EF13219
CRC32 hash (skip zero) : 0325C180
AccurateRip v1 signature : A3C331A8
AccurateRip v2 signature : 9C9A18AA
->Accurately ripped (v1+v2, confidence 3+3/6)
Statistics
Read error : 0
Jitter error (maybe fixed) : 0
Retry sector count : 0
Damaged sector count : 0
Track 10
Filename : /Users/bork/Desktop/The Motown Anthology [Motown 983-293-1]/D2/10 Chuck Jackson - Two Feet From Happiness.flac
Pre-gap length : 00:01:58
CRC32 hash (test run) : 2BFCA763
CRC32 hash : 2BFCA763
CRC32 hash (skip zero) : 5D70344C
AccurateRip v1 signature : EA6F4689
AccurateRip v2 signature : 1AF90DA9
->Accurately ripped (v1+v2, confidence 3+3/6)
Statistics
Read error : 0
Jitter error (maybe fixed) : 0
Retry sector count : 0
Damaged sector count : 0
Track 11
Filename : /Users/bork/Desktop/The Motown Anthology [Motown 983-293-1]/D2/11 Chuck Jackson - That's Me Lovin' You.flac
Pre-gap length : 00:01:58
CRC32 hash (test run) : 978FC69F
CRC32 hash : 978FC69F
CRC32 hash (skip zero) : 2B2707C9
AccurateRip v1 signature : 23C65946
AccurateRip v2 signature : 4D1E7BE8
->Accurately ripped (v1+v2, confidence 3+3/6)
Statistics
Read error : 0
Jitter error (maybe fixed) : 0
Retry sector count : 0
Damaged sector count : 0
Track 12
Filename : /Users/bork/Desktop/The Motown Anthology [Motown 983-293-1]/D2/12 Chuck Jackson - Have You Heard About The Fool.flac
Pre-gap length : 00:01:58
CRC32 hash (test run) : 8698249D
CRC32 hash : 8698249D
CRC32 hash (skip zero) : F36184C9
AccurateRip v1 signature : 4CBA9078
AccurateRip v2 signature : 25DD954A
->Accurately ripped (v1+v2, confidence 3+3/6)
Statistics
Read error : 0
Jitter error (maybe fixed) : 0
Retry sector count : 0
Damaged sector count : 0
Track 13
Filename : /Users/bork/Desktop/The Motown Anthology [Motown 983-293-1]/D2/13 Chuck Jackson - Pet Names.flac
Pre-gap length : 00:01:58
CRC32 hash (test run) : 84AB8FC4
CRC32 hash : 84AB8FC4
CRC32 hash (skip zero) : 2A05AEBD
AccurateRip v1 signature : 13992C35
AccurateRip v2 signature : 6C5CE0CF
->Accurately ripped (v1+v2, confidence 3+3/6)
Statistics
Read error : 0
Jitter error (maybe fixed) : 0
Retry sector count : 0
Damaged sector count : 0
Track 14
Filename : /Users/bork/Desktop/The Motown Anthology [Motown 983-293-1]/D2/14 Chuck Jackson - Who You Gonna Run To.flac
Pre-gap length : 00:01:58
CRC32 hash (test run) : 1125ACA7
CRC32 hash : 1125ACA7
CRC32 hash (skip zero) : 9A7F1001
AccurateRip v1 signature : 820A09DA
AccurateRip v2 signature : 1B25B869
->Accurately ripped (v1+v2, confidence 3+3/6)
Statistics
Read error : 0
Jitter error (maybe fixed) : 0
Retry sector count : 0
Damaged sector count : 0
Track 15
Filename : /Users/bork/Desktop/The Motown Anthology [Motown 983-293-1]/D2/15 Chuck Jackson - It Must Be Love Baby (with Yvonne Fair).flac
Pre-gap length : 00:01:58
CRC32 hash (test run) : FC4F1D3D
CRC32 hash : FC4F1D3D
CRC32 hash (skip zero) : 7C0C305A
AccurateRip v1 signature : 98CB041B
AccurateRip v2 signature : 96267190
->Accurately ripped (v1+v2, confidence 3+3/6)
Statistics
Read error : 0
Jitter error (maybe fixed) : 0
Retry sector count : 0
Damaged sector count : 0
Track 16
Filename : /Users/bork/Desktop/The Motown Anthology [Motown 983-293-1]/D2/16 Chuck Jackson - Shake Me, Wake Me (When It's Over).flac
Pre-gap length : 00:01:58
CRC32 hash (test run) : 6F127324
CRC32 hash : 6F127324
CRC32 hash (skip zero) : 169236B9
AccurateRip v1 signature : F44B015C
AccurateRip v2 signature : 6F361218
->Accurately ripped (v1+v2, confidence 3+3/6)
Statistics
Read error : 0
Jitter error (maybe fixed) : 0
Retry sector count : 0
Damaged sector count : 0
Track 17
Filename : /Users/bork/Desktop/The Motown Anthology [Motown 983-293-1]/D2/17 Chuck Jackson - Nothing Can Ever Come Between Us.flac
Pre-gap length : 00:01:58
CRC32 hash (test run) : F62D4925
CRC32 hash : F62D4925
CRC32 hash (skip zero) : 83A0322E
AccurateRip v1 signature : 576D65D9
AccurateRip v2 signature : E1D630E1
->Accurately ripped (v1+v2, confidence 3+3/6)
Statistics
Read error : 0
Jitter error (maybe fixed) : 0
Retry sector count : 0
Damaged sector count : 0
Track 18
Filename : /Users/bork/Desktop/The Motown Anthology [Motown 983-293-1]/D2/18 Chuck Jackson - Fan The Flame.flac
Pre-gap length : 00:01:58
CRC32 hash (test run) : D5EEA738
CRC32 hash : D5EEA738
CRC32 hash (skip zero) : 1198A110
AccurateRip v1 signature : 9D78410E
AccurateRip v2 signature : 8C5FCFED
->Accurately ripped (v1+v2, confidence 3+3/6)
Statistics
Read error : 0
Jitter error (maybe fixed) : 0
Retry sector count : 0
Damaged sector count : 0
Track 19
Filename : /Users/bork/Desktop/The Motown Anthology [Motown 983-293-1]/D2/19 Chuck Jackson - Thanks But No Thanks.flac
Pre-gap length : 00:01:58
CRC32 hash (test run) : B7332B4D
CRC32 hash : B7332B4D
CRC32 hash (skip zero) : CF934E71
AccurateRip v1 signature : CE6CDDFB
AccurateRip v2 signature : 1689D60A
->Accurately ripped (v1+v2, confidence 3+3/6)
Statistics
Read error : 0
Jitter error (maybe fixed) : 0
Retry sector count : 0
Damaged sector count : 0
Track 20
Filename : /Users/bork/Desktop/The Motown Anthology [Motown 983-293-1]/D2/20 Chuck Jackson - At Last I Found A True Love.flac
Pre-gap length : 00:01:58
CRC32 hash (test run) : 1456F008
CRC32 hash : 1456F008
CRC32 hash (skip zero) : 323E88CC
AccurateRip v1 signature : F51BBC9B
AccurateRip v2 signature : 9964D072
->Accurately ripped (v1+v2, confidence 3+3/6)
Statistics
Read error : 0
Jitter error (maybe fixed) : 0
Retry sector count : 0
Damaged sector count : 0
Track 21
Filename : /Users/bork/Desktop/The Motown Anthology [Motown 983-293-1]/D2/21 Chuck Jackson - Without Your Love.flac
Pre-gap length : 00:01:58
CRC32 hash (test run) : 1250DB2C
CRC32 hash : 1250DB2C
CRC32 hash (skip zero) : C3BAF78E
AccurateRip v1 signature : 016CF0E9
AccurateRip v2 signature : 76BD84EA
->Accurately ripped (v1+v2, confidence 3+3/6)
Statistics
Read error : 0
Jitter error (maybe fixed) : 0
Retry sector count : 0
Damaged sector count : 0
Track 22
Filename : /Users/bork/Desktop/The Motown Anthology [Motown 983-293-1]/D2/22 Chuck Jackson - Here Comes The Morning.flac
Pre-gap length : 00:01:58
CRC32 hash (test run) : 28D4FD23
CRC32 hash : 28D4FD23
CRC32 hash (skip zero) : 2DD9BE75
AccurateRip v1 signature : 9F6FE236
AccurateRip v2 signature : 6A8A5F1D
->Accurately ripped (v1+v2, confidence 3+3/6)
Statistics
Read error : 0
Jitter error (maybe fixed) : 0
Retry sector count : 0
Damaged sector count : 0
Track 23
Filename : /Users/bork/Desktop/The Motown Anthology [Motown 983-293-1]/D2/23 Chuck Jackson - Helpless.flac
Pre-gap length : 00:01:58
CRC32 hash (test run) : 343CE700
CRC32 hash : 343CE700
CRC32 hash (skip zero) : 2CCCC0D5
AccurateRip v1 signature : DBCBE315
AccurateRip v2 signature : 8A8F1AEC
->Accurately ripped (v1+v2, confidence 3+3/6)
Statistics
Read error : 0
Jitter error (maybe fixed) : 0
Retry sector count : 0
Damaged sector count : 0
Track 24
Filename : /Users/bork/Desktop/The Motown Anthology [Motown 983-293-1]/D2/24 Chuck Jackson - Pin Point It Down.flac
Pre-gap length : 00:01:57
CRC32 hash (test run) : 06DE62F7
CRC32 hash : 06DE62F7
CRC32 hash (skip zero) : C43872D7
AccurateRip v1 signature : D2470650
AccurateRip v2 signature : 76F18A38
->Accurately ripped (v1+v2, confidence 3+3/6)
Statistics
Read error : 0
Jitter error (maybe fixed) : 0
Retry sector count : 0
Damaged sector count : 0
No errors occurred
End of status report
 
Содержание индексной карты (.CUE)
TITLE "The Motown Anthology [Motown 983-293-1]"
PERFORMER "Chuck Jackson"
CATALOG 0602498329337
REM GENRE "Oldies"
REM DATE "2005"
REM DISCNUMBER 2
REM TOTALDISCS 2
REM DISCID 57110B18
FILE "01 Chuck Jackson - Let Somebody Love Me.flac" WAVE
TRACK 01 AUDIO
TITLE "Let Somebody Love Me"
ISRC USUM70501406
INDEX 01 00:00:00
TRACK 02 AUDIO
TITLE "I Can't Let My Heaven Walk Away"
ISRC USUM70501407
INDEX 00 03:39:24
FILE "02 Chuck Jackson - I Can't Let My Heaven Walk Away.flac" WAVE
INDEX 01 00:00:00
TRACK 03 AUDIO
TITLE "Is There Anything Love Can't Do"
ISRC USUM70501408
INDEX 00 02:29:71
FILE "03 Chuck Jackson - Is There Anything Love Can't Do.flac" WAVE
INDEX 01 00:00:00
TRACK 04 AUDIO
TITLE "The Thrill Is Gone"
ISRC USUM70501409
INDEX 00 03:07:05
FILE "04 Chuck Jackson - The Thrill Is Gone.flac" WAVE
INDEX 01 00:00:00
TRACK 05 AUDIO
TITLE "Baby, I'll Get It"
ISRC USUM70501410
INDEX 00 03:23:14
FILE "05 Chuck Jackson - Baby, I'll Get It.flac" WAVE
INDEX 01 00:00:00
TRACK 06 AUDIO
TITLE "Rainy Night In Georgia"
ISRC USUM70501411
INDEX 00 02:42:39
FILE "06 Chuck Jackson - Rainy Night In Georgia.flac" WAVE
INDEX 01 00:00:00
TRACK 07 AUDIO
TITLE "Just A Little Love (Before My Life Is Gone)"
ISRC USUM70501412
INDEX 00 04:09:48
FILE "07 Chuck Jackson - Just A Little Love (Before My Life Is Gone).flac" WAVE
INDEX 01 00:00:00
TRACK 08 AUDIO
TITLE "I'll Fight It ('til I Win Your Love)"
ISRC USUM70501413
INDEX 00 02:54:07
FILE "08 Chuck Jackson - I'll Fight It ('til I Win Your Love).flac" WAVE
INDEX 01 00:00:00
TRACK 09 AUDIO
TITLE "There's A Rainbow In Your Heart"
ISRC USUM70501414
INDEX 00 02:58:52
FILE "09 Chuck Jackson - There's A Rainbow In Your Heart.flac" WAVE
INDEX 01 00:00:00
TRACK 10 AUDIO
TITLE "Two Feet From Happiness"
ISRC USUM70501415
INDEX 00 02:34:29
FILE "10 Chuck Jackson - Two Feet From Happiness.flac" WAVE
INDEX 01 00:00:00
TRACK 11 AUDIO
TITLE "That's Me Lovin' You"
ISRC USUM70501416
INDEX 00 03:01:62
FILE "11 Chuck Jackson - That's Me Lovin' You.flac" WAVE
INDEX 01 00:00:00
TRACK 12 AUDIO
TITLE "Have You Heard About The Fool"
ISRC USUM70501417
INDEX 00 02:53:18
FILE "12 Chuck Jackson - Have You Heard About The Fool.flac" WAVE
INDEX 01 00:00:00
TRACK 13 AUDIO
TITLE "Pet Names"
ISRC USUM70501436
INDEX 00 03:14:49
FILE "13 Chuck Jackson - Pet Names.flac" WAVE
INDEX 01 00:00:00
TRACK 14 AUDIO
TITLE "Who You Gonna Run To"
ISRC USUM70501437
INDEX 00 02:52:19
FILE "14 Chuck Jackson - Who You Gonna Run To.flac" WAVE
INDEX 01 00:00:00
TRACK 15 AUDIO
TITLE "It Must Be Love Baby (with Yvonne Fair)"
ISRC USMO10200390
INDEX 00 03:20:15
FILE "15 Chuck Jackson - It Must Be Love Baby (with Yvonne Fair).flac" WAVE
INDEX 01 00:00:00
TRACK 16 AUDIO
TITLE "Shake Me, Wake Me (When It's Over)"
ISRC USMO10401005
INDEX 00 02:40:29
FILE "16 Chuck Jackson - Shake Me, Wake Me (When It's Over).flac" WAVE
INDEX 01 00:00:00
TRACK 17 AUDIO
TITLE "Nothing Can Ever Come Between Us"
ISRC USUM70501442
INDEX 00 03:12:33
FILE "17 Chuck Jackson - Nothing Can Ever Come Between Us.flac" WAVE
INDEX 01 00:00:00
TRACK 18 AUDIO
TITLE "Fan The Flame"
ISRC USUM70501439
INDEX 00 02:26:72
FILE "18 Chuck Jackson - Fan The Flame.flac" WAVE
INDEX 01 00:00:00
TRACK 19 AUDIO
TITLE "Thanks But No Thanks"
ISRC USUM70501444
INDEX 00 02:27:24
FILE "19 Chuck Jackson - Thanks But No Thanks.flac" WAVE
INDEX 01 00:00:00
TRACK 20 AUDIO
TITLE "At Last I Found A True Love"
ISRC USUM70501438
INDEX 00 03:16:33
FILE "20 Chuck Jackson - At Last I Found A True Love.flac" WAVE
INDEX 01 00:00:00
TRACK 21 AUDIO
TITLE "Without Your Love"
ISRC USUM70501445
INDEX 00 02:31:30
FILE "21 Chuck Jackson - Without Your Love.flac" WAVE
INDEX 01 00:00:00
TRACK 22 AUDIO
TITLE "Here Comes The Morning"
ISRC USUM70501441
INDEX 00 03:00:21
FILE "22 Chuck Jackson - Here Comes The Morning.flac" WAVE
INDEX 01 00:00:00
TRACK 23 AUDIO
TITLE "Helpless"
ISRC USUM70501440
INDEX 00 02:57:72
FILE "23 Chuck Jackson - Helpless.flac" WAVE
INDEX 01 00:00:00
TRACK 24 AUDIO
TITLE "Pin Point It Down"
ISRC USUM70501443
INDEX 00 03:33:43
FILE "24 Chuck Jackson - Pin Point It Down.flac" WAVE
INDEX 01 00:00:00
 
DR Log
foobar2000 1.1.10 / Dynamic Range Meter 1.1.1
log date: 2017-01-03 18:20:37
--------------------------------------------------------------------------------
Analyzed: Chuck Jackson / The Motown Anthology [Motown 983-293-1]
--------------------------------------------------------------------------------
DR Peak RMS Duration Track
--------------------------------------------------------------------------------
DR10 -0.65 dB -12.83 dB 3:41 ?-Let Somebody Love Me
DR10 -0.45 dB -12.31 dB 2:32 ?-I Can't Let My Heaven Walk Away
DR11 -0.74 dB -14.55 dB 3:09 ?-Is There Anything Love Can't Do
DR9 -0.45 dB -11.62 dB 3:25 ?-The Thrill Is Gone
DR11 -0.79 dB -14.57 dB 2:44 ?-Baby, I'll Get It
DR11 -0.61 dB -14.75 dB 4:11 ?-Rainy Night In Georgia
DR10 -0.42 dB -12.85 dB 2:56 ?-Just A Little Love (Before My Life Is Gone)
DR11 -0.78 dB -13.54 dB 3:00 ?-I'll Fight It ('til I Win Your Love)
DR11 -0.76 dB -13.53 dB 2:36 ?-There's A Rainbow In Your Heart
DR11 -0.35 dB -13.24 dB 3:04 ?-Two Feet From Happiness
DR10 -0.65 dB -12.20 dB 2:55 ?-That's Me Lovin' You
DR10 -0.42 dB -12.09 dB 3:16 ?-Have You Heard About The Fool
DR10 -0.49 dB -11.83 dB 2:54 ?-Pet Names
DR9 -0.49 dB -11.80 dB 3:22 ?-Who You Gonna Run To
DR8 -1.02 dB -10.89 dB 2:42 ?-It Must Be Love Baby (with Yvonne Fair)
DR9 -0.87 dB -11.51 dB 3:14 ?-Shake Me, Wake Me (When It's Over)
DR10 -0.25 dB -11.48 dB 2:29 ?-Nothing Can Ever Come Between Us
DR10 -0.11 dB -11.87 dB 2:29 ?-Fan The Flame
DR11 -0.41 dB -13.04 dB 3:18 ?-Thanks But No Thanks
DR8 -1.57 dB -11.87 dB 2:33 ?-At Last I Found A True Love
DR10 -0.28 dB -11.90 dB 3:02 ?-Without Your Love
DR11 -0.65 dB -14.47 dB 3:00 ?-Here Comes The Morning
DR11 -0.58 dB -13.01 dB 3:35 ?-Helpless
DR11 -0.53 dB -13.34 dB 2:35 ?-Pin Point It Down
--------------------------------------------------------------------------------
Number of tracks: 24
Official DR value: DR10
Samplerate: 44100 Hz
Channels: 2
Bits per sample: 16
Bitrate: 857 kbps
Codec: FLAC
================================================================================
 
Об исполнителе (группе)
American soul/r&b singer (born July 22, 1937), started his career in the early 60's and has performed ever since. His first hit was I Don't Wanna Cry in 1961. Some other hits of his include Any Day Now, I Keep Forgettin' and All Over The World. In 1967 he moved from Scepter to Motown to record a few singles there. During the 70's recorded a few albums and singles on various labels including ABC and All-Platinum, but he never gained as much success as in the 60's. In 80's he went to EMI America and sung vocals on two Gary U.S. Bonds's hit albums and later recorded 2 singles for the Motor City label.
 
Об альбоме (сборнике)
Tracks 1.1-1.12 from the album 'Chuck Jackson Arrives!'. Issued as US: Motown 667 (February 1968); UK: Tamla-Motown (S)TML 11071 (June 1968)
Tracks 1.13-1.24 from the album 'Goin' Back To Chuck Jackson'. Issued as US: Motown 667 (June 1969); UK: Tamla-Motown (S)TML 11117 (September 1969)
Tracks 2.1-2.12 from the album 'Teardrops Keep Falling On My Heart'. Issued as US only V.I.P. VIPS 403 (September 1970)
Tracks 2.13-2.24 rarely released or previously unreleased.
Приватный:
Нет (DHT включён)
Размер:
919.19 Мб (963,840,101 байт) » файлов: 54
Участники:
0 раздают, 0 качают (0 участников всего)
Внешние участники:
3 раздают, 1 качают (4 участников всего) [ Обновить ]
No seeders - write a personal message to user M0p94ok. Нет сидеров - пишите личное сообщение пользователю M0p94ok.
12:36
156
Нет комментариев. Ваш будет первым!