Поиск

(Funk, Soul, Pop) [CD] Smokey Robinson & The Miracles - The Ultimate Collection - 1998 (Remastered), FLAC (tracks+.cue), lossless

(Funk, Soul, Pop) [CD] Smokey Robinson & The Miracles - The Ultimate Collection - 1998 (Remastered), FLAC (tracks+.cue), lossless
Треклист:
Smokey Robinson & The Miracles / The Ultimate Collection
Жанр: Funk, Soul, Pop
Носитель: CD
Страна-производитель диска (релиза): UK
Год издания: 1998
Издатель (лейбл): Motown
Номер по каталогу: 530 857-2
Аудиокодек: FLAC (*.flac)
Тип рипа: tracks+.cue
Битрейт аудио: lossless
Продолжительность: 01:11:01
Источник (релизер): DP
Наличие сканов в содержимом раздачи: да
 
Треклист

01. Going To A Go-Go 2:49
02. I Second That Emotion 2:40
03. Shop Around 2:48
04. Way Over There 2:55
05. Bad Girl 2:42
06. Who's Lovin' You 3:02
07. I'll Try Something New 2:36
08. You've Really Got A Hold On Me 2:56
09. Mickey's Monkey 2:46
10. I Like It Like That 2:34
11. Ooo Baby Baby 2:42
12. Choosey Beggar 2:32
13. My Girl Has Gone 2:52
14. The Tears Of A Clown 3:03
15. Baby, Baby Don't Cry 3:58
16. The Tracks Of My Tears 3:00
17. The Love I Saw In You Was Just A Miracle 2:57
18. (Come 'Round Here) I'm The One You Need 2:29
19. More Love 2:48
20. Special Occasion 2:18
21. If You Can Want 2:25
22. Yester Love 2:17
23. We've Come Too Far To End It Now 3:49
24. What's So Good About Goodbye 2:21
25. (You Can) Depend On Me 3:07
 
Лог создания рипа
X Lossless Decoder version 20161007 (149.3)
XLD extraction logfile from 2017-01-01 21:03:45 +0100
Smokey Robinson And The Miracles / The Ultimate Collection [Motown 314530857-2]
Used drive : Optiarc DVD RW AD-5280S (revision 1.Z7)
Media type : Pressed CD
Ripper mode : XLD Secure Ripper
Disable audio cache : OK for the drive with a cache less than 1375KiB
Make use of C2 pointers : NO
Read offset correction : 48
Max retry count : 20
Gap status : Analyzed, Appended (except HTOA)
TOC of the extracted CD
Track | Start | Length | Start sector | End sector
---------------------------------------------------------
1 | 00:00:32 | 02:50:58 | 32 | 12839
2 | 02:51:15 | 02:42:22 | 12840 | 25011
3 | 05:33:37 | 02:49:25 | 25012 | 37711
4 | 08:22:62 | 02:56:43 | 37712 | 50954
5 | 11:19:30 | 02:43:52 | 50955 | 63231
6 | 14:03:07 | 03:03:65 | 63232 | 77021
7 | 17:06:72 | 02:37:15 | 77022 | 88811
8 | 19:44:12 | 02:57:63 | 88812 | 102149
9 | 22:42:00 | 02:46:42 | 102150 | 114641
10 | 25:28:42 | 02:35:65 | 114642 | 126331
11 | 28:04:32 | 02:44:33 | 126332 | 138664
12 | 30:48:65 | 02:33:10 | 138665 | 150149
13 | 33:22:00 | 02:53:65 | 150150 | 163189
14 | 36:15:65 | 03:04:35 | 163190 | 177024
15 | 39:20:25 | 03:59:20 | 177025 | 194969
16 | 43:19:45 | 03:00:62 | 194970 | 208531
17 | 46:20:32 | 02:59:00 | 208532 | 221956
18 | 49:19:32 | 02:30:18 | 221957 | 233224
19 | 51:49:50 | 02:48:45 | 233225 | 245869
20 | 54:38:20 | 02:18:45 | 245870 | 256264
21 | 56:56:65 | 02:26:67 | 256265 | 267281
22 | 59:23:57 | 02:18:55 | 267282 | 277686
23 | 61:42:37 | 03:49:40 | 277687 | 294901
24 | 65:32:02 | 02:23:20 | 294902 | 305646
25 | 67:55:22 | 03:06:18 | 305647 | 319614
List of alternate offset correction values
# | Absolute | Relative | Confidence
------------------------------------------
1 | 2375 | 2327 | 32
AccurateRip Summary (DiscID: 003f617b-0475db08-5210a519)
Track 01 : OK (v1+v2, confidence 35/79)
Track 02 : OK (v1+v2, confidence 35/79)
Track 03 : OK (v1+v2, confidence 35/78)
Track 04 : OK (v1+v2, confidence 33/75)
Track 05 : OK (v1+v2, confidence 33/75)
Track 06 : OK (v1+v2, confidence 33/75)
Track 07 : OK (v1+v2, confidence 35/76)
Track 08 : OK (v1+v2, confidence 35/79)
Track 09 : OK (v1+v2, confidence 34/77)
Track 10 : OK (v1+v2, confidence 35/77)
Track 11 : OK (v1+v2, confidence 35/78)
Track 12 : OK (v1+v2, confidence 33/74)
Track 13 : OK (v1+v2, confidence 33/74)
Track 14 : OK (v1+v2, confidence 33/76)
Track 15 : OK (v1+v2, confidence 33/73)
Track 16 : OK (v1+v2, confidence 34/77)
Track 17 : OK (v1+v2, confidence 33/72)
Track 18 : OK (v1+v2, confidence 33/74)
Track 19 : OK (v1+v2, confidence 34/75)
Track 20 : OK (v1+v2, confidence 34/74)
Track 21 : OK (v1+v2, confidence 34/73)
Track 22 : OK (v1+v2, confidence 33/72)
Track 23 : OK (v1+v2, confidence 33/73)
Track 24 : OK (v1+v2, confidence 33/75)
Track 25 : OK (v1+v2, confidence 31/72)
->All tracks accurately ripped.
All Tracks
Statistics
Read error : 0
Jitter error (maybe fixed) : 0
Retry sector count : 0
Damaged sector count : 0
Track 01
Filename : /Users/bork/Desktop/Smokey Robinson and the Miracles - The Ultimate Collection [Motown 314530857-2]/01 Smokey Robinson And The Miracles - Going To A Go-Go.flac
Pre-gap length : 00:02:32
CRC32 hash (test run) : 28875EAC
CRC32 hash : 28875EAC
CRC32 hash (skip zero) : 3691A8DB
AccurateRip v1 signature : 636D7B7B
AccurateRip v2 signature : F8303C73
->Accurately ripped (v1+v2, confidence 16+19/79)
Statistics
Read error : 0
Jitter error (maybe fixed) : 0
Retry sector count : 0
Damaged sector count : 0
Track 02
Filename : /Users/bork/Desktop/Smokey Robinson and the Miracles - The Ultimate Collection [Motown 314530857-2]/02 Smokey Robinson And The Miracles - I Second That Emotion.flac
Pre-gap length : 00:01:58
CRC32 hash (test run) : F74C7B80
CRC32 hash : F74C7B80
CRC32 hash (skip zero) : 51C4D663
AccurateRip v1 signature : 5FBB7598
AccurateRip v2 signature : CF66E522
->Accurately ripped (v1+v2, confidence 16+19/79)
Statistics
Read error : 0
Jitter error (maybe fixed) : 0
Retry sector count : 0
Damaged sector count : 0
Track 03
Filename : /Users/bork/Desktop/Smokey Robinson and the Miracles - The Ultimate Collection [Motown 314530857-2]/03 Smokey Robinson And The Miracles - Shop Around.flac
Pre-gap length : 00:01:55
CRC32 hash (test run) : C932A12E
CRC32 hash : C932A12E
CRC32 hash (skip zero) : 6C0F3DE5
AccurateRip v1 signature : 724C7BB8
AccurateRip v2 signature : BC4749DD
->Accurately ripped (v1+v2, confidence 16+19/78)
Statistics
Read error : 0
Jitter error (maybe fixed) : 0
Retry sector count : 0
Damaged sector count : 0
Track 04
Filename : /Users/bork/Desktop/Smokey Robinson and the Miracles - The Ultimate Collection [Motown 314530857-2]/04 Smokey Robinson And The Miracles - Way Over There.flac
Pre-gap length : 00:01:45
CRC32 hash (test run) : FEF1F311
CRC32 hash : FEF1F311
CRC32 hash (skip zero) : B186D045
AccurateRip v1 signature : 4870B289
AccurateRip v2 signature : A0CBA992
->Accurately ripped (v1+v2, confidence 15+18/75)
Statistics
Read error : 0
Jitter error (maybe fixed) : 0
Retry sector count : 0
Damaged sector count : 0
Track 05
Filename : /Users/bork/Desktop/Smokey Robinson and the Miracles - The Ultimate Collection [Motown 314530857-2]/05 Smokey Robinson And The Miracles - Bad Girl.flac
CRC32 hash (test run) : 2806BF30
CRC32 hash : 2806BF30
CRC32 hash (skip zero) : 2ADD69B1
AccurateRip v1 signature : C6327DDD
AccurateRip v2 signature : 5514F8CD
->Accurately ripped (v1+v2, confidence 15+18/75)
Statistics
Read error : 0
Jitter error (maybe fixed) : 0
Retry sector count : 0
Damaged sector count : 0
Track 06
Filename : /Users/bork/Desktop/Smokey Robinson and the Miracles - The Ultimate Collection [Motown 314530857-2]/06 Smokey Robinson And The Miracles - Who's Lovin' You.flac
Pre-gap length : 00:02:00
CRC32 hash (test run) : 83028394
CRC32 hash : 83028394
CRC32 hash (skip zero) : A10EE517
AccurateRip v1 signature : B34F06C0
AccurateRip v2 signature : A0FD9B3A
->Accurately ripped (v1+v2, confidence 15+18/75)
Statistics
Read error : 0
Jitter error (maybe fixed) : 0
Retry sector count : 0
Damaged sector count : 0
Track 07
Filename : /Users/bork/Desktop/Smokey Robinson and the Miracles - The Ultimate Collection [Motown 314530857-2]/07 Smokey Robinson And The Miracles - I'll Try Something New.flac
Pre-gap length : 00:02:07
CRC32 hash (test run) : 6FF9E4C1
CRC32 hash : 6FF9E4C1
CRC32 hash (skip zero) : F8645F8E
AccurateRip v1 signature : 40770FB9
AccurateRip v2 signature : F75C8B83
->Accurately ripped (v1+v2, confidence 16+19/76)
Statistics
Read error : 0
Jitter error (maybe fixed) : 0
Retry sector count : 0
Damaged sector count : 0
Track 08
Filename : /Users/bork/Desktop/Smokey Robinson and the Miracles - The Ultimate Collection [Motown 314530857-2]/08 Smokey Robinson And The Miracles - You've Really Got A Hold On Me.flac
Pre-gap length : 00:01:05
CRC32 hash (test run) : 6BFAD783
CRC32 hash : 6BFAD783
CRC32 hash (skip zero) : 65E4ED69
AccurateRip v1 signature : DA648496
AccurateRip v2 signature : 5F8E29EF
->Accurately ripped (v1+v2, confidence 16+19/79)
Statistics
Read error : 0
Jitter error (maybe fixed) : 0
Retry sector count : 0
Damaged sector count : 0
Track 09
Filename : /Users/bork/Desktop/Smokey Robinson and the Miracles - The Ultimate Collection [Motown 314530857-2]/09 Smokey Robinson And The Miracles - Mickey's Monkey.flac
Pre-gap length : 00:01:50
CRC32 hash (test run) : CCAEA5F2
CRC32 hash : CCAEA5F2
CRC32 hash (skip zero) : 6A947F8C
AccurateRip v1 signature : 8452EEC2
AccurateRip v2 signature : 4110BE50
->Accurately ripped (v1+v2, confidence 15+19/77)
Statistics
Read error : 0
Jitter error (maybe fixed) : 0
Retry sector count : 0
Damaged sector count : 0
Track 10
Filename : /Users/bork/Desktop/Smokey Robinson and the Miracles - The Ultimate Collection [Motown 314530857-2]/10 Smokey Robinson And The Miracles - I Like It Like That.flac
Pre-gap length : 00:01:10
CRC32 hash (test run) : 342FDE3E
CRC32 hash : 342FDE3E
CRC32 hash (skip zero) : 5D6DD6A5
AccurateRip v1 signature : 1B35DCDB
AccurateRip v2 signature : 9F02DCE0
->Accurately ripped (v1+v2, confidence 16+19/77)
Statistics
Read error : 0
Jitter error (maybe fixed) : 0
Retry sector count : 0
Damaged sector count : 0
Track 11
Filename : /Users/bork/Desktop/Smokey Robinson and the Miracles - The Ultimate Collection [Motown 314530857-2]/11 Smokey Robinson And The Miracles - Ooo Baby Baby.flac
Pre-gap length : 00:01:45
CRC32 hash (test run) : 2EFA625F
CRC32 hash : 2EFA625F
CRC32 hash (skip zero) : 5B24A2F0
AccurateRip v1 signature : 58B9592D
AccurateRip v2 signature : D6595C43
->Accurately ripped (v1+v2, confidence 16+19/78)
Statistics
Read error : 0
Jitter error (maybe fixed) : 0
Retry sector count : 0
Damaged sector count : 0
Track 12
Filename : /Users/bork/Desktop/Smokey Robinson and the Miracles - The Ultimate Collection [Motown 314530857-2]/12 Smokey Robinson And The Miracles - Choosey Beggar.flac
Pre-gap length : 00:02:18
CRC32 hash (test run) : 24BB4D0D
CRC32 hash : 24BB4D0D
CRC32 hash (skip zero) : 5B65EE72
AccurateRip v1 signature : A77F1049
AccurateRip v2 signature : 906EB0F5
->Accurately ripped (v1+v2, confidence 15+18/74)
Statistics
Read error : 0
Jitter error (maybe fixed) : 0
Retry sector count : 0
Damaged sector count : 0
Track 13
Filename : /Users/bork/Desktop/Smokey Robinson and the Miracles - The Ultimate Collection [Motown 314530857-2]/13 Smokey Robinson And The Miracles - My Girl Has Gone.flac
Pre-gap length : 00:01:43
CRC32 hash (test run) : A09EB753
CRC32 hash : A09EB753
CRC32 hash (skip zero) : 26CE16FB
AccurateRip v1 signature : 4F12AD83
AccurateRip v2 signature : C375EBE3
->Accurately ripped (v1+v2, confidence 15+18/74)
Statistics
Read error : 0
Jitter error (maybe fixed) : 0
Retry sector count : 0
Damaged sector count : 0
Track 14
Filename : /Users/bork/Desktop/Smokey Robinson and the Miracles - The Ultimate Collection [Motown 314530857-2]/14 Smokey Robinson And The Miracles - The Tears Of A Clown.flac
Pre-gap length : 00:01:43
CRC32 hash (test run) : 97D12578
CRC32 hash : 97D12578
CRC32 hash (skip zero) : 2C404616
AccurateRip v1 signature : 5806852F
AccurateRip v2 signature : AD4017A5
->Accurately ripped (v1+v2, confidence 14+19/76)
Statistics
Read error : 0
Jitter error (maybe fixed) : 0
Retry sector count : 0
Damaged sector count : 0
Track 15
Filename : /Users/bork/Desktop/Smokey Robinson and the Miracles - The Ultimate Collection [Motown 314530857-2]/15 Smokey Robinson And The Miracles - Baby, Baby Don't Cry.flac
Pre-gap length : 00:01:05
CRC32 hash (test run) : CEFAE7F9
CRC32 hash : CEFAE7F9
CRC32 hash (skip zero) : 11B21BB4
AccurateRip v1 signature : B9A09E8D
AccurateRip v2 signature : 52BD64A0
->Accurately ripped (v1+v2, confidence 14+19/73)
Statistics
Read error : 0
Jitter error (maybe fixed) : 0
Retry sector count : 0
Damaged sector count : 0
Track 16
Filename : /Users/bork/Desktop/Smokey Robinson and the Miracles - The Ultimate Collection [Motown 314530857-2]/16 Smokey Robinson And The Miracles - The Tracks Of My Tears.flac
Pre-gap length : 00:01:35
CRC32 hash (test run) : 2F9144C7
CRC32 hash : 2F9144C7
CRC32 hash (skip zero) : FD48F88F
AccurateRip v1 signature : 6C4D0550
AccurateRip v2 signature : 01BD87E6
->Accurately ripped (v1+v2, confidence 15+19/77)
Statistics
Read error : 0
Jitter error (maybe fixed) : 0
Retry sector count : 0
Damaged sector count : 0
Track 17
Filename : /Users/bork/Desktop/Smokey Robinson and the Miracles - The Ultimate Collection [Motown 314530857-2]/17 Smokey Robinson And The Miracles - The Love I Saw In You Was Just A Mirage.flac
CRC32 hash (test run) : 2E6D3665
CRC32 hash : 2E6D3665
CRC32 hash (skip zero) : 49DA2A32
AccurateRip v1 signature : 531318DF
AccurateRip v2 signature : 293A92E2
->Accurately ripped (v1+v2, confidence 15+18/72)
Statistics
Read error : 0
Jitter error (maybe fixed) : 0
Retry sector count : 0
Damaged sector count : 0
Track 18
Filename : /Users/bork/Desktop/Smokey Robinson and the Miracles - The Ultimate Collection [Motown 314530857-2]/18 Smokey Robinson And The Miracles - (Come 'Round Here) I'm The One You Need.flac
Pre-gap length : 00:01:47
CRC32 hash (test run) : 6F971C67
CRC32 hash : 6F971C67
CRC32 hash (skip zero) : 1EA9984A
AccurateRip v1 signature : 2B9D2D0F
AccurateRip v2 signature : 658F6075
->Accurately ripped (v1+v2, confidence 15+18/74)
Statistics
Read error : 0
Jitter error (maybe fixed) : 0
Retry sector count : 0
Damaged sector count : 0
Track 19
Filename : /Users/bork/Desktop/Smokey Robinson and the Miracles - The Ultimate Collection [Motown 314530857-2]/19 Smokey Robinson And The Miracles - More Love.flac
Pre-gap length : 00:01:15
CRC32 hash (test run) : EB4D17B7
CRC32 hash : EB4D17B7
CRC32 hash (skip zero) : 47038EC8
AccurateRip v1 signature : 2CFF6123
AccurateRip v2 signature : 6C071FD7
->Accurately ripped (v1+v2, confidence 15+19/75)
Statistics
Read error : 0
Jitter error (maybe fixed) : 0
Retry sector count : 0
Damaged sector count : 0
Track 20
Filename : /Users/bork/Desktop/Smokey Robinson and the Miracles - The Ultimate Collection [Motown 314530857-2]/20 Smokey Robinson And The Miracles - Special Occasion.flac
CRC32 hash (test run) : 278DB1A6
CRC32 hash : 278DB1A6
CRC32 hash (skip zero) : 197AA930
AccurateRip v1 signature : 66A70B61
AccurateRip v2 signature : 1028E6F4
->Accurately ripped (v1+v2, confidence 15+19/74)
Statistics
Read error : 0
Jitter error (maybe fixed) : 0
Retry sector count : 0
Damaged sector count : 0
Track 21
Filename : /Users/bork/Desktop/Smokey Robinson and the Miracles - The Ultimate Collection [Motown 314530857-2]/21 Smokey Robinson And The Miracles - If You Can Want.flac
Pre-gap length : 00:01:08
CRC32 hash (test run) : 055CD99C
CRC32 hash : 055CD99C
CRC32 hash (skip zero) : B8E70012
AccurateRip v1 signature : 6DD506E4
AccurateRip v2 signature : 21F1455B
->Accurately ripped (v1+v2, confidence 15+19/73)
Statistics
Read error : 0
Jitter error (maybe fixed) : 0
Retry sector count : 0
Damaged sector count : 0
Track 22
Filename : /Users/bork/Desktop/Smokey Robinson and the Miracles - The Ultimate Collection [Motown 314530857-2]/22 Smokey Robinson And The Miracles - Yester Love.flac
Pre-gap length : 00:01:22
CRC32 hash (test run) : 797D1360
CRC32 hash : 797D1360
CRC32 hash (skip zero) : 1933D405
AccurateRip v1 signature : A0B698B2
AccurateRip v2 signature : 35100F26
->Accurately ripped (v1+v2, confidence 14+19/72)
Statistics
Read error : 0
Jitter error (maybe fixed) : 0
Retry sector count : 0
Damaged sector count : 0
Track 23
Filename : /Users/bork/Desktop/Smokey Robinson and the Miracles - The Ultimate Collection [Motown 314530857-2]/23 Smokey Robinson And The Miracles - We've Come Too Far To End It Now.flac
Pre-gap length : 00:01:20
CRC32 hash (test run) : E7FA1E63
CRC32 hash : E7FA1E63
CRC32 hash (skip zero) : 6572D59D
AccurateRip v1 signature : 27CB5D8E
AccurateRip v2 signature : AE742803
->Accurately ripped (v1+v2, confidence 15+18/73)
Statistics
Read error : 0
Jitter error (maybe fixed) : 0
Retry sector count : 0
Damaged sector count : 0
Track 24
Filename : /Users/bork/Desktop/Smokey Robinson and the Miracles - The Ultimate Collection [Motown 314530857-2]/24 Smokey Robinson And The Miracles - What's So Good About Goodbye.flac
CRC32 hash (test run) : 1F35734B
CRC32 hash : 1F35734B
CRC32 hash (skip zero) : 4FF6CC98
AccurateRip v1 signature : 0B8DAA3B
AccurateRip v2 signature : F1AEA406
->Accurately ripped (v1+v2, confidence 15+18/75)
Statistics
Read error : 0
Jitter error (maybe fixed) : 0
Retry sector count : 0
Damaged sector count : 0
Track 25
Filename : /Users/bork/Desktop/Smokey Robinson and the Miracles - The Ultimate Collection [Motown 314530857-2]/25 Smokey Robinson And The Miracles - (You Can) Depend On Me.flac
Pre-gap length : 00:01:30
CRC32 hash (test run) : A5D31E70
CRC32 hash : A5D31E70
CRC32 hash (skip zero) : 8F450B50
AccurateRip v1 signature : AC2A9859
AccurateRip v2 signature : 250D88E0
->Accurately ripped (v1+v2, confidence 15+16/72)
Statistics
Read error : 0
Jitter error (maybe fixed) : 0
Retry sector count : 0
Damaged sector count : 0
No errors occurred
End of status report
 
Содержание индексной карты (.CUE)
TITLE "The Ultimate Collection [Motown 314530857-2]"
PERFORMER "Smokey Robinson And The Miracles"
REM GENRE "R&B"
REM DATE "1998"
REM DISCID 5210A519
FILE "01 Smokey Robinson And The Miracles - Going To A Go-Go.flac" WAVE
TRACK 01 AUDIO
TITLE "Going To A Go-Go"
ISRC USMO16572027
PREGAP 00:00:32
INDEX 01 00:00:00
TRACK 02 AUDIO
TITLE "I Second That Emotion"
ISRC USMO16772033
INDEX 00 02:49:00
FILE "02 Smokey Robinson And The Miracles - I Second That Emotion.flac" WAVE
INDEX 01 00:00:00
TRACK 03 AUDIO
TITLE "Shop Around"
ISRC USMO16072006
INDEX 00 02:40:42
FILE "03 Smokey Robinson And The Miracles - Shop Around.flac" WAVE
INDEX 01 00:00:00
TRACK 04 AUDIO
TITLE "Way Over There"
ISRC USMO16072003
INDEX 00 02:47:55
FILE "04 Smokey Robinson And The Miracles - Way Over There.flac" WAVE
INDEX 01 00:00:00
FILE "05 Smokey Robinson And The Miracles - Bad Girl.flac" WAVE
TRACK 05 AUDIO
TITLE "Bad Girl"
ISRC USMO16872037
INDEX 01 00:00:00
TRACK 06 AUDIO
TITLE "Who's Lovin' You"
ISRC USMO16072005
INDEX 00 02:41:52
FILE "06 Smokey Robinson And The Miracles - Who's Lovin' You.flac" WAVE
INDEX 01 00:00:00
TRACK 07 AUDIO
TITLE "I'll Try Something New"
ISRC USMO16272013
INDEX 00 03:01:58
FILE "07 Smokey Robinson And The Miracles - I'll Try Something New.flac" WAVE
INDEX 01 00:00:00
TRACK 08 AUDIO
TITLE "You've Really Got A Hold On Me"
ISRC USMO16372016
INDEX 00 02:36:10
FILE "08 Smokey Robinson And The Miracles - You've Really Got A Hold On Me.flac" WAVE
INDEX 01 00:00:00
TRACK 09 AUDIO
TITLE "Mickey's Monkey"
ISRC USMO16472017
INDEX 00 02:56:13
FILE "09 Smokey Robinson And The Miracles - Mickey's Monkey.flac" WAVE
INDEX 01 00:00:00
TRACK 10 AUDIO
TITLE "I Like It Like That"
ISRC USMO16472020
INDEX 00 02:45:32
FILE "10 Smokey Robinson And The Miracles - I Like It Like That.flac" WAVE
INDEX 01 00:00:00
TRACK 11 AUDIO
TITLE "Ooo Baby Baby"
ISRC USMO16572024
INDEX 00 02:34:20
FILE "11 Smokey Robinson And The Miracles - Ooo Baby Baby.flac" WAVE
INDEX 01 00:00:00
TRACK 12 AUDIO
TITLE "Choosey Beggar"
ISRC USMO16572029
INDEX 00 02:42:15
FILE "12 Smokey Robinson And The Miracles - Choosey Beggar.flac" WAVE
INDEX 01 00:00:00
TRACK 13 AUDIO
TITLE "My Girl Has Gone"
ISRC USMO16572025
INDEX 00 02:31:42
FILE "13 Smokey Robinson And The Miracles - My Girl Has Gone.flac" WAVE
INDEX 01 00:00:00
TRACK 14 AUDIO
TITLE "The Tears Of A Clown"
ISRC USMO17072044
INDEX 00 02:52:22
FILE "14 Smokey Robinson And The Miracles - The Tears Of A Clown.flac" WAVE
INDEX 01 00:00:00
TRACK 15 AUDIO
TITLE "Baby, Baby Don't Cry"
ISRC USMO16872037
INDEX 00 03:03:30
FILE "15 Smokey Robinson And The Miracles - Baby, Baby Don't Cry.flac" WAVE
INDEX 01 00:00:00
TRACK 16 AUDIO
TITLE "The Tracks Of My Tears"
ISRC USMO16572026
INDEX 00 03:57:60
FILE "16 Smokey Robinson And The Miracles - The Tracks Of My Tears.flac" WAVE
INDEX 01 00:00:00
FILE "17 Smokey Robinson And The Miracles - The Love I Saw In You Was Just A Mirage.flac" WAVE
TRACK 17 AUDIO
TITLE "The Love I Saw In You Was Just A Mirage"
ISRC USMO16772031
INDEX 01 00:00:00
TRACK 18 AUDIO
TITLE "(Come 'Round Here) I'm The One You Need"
ISRC USMO16672030
INDEX 00 02:57:28
FILE "18 Smokey Robinson And The Miracles - (Come 'Round Here) I'm The One You Need.flac" WAVE
INDEX 01 00:00:00
TRACK 19 AUDIO
TITLE "More Love"
ISRC USMO16772034
INDEX 00 02:29:03
FILE "19 Smokey Robinson And The Miracles - More Love.flac" WAVE
INDEX 01 00:00:00
FILE "20 Smokey Robinson And The Miracles - Special Occasion.flac" WAVE
TRACK 20 AUDIO
TITLE "Special Occasion"
ISRC USMO16872038
INDEX 01 00:00:00
TRACK 21 AUDIO
TITLE "If You Can Want"
ISRC USMO16872035
INDEX 00 02:17:37
FILE "21 Smokey Robinson And The Miracles - If You Can Want.flac" WAVE
INDEX 01 00:00:00
TRACK 22 AUDIO
TITLE "Yester Love"
ISRC USMO16872036
INDEX 00 02:25:45
FILE "22 Smokey Robinson And The Miracles - Yester Love.flac" WAVE
INDEX 01 00:00:00
TRACK 23 AUDIO
TITLE "We've Come Too Far To End It Now"
ISRC USMO17272049
INDEX 00 02:17:35
FILE "23 Smokey Robinson And The Miracles - We've Come Too Far To End It Now.flac" WAVE
INDEX 01 00:00:00
FILE "24 Smokey Robinson And The Miracles - What's So Good About Goodbye.flac" WAVE
TRACK 24 AUDIO
TITLE "What's So Good About Goodbye"
ISRC USMO16172010
INDEX 01 00:00:00
TRACK 25 AUDIO
TITLE "(You Can) Depend On Me"
ISRC USMO16072004
INDEX 00 02:21:65
FILE "25 Smokey Robinson And The Miracles - (You Can) Depend On Me.flac" WAVE
INDEX 01 00:00:00
 
DR Log
foobar2000 1.1.10 / Dynamic Range Meter 1.1.1
log date: 2017-01-02 19:56:17
--------------------------------------------------------------------------------
Analyzed: Smokey Robinson And The Miracles / The Ultimate Collection [Motown 314530857-2]
--------------------------------------------------------------------------------
DR Peak RMS Duration Track
--------------------------------------------------------------------------------
DR7 -1.99 dB -9.72 dB 2:51 ?-Going To A Go-Go
DR7 -1.60 dB -10.28 dB 2:42 ?-I Second That Emotion
DR6 -1.53 dB -9.09 dB 2:49 ?-Shop Around
DR5 -1.53 dB -8.07 dB 2:57 ?-Way Over There
DR6 -1.53 dB -9.48 dB 2:44 ?-Bad Girl
DR7 -1.53 dB -10.76 dB 3:04 ?-Who's Lovin' You
DR5 -2.78 dB -8.74 dB 2:37 ?-I'll Try Something New
DR7 -1.62 dB -10.21 dB 2:58 ?-You've Really Got A Hold On Me
DR7 -2.02 dB -10.52 dB 2:47 ?-Mickey's Monkey
DR6 -1.81 dB -9.02 dB 2:36 ?-I Like It Like That
DR6 -1.53 dB -9.61 dB 2:44 ?-Ooo Baby Baby
DR7 -1.87 dB -10.50 dB 2:33 ?-Choosey Beggar
DR7 -1.61 dB -10.46 dB 2:54 ?-My Girl Has Gone
DR5 -4.15 dB -10.33 dB 3:04 ?-The Tears Of A Clown
DR7 -1.53 dB -10.16 dB 3:59 ?-Baby, Baby Don't Cry
DR9 -1.58 dB -11.54 dB 3:01 ?-The Tracks Of My Tears
DR6 -2.70 dB -10.49 dB 2:59 ?-The Love I Saw In You Was Just A Mirage
DR6 -2.09 dB -9.11 dB 2:30 ?-(Come 'Round Here) I'm The One You Need
DR5 -1.88 dB -9.32 dB 2:49 ?-More Love
DR9 -1.53 dB -11.55 dB 2:19 ?-Special Occasion
DR7 -1.95 dB -9.75 dB 2:27 ?-If You Can Want
DR6 -1.53 dB -9.64 dB 2:19 ?-Yester Love
DR8 0.00 dB -8.92 dB 3:50 ?-We've Come Too Far To End It Now
DR5 -3.44 dB -10.36 dB 2:23 ?-What's So Good About Goodbye
DR5 -3.01 dB -10.09 dB 3:06 ?-(You Can) Depend On Me
--------------------------------------------------------------------------------
Number of tracks: 25
Official DR value: DR6
Samplerate: 44100 Hz
Channels: 2
Bits per sample: 16
Bitrate: 449 kbps
Codec: FLAC
================================================================================
 
Об альбоме (сборнике)
Import collection from the Motown legends, arguably the best single-disc compilation available on the market. Combining Smokey's endlessly inventive twists on romance (good and bad) with the Miracles' handful of straight-up party hits, it showcases one of American pop's most sure-footed and touching acts. The frontman's prowess as singer, writer, and producer lights up each of these single mixes; less-celebrated tracks like "My Girl Has Gone," "(You Can) Depend on Me," and "The Love I Saw in You Was Just a Mirage" stand as tall as the many oldies-radio staples featured here. While he and The Miracles remain one of the Motown label's most successful acts, Smokey is also known for his top-notch songwriting skills for other label mates as well as his own successful solo career. 25 tracks.
Smokey Robinson and the Miracles' 25-cut disc is the single most impressive one of Motown's Ultimate Collection series (which features 17 artists). Combining Smokey's endlessly inventive twists on romance (good and bad) with the Miracles' handful of straight-up party hits, it showcases one of American pop's most sure-footed and touching acts. The frontman's prowess as singer, writer, and producer lights up each of these single mixes; less-celebrated tracks like "My Girl Has Gone," "(You Can) Depend on Me," and "The Love I Saw in You Was Just a Mirage" stand as tall as the many oldies-radio staples featured here. (For much more, including "Mirage's" unstoppable flip side, "Come Spy with Me," check out the four-disc 35th Anniversary box set.) Robinson and his collaborators, both in and out of the group, regularly injected undeniable emotion into their creamy constructions, making for a stack of tracks that remain as relevant as the contemporary creations of fans Lennon-McCartney and Bob Dylan. --Rickey Wright
Track 1: Tamla single 54127, released December 6, 1965.
Track 2: Tamla single 54159, released October 12, 1967.
Track 3: Tamla single 54034, released October 15, 1960.
Track 4: Tamla single 54028 (second version with strings), released nationally April 4, 1960, and again as Tamla single 54069, August 17, 1962.
Track 5: Chess 1734, also Motown G1 & Motown GLX2207, released September 1959.
Track 6: Tamla 54034-B, flip-side of "Shop Around".
Track 7: Tamla 54059, released April 9, 1962.
Track 8: Tamla 54073, released November 9, 1962.
Track 9: Tamla 54083, released July 26, 1963.
Track 10: Tamla 54098, released June 3, 1964.
Track 11: Tamla 54113, released March 5, 1965.
Track 12: Tamla 54127-B, flip-side of "Going To A Go-Go".
Track 13: Tamla 54123, released September 22, 1965.
Track 14: Tamla 54199, released September 24, 1970.
Track 15: Tamla 54178, released December 12, 1968.
Track 16: Tamla 54118, released June 23, 1965.
Track 17: Tamla 54145, released January 27, 1967.
Track 18: Tamla 54140, released October 19, 1966.
Track 19: Tamla 54152, released May 26, 1967.
Track 20: Tamla 54172, released July 30, 1968.
Track 21: Tamla 54162, released February 8, 1968.
Track 22: Tamla 54167, released May 13, 1968.
Track 23: Tamla 54220, released May 4, 1972.
Track 24: Tamla 54053, released October 14, 1961.
Track 25: Tamla 54028-A2, released early 1960: reissued as 54028-B, flip-side of "Way Over There".
 
Состав
Bass – Bob Babbit, Clarence Isabell, James Jamerson, Joe Williams
Conductor – Gordon Staples
Drums – Andrew Smith, Benny Benjamin, Richard "Pistol" Allen, Uriel Jones
Flute, Piccolo Flute – Danya Hartwick
Guitar – Dennis Coffey, Eddie Willis, Joe Messina, Marv Tarplin, Melvin "Wah-Wah" Ragin, Robert White
Keyboards – Earl Van Dyke, Joe Hunter, Johnny Griffith, Richard "Popcorn" Wylie
Percussion – Eddie "Bongo" Brown, Jack Ashford
Performer – The Funk Brothers
Saxophone – Andrew "Mike" Terry, Angelo Carlisi, Bernie Peacock, Dan Turner, Eli Fontaine, Ernie Rodgers, Eugene 'BeeBee' Moore, Eugene Rodgers, Hank Cosby, Kasuka Mafia, Lanny Austin, Larry Nozero, Lefty Edwards, Teddy Buckner, Thomas "Beans" Bowles, William "Wild Bill" Moore
Strings – Detroit Symphony Orchestra
Trombone – Bill Johnson, Bob Cousar, Carl Raetz, Don White, George Bohanon, Jimmy Wilkins, Patrick Lanier, Paul Riser
Trumpet – Billy Horner, Don Slaughter, Eddie Jones, Floyd Jones, Herbie Williams, John "Little John" Wilson, Johnny Trudell, Marcus Belgrave, Maurice Davis, Russell Conway
Vibraphone [Vibes] – Jack Ashford, Jack Brokensha
Приватный:
Нет (DHT включён)
Размер:
261.76 Мб (274,479,466 байт) » файлов: 33
Участники:
0 раздают, 0 качают (0 участников всего)
Внешние участники:
3 раздают, 1 качают (4 участников всего) [ Обновить ]
Есть вопросы - пишите личное сообщение пользователю M0p94ok.
12:36
67
Нет комментариев. Ваш будет первым!