Поиск

(Funk, Soul, Pop Rap) [CD] The Jamaica Boys - J Boys - 1990, FLAC (tracks+.cue), lossless

(Funk, Soul, Pop Rap) [CD] The Jamaica Boys - J Boys - 1990, FLAC (tracks+.cue), lossless
Треклист:
The Jamaica Boys / J Boys
Жанр: Funk, Soul, Pop Rap
Носитель: CD
Страна-производитель диска (релиза): Japan
Год издания: 1990
Издатель (лейбл): P.R.A. Records
Номер по каталогу: WMC-561
Страна исполнителя (группы): usa
Аудиокодек: FLAC (*.flac)
Тип рипа: tracks+.cue
Битрейт аудио: lossless
Продолжительность: 47:16
Источник (релизер): CD
Наличие сканов в содержимом раздачи: да
Треклист:
01 Move It! (05:24)
02 Shake It Up! (04:13)
03 You've Got a Friend (07:04)
04 Seriuos (06:01)
05 Pick Up the Phone (04:31)
06 Hold On (I'm on My Way) (05:50)
07 Somebody Like You (05:43)
08 The Jungle Comes Alive (02:40)
09 That's Deep (05:42)
 
Лог создания рипа
Exact Audio Copy V1.0 beta 2 from 29. April 2011
Отчёт EAC об извлечении, выполненном 26. декабря 2016, 18:14
The Jamaica Boys / J Boys
Дисковод: PLEXTOR BDDVDRPX-B330SA Adapter: 0 ID: 1
Режим чтения : Достоверность
Использование точного потока : Да
Отключение кэша аудио : Да
Использование указателей C2 : Нет
Коррекция смещения при чтении : 702
Способность читать области Lead-in и Lead-out : Нет
Заполнение пропущенных сэмплов тишиной : Да
Удаление блоков с тишиной в начале и конце : Нет
При вычислениях CRC использовались нулевые сэмплы : Да
Интерфейс : Встроенный Win32-интерфейс для Win NT/2000
Обработка зазоров : Добавлено к предыдущему треку
Выходной формат : Пользовательский кодировщик
Выбранный битрейт : 128 kBit/s
Качество : Высокий
Добавление ID3-тега : Нет
Утилита сжатия : C:\Program Files\Exact Audio Copy\FLAC\FLAC.EXE
Дополнительные параметры : -6 -V -T "ARTIST=%artist%" -T "TITLE=%title%" -T "ALBUM=%albumtitle%" -T "DATE=%year%" -T "TRACKNUMBER=%tracknr%" -T "GENRE=%genre%" -T "COMMENT=%comment%" -T "BAND=%albuminterpret%" -T "COMPOSER=%composer%" %haslyrics%--tag-from-
TOC извлечённого CD
Трек | Старт | Длительность | Начальный сектор | Конечный сектор
---------------------------------------------------------------------
1 | 0:00.00 | 5:24.07 | 0 | 24306
2 | 5:24.07 | 4:13.53 | 24307 | 43334
3 | 9:37.60 | 7:04.10 | 43335 | 75144
4 | 16:41.70 | 6:01.72 | 75145 | 102291
5 | 22:43.67 | 4:31.58 | 102292 | 122674
6 | 27:15.50 | 5:50.05 | 122675 | 148929
7 | 33:05.55 | 5:43.50 | 148930 | 174704
8 | 38:49.30 | 2:40.55 | 174705 | 186759
9 | 41:30.10 | 5:46.02 | 186760 | 212711
Трек 1
Имя файла D:\FLAC\01 Move It!.wav
Длина предзазора 0:00:02.00
Пиковый уровень 89.1 %
Скорость извлечения 1.8 X
Качество трека 100.0 %
CRC теста C7CDD061
CRC копии C7CDD061
Точное извлечение (достоверность 4) [1E2A1479] (AR v2)
Копирование... OK
Трек 2
Имя файла D:\FLAC\02 Shake It Up!.wav
Длина предзазора 0:00:00.50
Пиковый уровень 92.8 %
Скорость извлечения 2.0 X
Качество трека 100.0 %
CRC теста 8F9EE121
CRC копии 8F9EE121
Точное извлечение (достоверность 4) [03982975] (AR v2)
Копирование... OK
Трек 3
Имя файла D:\FLAC\03 You've Got a Friend.wav
Длина предзазора 0:00:00.70
Пиковый уровень 99.4 %
Скорость извлечения 2.4 X
Качество трека 100.0 %
CRC теста 43C006AD
CRC копии 43C006AD
Точное извлечение (достоверность 4) [EE5C9DF8] (AR v2)
Копирование... OK
Трек 4
Имя файла D:\FLAC\04 Seriuos.wav
Пиковый уровень 100.0 %
Скорость извлечения 2.6 X
Качество трека 100.0 %
CRC теста 7288F047
CRC копии 7288F047
Точное извлечение (достоверность 4) [2A038D48] (AR v2)
Копирование... OK
Трек 5
Имя файла D:\FLAC\05 Pick Up the Phone.wav
Длина предзазора 0:00:00.62
Пиковый уровень 93.2 %
Скорость извлечения 2.7 X
Качество трека 100.0 %
CRC теста 9E42BB80
CRC копии 9E42BB80
Точное извлечение (достоверность 4) [314A7A11] (AR v2)
Копирование... OK
Трек 6
Имя файла D:\FLAC\06 Hold On (I'm on My Way).wav
Длина предзазора 0:00:03.00
Пиковый уровень 89.8 %
Скорость извлечения 3.0 X
Качество трека 100.0 %
CRC теста 5A1C477B
CRC копии 5A1C477B
Точное извлечение (достоверность 4) [E21C718A] (AR v2)
Копирование... OK
Трек 7
Имя файла D:\FLAC\07 Somebody Like You.wav
Длина предзазора 0:00:00.65
Пиковый уровень 90.4 %
Скорость извлечения 3.0 X
Качество трека 100.0 %
CRC теста 41CCCF1E
CRC копии 41CCCF1E
Точное извлечение (достоверность 4) [7F69C14F] (AR v2)
Копирование... OK
Трек 8
Имя файла D:\FLAC\08 The Jungle Comes Alive.wav
Длина предзазора 0:00:00.73
Пиковый уровень 80.3 %
Скорость извлечения 2.9 X
Качество трека 100.0 %
CRC теста FDA499AB
CRC копии FDA499AB
Точное извлечение (достоверность 4) [62C7F3EE] (AR v2)
Копирование... OK
Трек 9
Имя файла D:\FLAC\09 That's Deep.wav
Пиковый уровень 87.9 %
Скорость извлечения 2.1 X
Качество трека 100.0 %
CRC теста 8D144A31
CRC копии 8D144A31
Точное извлечение (достоверность 4) [1086F0BA] (AR v2)
Копирование... OK
Все треки извлечены точно
Ошибок не произошло
Конец отчёта
---- CUETools DB Plugin V2.1.4
[CTDB TOCID: m6AbvcnipvDFB2G.z3sbGjPM.WI-] found
Submit result: already submitted
Track | CTDB Status
1 | (3/3) Accurately ripped
2 | (3/3) Accurately ripped
3 | (3/3) Accurately ripped
4 | (3/3) Accurately ripped
5 | (3/3) Accurately ripped
6 | (3/3) Accurately ripped
7 | (3/3) Accurately ripped
8 | (3/3) Accurately ripped
9 | (3/3) Accurately ripped
==== Контрольная сумма отчёта A6555B764798A68F56AC8931318EF121630B2BE8FF21C9F6EE9AF52249283077 ====
 
Содержание индексной карты (.CUE)
REM GENRE Funk
REM DATE 1990
REM DISCID 790B1409
REM COMMENT "ExactAudioCopy v1.0b2"
PERFORMER "The Jamaica Boys "
TITLE "J Boys "
FILE "01 Move It!.wav" WAVE
TRACK 01 AUDIO
TITLE "Move It! "
PERFORMER "The Jamaica Boys "
INDEX 01 00:00:00
TRACK 02 AUDIO
TITLE "Shake It Up! "
PERFORMER "The Jamaica Boys "
INDEX 00 05:23:32
FILE "02 Shake It Up!.wav" WAVE
INDEX 01 00:00:00
TRACK 03 AUDIO
TITLE "You've Got a Friend "
PERFORMER "The Jamaica Boys "
INDEX 00 04:12:58
FILE "03 You've Got a Friend.wav" WAVE
INDEX 01 00:00:00
FILE "04 Seriuos.wav" WAVE
TRACK 04 AUDIO
TITLE " Seriuos "
PERFORMER "The Jamaica Boys "
INDEX 01 00:00:00
TRACK 05 AUDIO
TITLE "Pick Up the Phone "
PERFORMER "The Jamaica Boys "
INDEX 00 06:01:10
FILE "05 Pick Up the Phone.wav" WAVE
INDEX 01 00:00:00
TRACK 06 AUDIO
TITLE "Hold On (I'm on My Way) "
PERFORMER "The Jamaica Boys "
INDEX 00 04:28:58
FILE "06 Hold On (I'm on My Way).wav" WAVE
INDEX 01 00:00:00
TRACK 07 AUDIO
TITLE "Somebody Like You "
PERFORMER "The Jamaica Boys "
INDEX 00 05:49:15
FILE "07 Somebody Like You.wav" WAVE
INDEX 01 00:00:00
TRACK 08 AUDIO
TITLE "The Jungle Comes Alive"
PERFORMER "The Jamaica Boys "
INDEX 00 05:42:52
FILE "08 The Jungle Comes Alive.wav" WAVE
INDEX 01 00:00:00
FILE "09 That's Deep.wav" WAVE
TRACK 09 AUDIO
TITLE "That's Deep"
PERFORMER "The Jamaica Boys "
INDEX 01 00:00:00
https://www.discogs.com/Jamaica-Boys-J-Boys/release/7206983
Приватный:
Нет (DHT включён)
Размер:
323.16 Мб (338,862,229 байт) » файлов: 28
Участники:
0 раздают, 0 качают (0 участников всего)
Внешние участники:
1 раздают, 0 качают (1 участников всего) [ Обновить ]
Есть вопросы - пишите личное сообщение пользователю M0p94ok.
12:34
59
Нет комментариев. Ваш будет первым!