Поиск

(Soul, R&B) [CD] Marcia Hines - The Collection - 2000, FLAC (tracks+.cue), lossless

(Soul, R&B) [CD] Marcia Hines - The Collection - 2000, FLAC (tracks+.cue), lossless
Треклист:
Marcia Hines - The Collection
Жанр: Soul, R&B
Носитель: CD
Год издания: 2000
Издатель (лейбл): Wizard Records/EMI
Номер по каталогу: CDAX 260314
Аудиокодек: FLAC (*.flac)
Тип рипа: tracks+.cue
Битрейт аудио: lossless
Продолжительность: 45:47
Источник (релизер): What.cd (bonson)
Наличие сканов в содержимом раздачи: нет
Треклист:
01. Shining (3:43)
02. From The Inside (4:02)
03. In A Mellow Mood (2:39)
04. Dance You Fool, Dance (5:19)
05. Empty (2:36)
06. Let The Music Play (4:21)
07. Fire And Rain (4:45)
08. Music Is My Life (2:10)
09. Signed, Sealed, Delivered (3:29)
10. Once We Get Started (4:53)
11. Trilogy (4:21)
12. A Love Story (3:29)
 
 
Лог создания рипа
Exact Audio Copy V1.0 beta 3 from 29. August 2011
EAC extraction logfile from 6. April 2013, 20:40
Marcia Hines / The Collection
Used drive : hp BD B DH8E2L Adapter: 0 ID: 1
Read mode : Secure
Utilize accurate stream : Yes
Defeat audio cache : Yes
Make use of C2 pointers : No
Read offset correction : 6
Overread into Lead-In and Lead-Out : No
Fill up missing offset samples with silence : Yes
Delete leading and trailing silent blocks : No
Null samples used in CRC calculations : Yes
Used interface : Native Win32 interface for Win NT & 2000
Gap handling : Appended to previous track
Used output format : User Defined Encoder
Selected bitrate : 1024 kBit/s
Quality : High
Add ID3 tag : No
Command line compressor : C:\Program Files (x86)\Exact Audio Copy\Flac\flac.exe
Additional command line options : -8 -V -T "ARTIST=%artist%" -T "TITLE=%title%" -T "ALBUM=%albumtitle%" -T "DATE=%year%" -T "TRACKNUMBER=%tracknr1%" -T "GENRE=%genre%" -T "PERFORMER=%albuminterpret%" -T "COMPOSER=%composer%" %haslyrics%--tag-from-file=LYRICS="%lyricsfile%"%haslyrics% -T "ALBUMARTIST=%albumartist%" -T "DISCNUMBER=%cdnumber%" -T "TOTALDISCS=%totalcds%" -T "TOTALTRACKS=%numtracks%" -T "COMMENT=%comment%" %source% -o %dest%
TOC of the extracted CD
Track | Start | Length | Start sector | End sector
---------------------------------------------------------
1 | 0:00.00 | 3:42.42 | 0 | 16691
2 | 3:42.42 | 4:02.33 | 16692 | 34874
3 | 7:45.00 | 2:39.00 | 34875 | 46799
4 | 10:24.00 | 5:18.40 | 46800 | 70689
5 | 15:42.40 | 2:36.35 | 70690 | 82424
6 | 18:19.00 | 4:21.00 | 82425 | 101999
7 | 22:40.00 | 4:44.62 | 102000 | 123361
8 | 27:24.62 | 2:09.53 | 123362 | 133089
9 | 29:34.40 | 3:28.67 | 133090 | 148756
10 | 33:03.32 | 4:53.23 | 148757 | 170754
11 | 37:56.55 | 4:21.20 | 170755 | 190349
12 | 42:18.00 | 3:29.00 | 190350 | 206024
Track 1
Filename F:\Media Conversion\EAC Rips\Marcia Hines - The Collection (2000) (FLAC)\01 - Shining.wav
Pre-gap length 0:00:02.00
Peak level 63.1 %
Extraction speed 4.8 X
Track quality 100.0 %
Test CRC 4467E2DB
Copy CRC 4467E2DB
Cannot be verified as accurate (confidence 1) [6659E86C], AccurateRip returned [25E7D2EB] (AR v2)
Copy OK
Track 2
Filename F:\Media Conversion\EAC Rips\Marcia Hines - The Collection (2000) (FLAC)\02 - From The Inside.wav
Peak level 75.5 %
Extraction speed 5.3 X
Track quality 100.0 %
Test CRC 93C6E0FC
Copy CRC 93C6E0FC
Cannot be verified as accurate (confidence 1) [8F9DCF64], AccurateRip returned [5CE829AE] (AR v2)
Copy OK
Track 3
Filename F:\Media Conversion\EAC Rips\Marcia Hines - The Collection (2000) (FLAC)\03 - In A Mellow Mood.wav
Peak level 74.2 %
Extraction speed 4.0 X
Track quality 99.9 %
Test CRC AA87BE50
Copy CRC AA87BE50
Cannot be verified as accurate (confidence 1) [FD37A7A6], AccurateRip returned [2E7B74B5] (AR v2)
Copy OK
Track 4
Filename F:\Media Conversion\EAC Rips\Marcia Hines - The Collection (2000) (FLAC)\04 - Dance You Fool, Dance.wav
Peak level 80.5 %
Extraction speed 6.1 X
Track quality 100.0 %
Test CRC 844FE348
Copy CRC 844FE348
Cannot be verified as accurate (confidence 1) [445292B5], AccurateRip returned [A16E6450] (AR v2)
Copy OK
Track 5
Filename F:\Media Conversion\EAC Rips\Marcia Hines - The Collection (2000) (FLAC)\05 - Empty.wav
Peak level 72.7 %
Extraction speed 5.8 X
Track quality 100.0 %
Test CRC F5B5A802
Copy CRC F5B5A802
Cannot be verified as accurate (confidence 1) [C23B4E90], AccurateRip returned [FF7BE36A] (AR v2)
Copy OK
Track 6
Filename F:\Media Conversion\EAC Rips\Marcia Hines - The Collection (2000) (FLAC)\06 - Let The Music Play.wav
Peak level 62.8 %
Extraction speed 6.6 X
Track quality 100.0 %
Test CRC 536FD307
Copy CRC 536FD307
Cannot be verified as accurate (confidence 1) [95700A96], AccurateRip returned [EFAF416D] (AR v2)
Copy OK
Track 7
Filename F:\Media Conversion\EAC Rips\Marcia Hines - The Collection (2000) (FLAC)\07 - Fire and Rain.wav
Peak level 78.6 %
Extraction speed 5.9 X
Track quality 99.9 %
Test CRC 2426954D
Copy CRC 2426954D
Cannot be verified as accurate (confidence 1) [EF1344CD], AccurateRip returned [0E26C838] (AR v2)
Copy OK
Track 8
Filename F:\Media Conversion\EAC Rips\Marcia Hines - The Collection (2000) (FLAC)\08 - Music Is My Life.wav
Peak level 66.2 %
Extraction speed 6.4 X
Track quality 100.0 %
Test CRC 8805BB23
Copy CRC 8805BB23
Cannot be verified as accurate (confidence 1) [1E35FC36], AccurateRip returned [01B51663] (AR v2)
Copy OK
Track 9
Filename F:\Media Conversion\EAC Rips\Marcia Hines - The Collection (2000) (FLAC)\09 - Signed, Sealed, Delivered.wav
Peak level 98.7 %
Extraction speed 7.2 X
Track quality 100.0 %
Test CRC 36CBACC6
Copy CRC 36CBACC6
Cannot be verified as accurate (confidence 1) [C00E3C60], AccurateRip returned [D41826FA] (AR v2)
Copy OK
Track 10
Filename F:\Media Conversion\EAC Rips\Marcia Hines - The Collection (2000) (FLAC)\10 - Once We Get Started.wav
Peak level 87.7 %
Extraction speed 7.8 X
Track quality 100.0 %
Test CRC 3924F32C
Copy CRC 3924F32C
Cannot be verified as accurate (confidence 1) [44AE828A], AccurateRip returned [9EFFC364] (AR v2)
Copy OK
Track 11
Filename F:\Media Conversion\EAC Rips\Marcia Hines - The Collection (2000) (FLAC)\11 - Trilogy.wav
Peak level 66.3 %
Extraction speed 6.4 X
Track quality 99.9 %
Test CRC 019E7505
Copy CRC 019E7505
Cannot be verified as accurate (confidence 1) [F602C49E], AccurateRip returned [33DD75D4] (AR v2)
Copy OK
Track 12
Filename F:\Media Conversion\EAC Rips\Marcia Hines - The Collection (2000) (FLAC)\12 - A Love Story.wav
Peak level 73.5 %
Extraction speed 7.9 X
Track quality 100.0 %
Test CRC D4E5B3D4
Copy CRC D4E5B3D4
Cannot be verified as accurate (confidence 1) [FA217E5B], AccurateRip returned [FA25E5C7] (AR v2)
Copy OK
No tracks could be verified as accurate
You may have a different pressing from the one(s) in the database
No errors occurred
End of status report
==== Log checksum 6180D0C4E2DE78E27AA4BD3E67585BE9833C2EE4AD976AD6932F4F0FF8292B15 ====
 
Содержание индексной карты (.CUE)
REM GENRE Soul
REM DATE 2000
REM DISCID A40ABB0C
REM COMMENT "ExactAudioCopy v1.0b3"
PERFORMER "Marcia Hines"
TITLE "The Collection"
FILE "01 - Shining.wav" WAVE
TRACK 01 AUDIO
TITLE "Shining"
PERFORMER "Marcia Hines"
INDEX 01 00:00:00
FILE "02 - From The Inside.wav" WAVE
TRACK 02 AUDIO
TITLE "From The Inside"
PERFORMER "Marcia Hines"
INDEX 01 00:00:00
FILE "03 - In A Mellow Mood.wav" WAVE
TRACK 03 AUDIO
TITLE "In A Mellow Mood"
PERFORMER "Marcia Hines"
INDEX 01 00:00:00
FILE "04 - Dance You Fool, Dance.wav" WAVE
TRACK 04 AUDIO
TITLE "Dance You Fool, Dance"
PERFORMER "Marcia Hines"
INDEX 01 00:00:00
FILE "05 - Empty.wav" WAVE
TRACK 05 AUDIO
TITLE "Empty"
PERFORMER "Marcia Hines"
INDEX 01 00:00:00
FILE "06 - Let The Music Play.wav" WAVE
TRACK 06 AUDIO
TITLE "Let The Music Play"
PERFORMER "Marcia Hines"
INDEX 01 00:00:00
FILE "07 - Fire And Rain.wav" WAVE
TRACK 07 AUDIO
TITLE "Fire And Rain"
PERFORMER "Marcia Hines"
INDEX 01 00:00:00
FILE "08 - Music Is My Life.wav" WAVE
TRACK 08 AUDIO
TITLE "Music Is My Life"
PERFORMER "Marcia Hines"
INDEX 01 00:00:00
FILE "09 - Signed, Sealed, Delivered.wav" WAVE
TRACK 09 AUDIO
TITLE "Signed, Sealed, Delivered"
PERFORMER "Marcia Hines"
INDEX 01 00:00:00
FILE "10 - Once We Get Started.wav" WAVE
TRACK 10 AUDIO
TITLE "Once We Get Started"
PERFORMER "Marcia Hines"
INDEX 01 00:00:00
FILE "11 - Trilogy.wav" WAVE
TRACK 11 AUDIO
TITLE "Trilogy"
PERFORMER "Marcia Hines"
INDEX 01 00:00:00
FILE "12 - A Love Story.wav" WAVE
TRACK 12 AUDIO
TITLE "A Love Story"
PERFORMER "Marcia Hines"
INDEX 01 00:00:00
Приватный:
Нет (DHT включён)
Размер:
287.59 Мб (301,565,129 байт) » файлов: 17
Участники:
0 раздают, 0 качают (0 участников всего)
Внешние участники:
2 раздают, 1 качают (3 участников всего) [ Обновить ]
Есть вопросы - пишите личное сообщение пользователю M0p94ok.
07:13
88
Нет комментариев. Ваш будет первым!