Поиск

(R&B) [CD] Marcia Hines - Hinesight: Songs From The Journey - 2004, FLAC (tracks+.cue), lossless

(R&B) [CD] Marcia Hines - Hinesight: Songs From The Journey - 2004, FLAC (tracks+.cue), lossless
Треклист:
Marcia Hines - Hinesight: Songs From The Journey
Жанр: R&B
Носитель: CD
Год издания: 2004
Издатель (лейбл): BMG
Номер по каталогу: 82876626572
Страна исполнителя (группы): Australia
Аудиокодек: FLAC (*.flac)
Тип рипа: tracks+.cue
Битрейт аудио: lossless
Продолжительность: 50:37
Источник (релизер): What.cd (Maldoror777)
Наличие сканов в содержимом раздачи: нет
Треклист:
01. Ain't Nobody (3:43)
02. Fine Brown Frame (3:00)
03. Take Me In Your Arms (3:03)
04. Shower The People (4:18)
05. When I Fall In Love (3:52)
06. I.G.Y. (What A Beautiful World) (3:59)
07. You Are Everything (2:48)
08. Sunshine (4:45)
09. You Send Me (2:51)
10. How Deep Is Your Love (4:26)
11. Ooh Boy (3:59)
12. Something So Right (4:58)
13. Forever Young (4:57)
 
 
Лог создания рипа
Exact Audio Copy V1.0 beta 6 from 9. April 2015
EAC extraction logfile from 26. May 2015, 11:10
Marcia Hines / Hinesight
Used drive : TSSTcorpCDDVDW SH-224DB Adapter: 1 ID: 0
Read mode : Secure
Utilize accurate stream : Yes
Defeat audio cache : Yes
Make use of C2 pointers : No
Read offset correction : 6
Overread into Lead-In and Lead-Out : No
Fill up missing offset samples with silence : Yes
Delete leading and trailing silent blocks : No
Null samples used in CRC calculations : Yes
Used interface : Native Win32 interface for Win NT & 2000
Gap handling : Appended to previous track
Used output format : User Defined Encoder
Selected bitrate : 1024 kBit/s
Quality : High
Add ID3 tag : No
Command line compressor : C:\Program Files (x86)\Exact Audio Copy\Flac\flac.exe
Additional command line options : -8 -V -T "ARTIST=%artist%" -T "TITLE=%title%" -T "ALBUM=%albumtitle%" -T "DATE=%year%" -T "TRACKNUMBER=%tracknr%" -T "GENRE=%genre%" -T "PERFORMER=%albuminterpret%" -T "COMPOSER=%composer%" %haslyrics%--tag-from-file=LYRICS="%lyricsfile%"%haslyrics% -T "ALBUMARTIST=%albumartist%" -T "DISCNUMBER=%cdnumber%" -T "TOTALDISCS=%totalcds%" -T "TOTALTRACKS=%numtracks%" -T "COMMENT=%comment%" %source% -o %dest%
TOC of the extracted CD
Track | Start | Length | Start sector | End sector
---------------------------------------------------------
1 | 0:00.00 | 3:42.55 | 0 | 16704
2 | 3:42.55 | 2:59.67 | 16705 | 30196
3 | 6:42.47 | 3:02.53 | 30197 | 43899
4 | 9:45.25 | 4:18.08 | 43900 | 63257
5 | 14:03.33 | 3:51.41 | 63258 | 80623
6 | 17:54.74 | 3:58.41 | 80624 | 98514
7 | 21:53.40 | 2:47.50 | 98515 | 111089
8 | 24:41.15 | 4:44.68 | 111090 | 132457
9 | 29:26.08 | 2:50.63 | 132458 | 145270
10 | 32:16.71 | 4:25.64 | 145271 | 165209
11 | 36:42.60 | 3:58.67 | 165210 | 183126
12 | 40:41.52 | 4:58.02 | 183127 | 205478
13 | 45:39.54 | 4:56.61 | 205479 | 227739
Track 1
Filename d:\RIP\01 - Ain't Nobody.wav
Pre-gap length 0:00:02.00
Peak level 99.8 %
Extraction speed 1.5 X
Track quality 99.9 %
Test CRC 0FBFAB8C
Copy CRC 0FBFAB8C
Accurately ripped (confidence 5) [C38CD390] (AR v1)
Copy OK
Track 2
Filename d:\RIP\02 - Fine Brown Frame.wav
Peak level 99.8 %
Extraction speed 1.5 X
Track quality 99.9 %
Test CRC F8780759
Copy CRC F8780759
Accurately ripped (confidence 5) [61A3AB98] (AR v1)
Copy OK
Track 3
Filename d:\RIP\03 - Take Me In Your Arms.wav
Peak level 99.8 %
Extraction speed 1.9 X
Track quality 100.0 %
Test CRC 571952AC
Copy CRC 571952AC
Accurately ripped (confidence 5) [24EBF427] (AR v1)
Copy OK
Track 4
Filename d:\RIP\04 - Shower The People.wav
Peak level 99.8 %
Extraction speed 2.2 X
Track quality 100.0 %
Test CRC CB35CDEC
Copy CRC CB35CDEC
Accurately ripped (confidence 5) [B3B56CDF] (AR v1)
Copy OK
Track 5
Filename d:\RIP\05 - When I Fall In Love.wav
Peak level 99.8 %
Extraction speed 2.3 X
Track quality 100.0 %
Test CRC 4A1A0EA5
Copy CRC 4A1A0EA5
Accurately ripped (confidence 5) [1E936AC0] (AR v1)
Copy OK
Track 6
Filename d:\RIP\06 - I.G.Y. (What A Beautiful World).wav
Peak level 99.8 %
Extraction speed 2.4 X
Track quality 100.0 %
Test CRC 9D9DEB86
Copy CRC 9D9DEB86
Accurately ripped (confidence 5) [BD752178] (AR v1)
Copy OK
Track 7
Filename d:\RIP\07 - You Are Everything.wav
Peak level 99.8 %
Extraction speed 1.8 X
Track quality 99.9 %
Test CRC 1A8F7531
Copy CRC 1A8F7531
Accurately ripped (confidence 5) [CF92EA6D] (AR v1)
Copy OK
Track 8
Filename d:\RIP\08 - Sunshine.wav
Peak level 99.8 %
Extraction speed 2.7 X
Track quality 100.0 %
Test CRC A86AFDCE
Copy CRC A86AFDCE
Accurately ripped (confidence 5) [E977D56C] (AR v1)
Copy OK
Track 9
Filename d:\RIP\09 - You Send Me.wav
Peak level 99.8 %
Extraction speed 2.6 X
Track quality 100.0 %
Test CRC D5A9EADB
Copy CRC D5A9EADB
Accurately ripped (confidence 5) [A02BB0D5] (AR v1)
Copy OK
Track 10
Filename d:\RIP\10 - How Deep Is Your Love.wav
Peak level 99.8 %
Extraction speed 2.9 X
Track quality 100.0 %
Test CRC 752F6D52
Copy CRC 752F6D52
Accurately ripped (confidence 5) [5F177265] (AR v1)
Copy OK
Track 11
Filename d:\RIP\11 - Ooh Boy.wav
Peak level 99.8 %
Extraction speed 3.0 X
Track quality 100.0 %
Test CRC FA0824CD
Copy CRC FA0824CD
Accurately ripped (confidence 5) [FEB17189] (AR v1)
Copy OK
Track 12
Filename d:\RIP\12 - Something So Right.wav
Peak level 99.8 %
Extraction speed 3.2 X
Track quality 100.0 %
Test CRC 96BA6E09
Copy CRC 96BA6E09
Accurately ripped (confidence 5) [D6A1CFC9] (AR v1)
Copy OK
Track 13
Filename d:\RIP\13 - Forever Young.wav
Peak level 99.8 %
Extraction speed 2.7 X
Track quality 99.9 %
Test CRC 5BAF20A8
Copy CRC 5BAF20A8
Accurately ripped (confidence 5) [1A1E9492] (AR v1)
Copy OK
All tracks accurately ripped
No errors occurred
End of status report
---- CUETools DB Plugin V2.1.6
[CTDB TOCID: Nuwum5maRe.3lFxVav9Ll2oXiiQ-] found
Submit result: Nuwum5maRe.3lFxVav9Ll2oXiiQ- has been confirmed
Track | CTDB Status
1 | (1/1) Accurately ripped
2 | (1/1) Accurately ripped
3 | (1/1) Accurately ripped
4 | (1/1) Accurately ripped
5 | (1/1) Accurately ripped
6 | (1/1) Accurately ripped
7 | (1/1) Accurately ripped
8 | (1/1) Accurately ripped
9 | (1/1) Accurately ripped
10 | (1/1) Accurately ripped
11 | (1/1) Accurately ripped
12 | (1/1) Accurately ripped
13 | (1/1) Accurately ripped
==== Log checksum 695AA6767438B87DD32D13B52C5D489D26FEF0D2309B8B93506435AE72B42B20 ====
 
Содержание индексной карты (.CUE)
REM GENRE R&B
REM DATE 2004
REM DISCID AD0BDC0D
REM COMMENT "ExactAudioCopy v1.0b6"
PERFORMER "Marcia Hines"
TITLE "Hinesight"
FILE "01 - Ain't Nobody.wav" WAVE
TRACK 01 AUDIO
TITLE "Ain't Nobody"
PERFORMER "Marcia Hines"
ISRC AUBM00460301
INDEX 01 00:00:00
FILE "02 - Fine Brown Frame.wav" WAVE
TRACK 02 AUDIO
TITLE "Fine Brown Frame"
PERFORMER "Marcia Hines"
ISRC AUBM00460306
INDEX 01 00:00:00
FILE "03 - Take Me In Your Arms.wav" WAVE
TRACK 03 AUDIO
TITLE "Take Me In Your Arms"
PERFORMER "Marcia Hines"
ISRC AUBM00460303
INDEX 01 00:00:00
FILE "04 - Shower The People.wav" WAVE
TRACK 04 AUDIO
TITLE "Shower The People"
PERFORMER "Marcia Hines"
ISRC AUBM00460302
INDEX 01 00:00:00
FILE "05 - When I Fall In Love.wav" WAVE
TRACK 05 AUDIO
TITLE "When I Fall In Love"
PERFORMER "Marcia Hines"
ISRC AUBM00460313
INDEX 01 00:00:00
FILE "06 - I.G.Y. (What A Beautiful World).wav" WAVE
TRACK 06 AUDIO
TITLE "I.G.Y. (What A Beautiful World)"
PERFORMER "Marcia Hines"
ISRC AUBM00460311
INDEX 01 00:00:00
FILE "07 - You Are Everything.wav" WAVE
TRACK 07 AUDIO
TITLE "You Are Everything"
PERFORMER "Marcia Hines"
ISRC AUBM00460309
INDEX 01 00:00:00
FILE "08 - Sunshine.wav" WAVE
TRACK 08 AUDIO
TITLE "Sunshine"
PERFORMER "Marcia Hines"
ISRC AUBM00460304
INDEX 01 00:00:00
FILE "09 - You Send Me.wav" WAVE
TRACK 09 AUDIO
TITLE "You Send Me"
PERFORMER "Marcia Hines"
ISRC AUBM00460307
INDEX 01 00:00:00
FILE "10 - How Deep Is Your Love.wav" WAVE
TRACK 10 AUDIO
TITLE "How Deep Is Your Love"
PERFORMER "Marcia Hines"
ISRC AUBM00460310
INDEX 01 00:00:00
FILE "11 - Ooh Boy.wav" WAVE
TRACK 11 AUDIO
TITLE "Ooh Boy"
PERFORMER "Marcia Hines"
ISRC AUBM00460305
INDEX 01 00:00:00
FILE "12 - Something So Right.wav" WAVE
TRACK 12 AUDIO
TITLE "Something So Right"
PERFORMER "Marcia Hines"
ISRC AUBM00460308
INDEX 01 00:00:00
FILE "13 - Forever Young.wav" WAVE
TRACK 13 AUDIO
TITLE "Forever Young"
PERFORMER "Marcia Hines"
ISRC AUBM00460312
INDEX 01 00:00:00
Приватный:
Нет (DHT включён)
Размер:
334.80 Мб (351,064,478 байт) » файлов: 20
Участники:
0 раздают, 0 качают (0 участников всего)
Внешние участники:
3 раздают, 1 качают (4 участников всего) [ Обновить ]
Есть вопросы - пишите личное сообщение пользователю M0p94ok.
07:14
67
Нет комментариев. Ваш будет первым!