Поиск

(Soul) [CD] Randy Brown - Check It Out (1981) - 1997, FLAC (tracks+.cue), lossless

(Soul) [CD] Randy Brown - Check It Out (1981) - 1997, FLAC (tracks+.cue), lossless
Треклист:
Randy Brown - Check It Out (1981) Жанр: Soul
Носитель: CD
Страна-производитель диска (релиза): Japan
Год издания: 1997
Издатель (лейбл): P-Vine Records
Номер по каталогу: PCD-4446
Аудиокодек: FLAC (*.flac)
Тип рипа: tracks+.cue
Битрейт аудио: lossless
Продолжительность: 34:15
Rip by JET 1
Наличие сканов в содержимом раздачи: да
Треклист:
01. Sweet To The Bone (3:44)
02. Heaven Knows (4:46)
03. If It's Love That You Want (3:37)
04. Two Fools (5:21)
05. If I Had To Do It All Over (3:33)
06. Thank You For The Happiness (4:49)
07. Without You (4:28)
08. Smoking Room (3:58)
 
 
Лог создания рипа
Exact Audio Copy V1.0 beta 3 from 29. August 2011
EAC extraction logfile from 17. July 2015, 13:16
Randy Brown / Check It Out
Used drive : ATAPI DVD A DH16A6L-C Adapter: 2 ID: 0
Read mode : Secure
Utilize accurate stream : Yes
Defeat audio cache : Yes
Make use of C2 pointers : No
Read offset correction : 6
Overread into Lead-In and Lead-Out : No
Fill up missing offset samples with silence : Yes
Delete leading and trailing silent blocks : No
Null samples used in CRC calculations : Yes
Used interface : Native Win32 interface for Win NT & 2000
Gap handling : Appended to previous track
Used output format : User Defined Encoder
Selected bitrate : 1024 kBit/s
Quality : High
Add ID3 tag : No
Command line compressor : C:\Program Files\FLAC\flac.exe
Additional command line options : -8 -V -T "ARTIST=%artist%" -T "TITLE=%title%" -T "ALBUM=%albumtitle%" -T "DATE=%year%" -T "TRACKNUMBER=%tracknr%" -T "GENRE=%genre%" -T "PERFORMER=%albuminterpret%" -T "COMPOSER=%composer%" %haslyrics%--tag-from-file=LYRICS="%lyricsfile%"%haslyrics% -T "ALBUMARTIST=%albumartist%" -T "DISCNUMBER=%cdnumber%" -T "TOTALDISCS=%totalcds%" -T "TOTALTRACKS=%numtracks%" -T "COMMENT=%comment%" %source% -o %dest%
TOC of the extracted CD
Track | Start | Length | Start sector | End sector
---------------------------------------------------------
1 | 0:00.00 | 3:43.60 | 0 | 16784
2 | 3:43.60 | 4:45.65 | 16785 | 38224
3 | 8:29.50 | 3:37.00 | 38225 | 54499
4 | 12:06.50 | 5:20.62 | 54500 | 78561
5 | 17:27.37 | 3:32.43 | 78562 | 94504
6 | 21:00.05 | 4:48.42 | 94505 | 116146
7 | 25:48.47 | 4:28.30 | 116147 | 136276
8 | 30:17.02 | 3:57.73 | 136277 | 154124
Track 1
Filename F:\POSTS\Randy Brown - Check It Out (1981) [1997 Japan Mini-CD]\01 - Sweet To The Bone.wav
Pre-gap length 0:00:02.00
Peak level 79.4 %
Extraction speed 2.8 X
Track quality 100.0 %
Test CRC 9A0DC022
Copy CRC 9A0DC022
Accurately ripped (confidence 1) [E9BAED47] (AR v2)
Copy OK
Track 2
Filename F:\POSTS\Randy Brown - Check It Out (1981) [1997 Japan Mini-CD]\02 - Heaven Knows.wav
Peak level 86.5 %
Extraction speed 3.2 X
Track quality 99.9 %
Test CRC A3BABBE2
Copy CRC A3BABBE2
Accurately ripped (confidence 1) [A6ABA707] (AR v2)
Copy OK
Track 3
Filename F:\POSTS\Randy Brown - Check It Out (1981) [1997 Japan Mini-CD]\03 - If It's Love That You Want.wav
Peak level 86.0 %
Extraction speed 4.1 X
Track quality 100.0 %
Test CRC 0DB067FF
Copy CRC 0DB067FF
Accurately ripped (confidence 1) [3580E23E] (AR v2)
Copy OK
Track 4
Filename F:\POSTS\Randy Brown - Check It Out (1981) [1997 Japan Mini-CD]\04 - Two Fools.wav
Peak level 70.5 %
Extraction speed 4.6 X
Track quality 100.0 %
Test CRC F273D096
Copy CRC F273D096
Accurately ripped (confidence 1) [A167273A] (AR v2)
Copy OK
Track 5
Filename F:\POSTS\Randy Brown - Check It Out (1981) [1997 Japan Mini-CD]\05 - If I Had To Do It All Over.wav
Peak level 73.0 %
Extraction speed 4.7 X
Track quality 100.0 %
Test CRC BBAF8BAA
Copy CRC BBAF8BAA
Accurately ripped (confidence 1) [1F5CB8B2] (AR v2)
Copy OK
Track 6
Filename F:\POSTS\Randy Brown - Check It Out (1981) [1997 Japan Mini-CD]\06 - Thank You For The Happiness.wav
Peak level 65.5 %
Extraction speed 5.2 X
Track quality 100.0 %
Test CRC 61CDD6CB
Copy CRC 61CDD6CB
Accurately ripped (confidence 1) [4CD2B200] (AR v2)
Copy OK
Track 7
Filename F:\POSTS\Randy Brown - Check It Out (1981) [1997 Japan Mini-CD]\07 - Without You.wav
Peak level 87.2 %
Extraction speed 5.5 X
Track quality 100.0 %
Test CRC 4DA8D9AF
Copy CRC 4DA8D9AF
Accurately ripped (confidence 1) [A52CB4D9] (AR v2)
Copy OK
Track 8
Filename F:\POSTS\Randy Brown - Check It Out (1981) [1997 Japan Mini-CD]\08 - Smoking Room.wav
Peak level 52.2 %
Extraction speed 5.5 X
Track quality 100.0 %
Test CRC 644AC5B1
Copy CRC 644AC5B1
Accurately ripped (confidence 1) [F5A593EA] (AR v2)
Copy OK
All tracks accurately ripped
No errors occurred
End of status report
==== Log checksum 8C685E73135DEBB91F6FF6057B166F70CA5996669EF1A0D03FB44951ECE68EAF ====
 
Содержание индексной карты (.CUE)
REM GENRE Soul
REM DATE 1981
REM DISCID 5A080708
REM COMMENT "ExactAudioCopy v1.0b3"
PERFORMER "Randy Brown"
TITLE "Check It Out"
FILE "01 - Sweet To The Bone.wav" WAVE
TRACK 01 AUDIO
TITLE "Sweet To The Bone"
PERFORMER "Randy Brown"
INDEX 01 00:00:00
FILE "02 - Heaven Knows.wav" WAVE
TRACK 02 AUDIO
TITLE "Heaven Knows"
PERFORMER "Randy Brown"
INDEX 01 00:00:00
FILE "03 - If It's Love That You Want.wav" WAVE
TRACK 03 AUDIO
TITLE "If It's Love That You Want"
PERFORMER "Randy Brown"
INDEX 01 00:00:00
FILE "04 - Two Fools.wav" WAVE
TRACK 04 AUDIO
TITLE "Two Fools"
PERFORMER "Randy Brown"
INDEX 01 00:00:00
FILE "05 - If I Had To Do It All Over.wav" WAVE
TRACK 05 AUDIO
TITLE "If I Had To Do It All Over"
PERFORMER "Randy Brown"
INDEX 01 00:00:00
FILE "06 - Thank You For The Happiness.wav" WAVE
TRACK 06 AUDIO
TITLE "Thank You For The Happiness"
PERFORMER "Randy Brown"
INDEX 01 00:00:00
FILE "07 - Without You.wav" WAVE
TRACK 07 AUDIO
TITLE "Without You"
PERFORMER "Randy Brown"
INDEX 01 00:00:00
FILE "08 - Smoking Room.wav" WAVE
TRACK 08 AUDIO
TITLE "Smoking Room"
PERFORMER "Randy Brown"
INDEX 01 00:00:00
Приватный:
Нет (DHT включён)
Размер:
278.89 Мб (292,432,296 байт) » файлов: 26
Участники:
0 раздают, 0 качают (0 участников всего)
Внешние участники:
2 раздают, 1 качают (3 участников всего) [ Обновить ]
Есть вопросы - пишите личное сообщение пользователю M0p94ok.
07:15
71
Нет комментариев. Ваш будет первым!