Поиск

(Jazz-Funk) [CD] Jiro Inagaki & His Soul Media with Yasushi Sawada - Dock of My Mind - 1972 (2015 Japan Edition), FLAC (tracks+.cue), lossless

(Jazz-Funk) [CD] Jiro Inagaki & His Soul Media with Yasushi Sawada - Dock of My Mind - 1972 (2015 Japan Edition), FLAC (tracks+.cue), lossless
Треклист:
Jiro Inagaki & His Soul Media with Yasushi Sawada - Dock of My Mind
Жанр: Jazz-Funk
Носитель: CD
Страна-производитель диска (релиза): Япония
Год издания: 1972 (2015)
Издатель (лейбл): universounds/Deep Jazz Reality/Columbia
Номер по каталогу: COCB-54171
Аудиокодек: FLAC (*.flac)
Тип рипа: tracks+.cue
Битрейт аудио: lossless
Продолжительность: 48:38
Источник (релизер): wikieup (what)
Наличие сканов в содержимом раздачи: нет
Треклист:
01. Dock of My Mind (4:16)
02. Afternoon (4:26)
03. Barefoot Girl (3:43)
04. Colourful Winds (3:27)
05. Send Me Love (3:17)
06. If You Should Go Away (2:59)
07. Lane of Memories (3:09)
08. One Last Word (2:53)
09. Lonely Night (2:45)
10. Down by the Corner (2:48)
11. Rainy Night in Georgia (3:50)
12. Georgia on My Mind (4:38)
13. Orange no Hitokakera (2:59)
14. Hito ha Dare Mo (3:28)
 
Лог создания рипа
Exact Audio Copy V1.0 beta 3 from 29. August 2011
EAC extraction logfile from 26. May 2015, 12:52
J. Inagaki & His Soul Media with Y. Sawada / Dock Of My Mind [2015 Reissue]
Used drive : TSSTcorpDVD-ROM TS-U333B Adapter: 0 ID: 1
Read mode : Secure
Utilize accurate stream : Yes
Defeat audio cache : Yes
Make use of C2 pointers : No
Read offset correction : 6
Overread into Lead-In and Lead-Out : No
Fill up missing offset samples with silence : Yes
Delete leading and trailing silent blocks : No
Null samples used in CRC calculations : Yes
Used interface : Native Win32 interface for Win NT & 2000
Gap handling : Appended to previous track
Used output format : User Defined Encoder
Selected bitrate : 1024 kBit/s
Quality : High
Add ID3 tag : No
Command line compressor : C:\Program Files\Exact Audio Copy\Flac\flac.exe
Additional command line options : -8 -V -T "ARTIST=%artist%" -T "TITLE=%title%" -T "ALBUM=%albumtitle%" -T "DATE=%year%" -T "TRACKNUMBER=%tracknr%" -T "GENRE=%genre%" -T "PERFORMER=%albuminterpret%" -T "COMPOSER=%composer%" %haslyrics%--tag-from-file=LYRICS="%lyricsfile%"%haslyrics% -T "ALBUMARTIST=%albumartist%" -T "DISCNUMBER=%cdnumber%" -T "TOTALDISCS=%totalcds%" -T "TOTALTRACKS=%numtracks%" -T "COMMENT=%comment%" %source% -o %dest%
TOC of the extracted CD
Track | Start | Length | Start sector | End sector
---------------------------------------------------------
1 | 0:00.00 | 4:15.61 | 0 | 19185
2 | 4:15.61 | 4:25.40 | 19186 | 39100
3 | 8:41.26 | 3:43.31 | 39101 | 55856
4 | 12:24.57 | 3:26.65 | 55857 | 71371
5 | 15:51.47 | 3:16.51 | 71372 | 86122
6 | 19:08.23 | 2:59.26 | 86123 | 99573
7 | 22:07.49 | 3:09.00 | 99574 | 113748
8 | 25:16.49 | 2:52.60 | 113749 | 126708
9 | 28:09.34 | 2:45.16 | 126709 | 139099
10 | 30:54.50 | 2:47.54 | 139100 | 151678
11 | 33:42.29 | 3:50.11 | 151679 | 168939
12 | 37:32.40 | 4:37.61 | 168940 | 189775
13 | 42:10.26 | 2:58.62 | 189776 | 203187
14 | 45:09.13 | 3:27.49 | 203188 | 218761
Track 1
Filename C:\EAC Rips\01 - 街は風の港.wav
Pre-gap length 0:00:02.00
Peak level 99.1 %
Extraction speed 2.6 X
Track quality 100.0 %
Test CRC 3F8C41EC
Copy CRC 3F8C41EC
Track not present in AccurateRip database
Copy OK
Track 2
Filename C:\EAC Rips\02 - アフターヌーン.wav
Pre-gap length 0:00:05.66
Peak level 99.0 %
Extraction speed 3.0 X
Track quality 100.0 %
Test CRC 72A253E8
Copy CRC 72A253E8
Track not present in AccurateRip database
Copy OK
Track 3
Filename C:\EAC Rips\03 - 裸足の女.wav
Pre-gap length 0:00:06.20
Peak level 99.2 %
Extraction speed 2.5 X
Track quality 99.9 %
Test CRC 12D10F58
Copy CRC 12D10F58
Track not present in AccurateRip database
Copy OK
Track 4
Filename C:\EAC Rips\04 - きまぐれな風.wav
Pre-gap length 0:00:05.06
Peak level 99.1 %
Extraction speed 3.2 X
Track quality 100.0 %
Test CRC C3C50031
Copy CRC C3C50031
Track not present in AccurateRip database
Copy OK
Track 5
Filename C:\EAC Rips\05 - 届けておくれ.wav
Pre-gap length 0:00:05.69
Peak level 99.2 %
Extraction speed 3.3 X
Track quality 100.0 %
Test CRC 54C639C0
Copy CRC 54C639C0
Track not present in AccurateRip database
Copy OK
Track 6
Filename C:\EAC Rips\06 - 行くがいい.wav
Pre-gap length 0:00:06.80
Peak level 99.2 %
Extraction speed 3.5 X
Track quality 100.0 %
Test CRC B6C1C494
Copy CRC B6C1C494
Track not present in AccurateRip database
Copy OK
Track 7
Filename C:\EAC Rips\07 - 想い出の小径.wav
Pre-gap length 0:00:06.48
Peak level 99.0 %
Extraction speed 3.6 X
Track quality 100.0 %
Test CRC 73BDC032
Copy CRC 73BDC032
Track not present in AccurateRip database
Copy OK
Track 8
Filename C:\EAC Rips\08 - ひとつの言葉.wav
Pre-gap length 0:00:04.76
Peak level 99.1 %
Extraction speed 3.7 X
Track quality 100.0 %
Test CRC C4DE2863
Copy CRC C4DE2863
Track not present in AccurateRip database
Copy OK
Track 9
Filename C:\EAC Rips\09 - ロンリー・ナイト.wav
Pre-gap length 0:00:05.30
Peak level 99.0 %
Extraction speed 3.7 X
Track quality 100.0 %
Test CRC 94C94FF2
Copy CRC 94C94FF2
Track not present in AccurateRip database
Copy OK
Track 10
Filename C:\EAC Rips\10 - 街角.wav
Pre-gap length 0:00:05.56
Peak level 99.0 %
Extraction speed 3.8 X
Track quality 100.0 %
Test CRC 1037DF30
Copy CRC 1037DF30
Track not present in AccurateRip database
Copy OK
Track 11
Filename C:\EAC Rips\11 - レイニー・ナイト・イン・ジョージア.wav
Pre-gap length 0:00:04.50
Peak level 99.5 %
Extraction speed 4.2 X
Track quality 100.0 %
Test CRC D9DC1FD1
Copy CRC D9DC1FD1
Track not present in AccurateRip database
Copy OK
Track 12
Filename C:\EAC Rips\12 - ジョージア・オン・マイ・マインド.wav
Pre-gap length 0:00:05.26
Peak level 99.4 %
Extraction speed 4.5 X
Track quality 100.0 %
Test CRC 80D1E8DC
Copy CRC 80D1E8DC
Track not present in AccurateRip database
Copy OK
Track 13
Filename C:\EAC Rips\13 - オレンジの一欠片.wav
Pre-gap length 0:00:06.44
Peak level 99.1 %
Extraction speed 4.3 X
Track quality 100.0 %
Test CRC C9387FCD
Copy CRC C9387FCD
Track not present in AccurateRip database
Copy OK
Track 14
Filename C:\EAC Rips\14 - 人は誰も.wav
Pre-gap length 0:00:06.42
Peak level 99.3 %
Extraction speed 4.5 X
Track quality 100.0 %
Test CRC 9D1CC507
Copy CRC 9D1CC507
Track not present in AccurateRip database
Copy OK
None of the tracks are present in the AccurateRip database
No errors occurred
End of status report
==== Log checksum F847A8C6A3B8C1ED95FBEA736A7A01B66F5DEB1876606614FB9E74D04F7D8129 ====
 
Содержание индексной карты (.CUE)
REM GENRE Jazz
REM DATE 1972
REM DISCID B20B640E
REM COMMENT "ExactAudioCopy v1.0b3"
PERFORMER "Jiro Inagaki"
TITLE "Dock of My Mind"
FILE "01 - Dock of My Mind.wav" WAVE
TRACK 01 AUDIO
TITLE "Dock of My Mind"
PERFORMER "Jiro Inagaki"
INDEX 01 00:00:00
TRACK 02 AUDIO
TITLE "Afternoon"
PERFORMER "Jiro Inagaki"
INDEX 00 04:10:11
FILE "02 - Afternoon.wav" WAVE
INDEX 01 00:00:00
TRACK 03 AUDIO
TITLE "Barefoot Girl"
PERFORMER "Jiro Inagaki"
INDEX 00 04:19:25
FILE "03 - Barefoot Girl.wav" WAVE
INDEX 01 00:00:00
TRACK 04 AUDIO
TITLE "Colourful Winds"
PERFORMER "Jiro Inagaki"
INDEX 00 03:38:26
FILE "04 - Colourful Winds.wav" WAVE
INDEX 01 00:00:00
TRACK 05 AUDIO
TITLE "Send Me Love"
PERFORMER "Jiro Inagaki"
INDEX 00 03:21:13
FILE "05 - Send Me Love.wav" WAVE
INDEX 01 00:00:00
TRACK 06 AUDIO
TITLE "If You Should Go Away"
PERFORMER "Jiro Inagaki"
INDEX 00 03:09:66
FILE "06 - If You Should Go Away.wav" WAVE
INDEX 01 00:00:00
TRACK 07 AUDIO
TITLE "Lane of Memories"
PERFORMER "Jiro Inagaki"
INDEX 00 02:52:65
FILE "07 - Lane of Memories.wav" WAVE
INDEX 01 00:00:00
TRACK 08 AUDIO
TITLE "One Last Word"
PERFORMER "Jiro Inagaki"
INDEX 00 03:04:18
FILE "08 - One Last Word.wav" WAVE
INDEX 01 00:00:00
TRACK 09 AUDIO
TITLE "Lonely Night"
PERFORMER "Jiro Inagaki"
INDEX 00 02:47:37
FILE "09 - Lonely Night.wav" WAVE
INDEX 01 00:00:00
TRACK 10 AUDIO
TITLE "Down by the Corner"
PERFORMER "Jiro Inagaki"
INDEX 00 02:39:49
FILE "10 - Down by the Corner.wav" WAVE
INDEX 01 00:00:00
TRACK 11 AUDIO
TITLE "Rainy Night in Georgia"
PERFORMER "Jiro Inagaki"
INDEX 00 02:43:16
FILE "11 - Rainy Night in Georgia.wav" WAVE
INDEX 01 00:00:00
TRACK 12 AUDIO
TITLE "Georgia on My Mind"
PERFORMER "Jiro Inagaki"
INDEX 00 03:44:66
FILE "12 - Georgia on My Mind.wav" WAVE
INDEX 01 00:00:00
TRACK 13 AUDIO
TITLE "Orange no Hitokakera"
PERFORMER "Jiro Inagaki"
INDEX 00 04:31:28
FILE "13 - Orange no Hitokakera.wav" WAVE
INDEX 01 00:00:00
TRACK 14 AUDIO
TITLE "Hito ha Dare Mo"
PERFORMER "Jiro Inagaki"
INDEX 00 02:52:30
FILE "14 - Hito ha Dare Mo.wav" WAVE
INDEX 01 00:00:00
 
Отчет CUETools
[CUETools log; Date: 15.07.2015 21:00:51; Version: 2.1.5]
[CTDB TOCID: jFOdeC7PGk5a5qhVfF_OZ6nq5gU-] found.
Track | CTDB Status
1 | (1/1) Accurately ripped
2 | (1/1) Accurately ripped
3 | (1/1) Accurately ripped
4 | (1/1) Accurately ripped
5 | (1/1) Accurately ripped
6 | (1/1) Accurately ripped
7 | (1/1) Accurately ripped
8 | (1/1) Accurately ripped
9 | (1/1) Accurately ripped
10 | (1/1) Accurately ripped
11 | (1/1) Accurately ripped
12 | (1/1) Accurately ripped
13 | (1/1) Accurately ripped
14 | (1/1) Accurately ripped
[AccurateRip ID: 0019aeac-010dc678-b20b640e] disk not present in database.
Track Peak [ CRC32 ] [W/O NULL] [ LOG ]
-- 99,5 [335A68E1] [9A3B46B3]
01 99,1 [3F8C41EC] [CF4B8B91] CRC32
02 99,0 [72A253E8] [6477A05A] CRC32
03 99,2 [12D10F58] [1EF4F66E] CRC32
04 99,1 [C3C50031] [9847875A] CRC32
05 99,2 [54C639C0] [751CF329] CRC32
06 99,2 [B6C1C494] [2D9F1E7D] CRC32
07 99,0 [73BDC032] [CB608090] CRC32
08 99,1 [C4DE2863] [B37CCD48] CRC32
09 99,0 [94C94FF2] [48449819] CRC32
10 99,0 [1037DF30] [9302FEEF] CRC32
11 99,5 [D9DC1FD1] [47AA1DD9] CRC32
12 99,4 [80D1E8DC] [FF485DB2] CRC32
13 99,1 [C9387FCD] [7C780295] CRC32
14 99,3 [9D1CC507] [10BFFCA7] CRC32
 
Об альбоме (сборнике)
The funky group of Jiro Inagaki gets a vocal treatment this time around – lead lyrics from Yasushi Sawada, whose a raspy-voiced singer with a surprisingly soulful edge! Much of the music follows in the same territory of Inagaki's instrumental records – with his group turning in a cool tripped-out blend of soul, funk, and jazz – often with some slight psych elements in the guitars and keyboards – as Sawada's Japanese lyrics bring a very unusual flavor to the record, and make the whole thing feel like some dream-like remake of an American funky soul album! Titles include "Afternoon", "Barefoot Girl", "Dock Of My Mind", "One Last Word", "Send Me Love", and "Colorful Winds". CD also features two bonus tracks from singles too!
Приватный:
Нет (DHT включён)
Размер:
296.74 Мб (311,151,476 байт) » файлов: 21
Участники:
0 раздают, 0 качают (0 участников всего)
Внешние участники:
2 раздают, 1 качают (3 участников всего) [ Обновить ]
Есть вопросы - пишите личное сообщение пользователю M0p94ok.
07:12
69
Нет комментариев. Ваш будет первым!