Поиск

(Jazz-Funk) [CD] Jiro Inagaki & His Soul Media with Yasushi Sawada - Dosojin - 1972 (2015 Japan Edition), FLAC (tracks+.cue), lossless

(Jazz-Funk) [CD] Jiro Inagaki & His Soul Media with Yasushi Sawada - Dosojin - 1972 (2015 Japan Edition), FLAC (tracks+.cue), lossless
Треклист:
Jiro Inagaki & His Soul Media with Yasushi Sawada - Dosojin
Жанр: Jazz-Funk
Носитель: CD
Страна-производитель диска (релиза): Япония
Год издания: 1972 (2015)
Издатель (лейбл): universounds/Deep Jazz Reality/Columbia
Номер по каталогу: COCB-54170
Аудиокодек: FLAC (*.flac)
Тип рипа: tracks+.cue
Битрейт аудио: lossless
Продолжительность: 38:09
Источник (релизер): wikieup (what)
Наличие сканов в содержимом раздачи: нет
Треклист:
01. Inanome (4:57)
02. Kigishi (4:57)
03. Susomi (4:10)
04. Kusakai (5:31)
05. Arisobe (1:20)
06. Tabute (4:56)
07. Sasara (3:54)
08. Yabunirami no Isan (8:24)
 
Лог создания рипа
Exact Audio Copy V1.0 beta 3 from 29. August 2011
EAC extraction logfile from 26. May 2015, 12:17
J. Inagaki & Soul Media with Y. Sawada / Dosojin [2015 Reissue]
Used drive : TSSTcorpDVD-ROM TS-U333B Adapter: 0 ID: 1
Read mode : Secure
Utilize accurate stream : Yes
Defeat audio cache : Yes
Make use of C2 pointers : No
Read offset correction : 6
Overread into Lead-In and Lead-Out : No
Fill up missing offset samples with silence : Yes
Delete leading and trailing silent blocks : No
Null samples used in CRC calculations : Yes
Used interface : Native Win32 interface for Win NT & 2000
Gap handling : Appended to previous track
Used output format : User Defined Encoder
Selected bitrate : 1024 kBit/s
Quality : High
Add ID3 tag : No
Command line compressor : C:\Program Files\Exact Audio Copy\Flac\flac.exe
Additional command line options : -8 -V -T "ARTIST=%artist%" -T "TITLE=%title%" -T "ALBUM=%albumtitle%" -T "DATE=%year%" -T "TRACKNUMBER=%tracknr%" -T "GENRE=%genre%" -T "PERFORMER=%albuminterpret%" -T "COMPOSER=%composer%" %haslyrics%--tag-from-file=LYRICS="%lyricsfile%"%haslyrics% -T "ALBUMARTIST=%albumartist%" -T "DISCNUMBER=%cdnumber%" -T "TOTALDISCS=%totalcds%" -T "TOTALTRACKS=%numtracks%" -T "COMMENT=%comment%" %source% -o %dest%
TOC of the extracted CD
Track | Start | Length | Start sector | End sector
---------------------------------------------------------
1 | 0:00.00 | 4:56.70 | 0 | 22269
2 | 4:56.70 | 4:56.74 | 22270 | 44543
3 | 9:53.69 | 4:09.68 | 44544 | 63286
4 | 14:03.62 | 5:30.48 | 63287 | 88084
5 | 19:34.35 | 1:19.74 | 88085 | 94083
6 | 20:54.34 | 4:56.30 | 94084 | 116313
7 | 25:50.64 | 3:53.40 | 116314 | 133828
8 | 29:44.29 | 8:23.70 | 133829 | 171623
Track 1
Filename C:\EAC Rips\01 - いなのめ [Inanome].wav
Pre-gap length 0:00:02.00
Peak level 99.8 %
Extraction speed 2.7 X
Track quality 100.0 %
Test CRC 44403CE5
Copy CRC 44403CE5
Track not present in AccurateRip database
Copy OK
Track 2
Filename C:\EAC Rips\02 - きぎし [Kigishi].wav
Pre-gap length 0:00:05.74
Peak level 99.5 %
Extraction speed 3.1 X
Track quality 100.0 %
Test CRC 102872DC
Copy CRC 102872DC
Track not present in AccurateRip database
Copy OK
Track 3
Filename C:\EAC Rips\03 - すそみ [Susomi].wav
Pre-gap length 0:00:04.16
Peak level 98.9 %
Extraction speed 3.3 X
Track quality 100.0 %
Test CRC FE706502
Copy CRC FE706502
Track not present in AccurateRip database
Copy OK
Track 4
Filename C:\EAC Rips\04 - くさかひ [Kusakai].wav
Pre-gap length 0:00:04.85
Peak level 99.6 %
Extraction speed 3.1 X
Track quality 99.9 %
Test CRC 2B122F69
Copy CRC 2B122F69
Track not present in AccurateRip database
Copy OK
Track 5
Filename C:\EAC Rips\05 - ありそべ [Arisobe].wav
Peak level 39.0 %
Extraction speed 1.9 X
Track quality 99.8 %
Test CRC 5F8C5A49
Copy CRC 5F8C5A49
Track not present in AccurateRip database
Copy OK
Track 6
Filename C:\EAC Rips\06 - たぶて [Tabute].wav
Pre-gap length 0:00:04.22
Peak level 99.0 %
Extraction speed 3.8 X
Track quality 100.0 %
Test CRC 1CEC2578
Copy CRC 1CEC2578
Track not present in AccurateRip database
Copy OK
Track 7
Filename C:\EAC Rips\07 - ささら [Sasara].wav
Pre-gap length 0:00:05.22
Peak level 99.4 %
Extraction speed 3.9 X
Track quality 100.0 %
Test CRC 2062932C
Copy CRC 2062932C
Track not present in AccurateRip database
Copy OK
Track 8
Filename C:\EAC Rips\08 - やぶにらみの遺産 [Yabunirami No Isan].wav
Pre-gap length 0:00:06.17
Peak level 98.9 %
Extraction speed 4.5 X
Track quality 100.0 %
Test CRC 136C2CAA
Copy CRC 136C2CAA
Track not present in AccurateRip database
Copy OK
None of the tracks are present in the AccurateRip database
No errors occurred
End of status report
==== Log checksum E89C3C9231E6BBEA946A2FF29A01C130CD803CC5575F46A810ECA0320E1A4FB9 ====
 
Содержание индексной карты (.CUE)
REM GENRE Jazz
REM DATE 1972
REM DISCID 7908F008
REM COMMENT "ExactAudioCopy v1.0b3"
PERFORMER "Jiro Inagaki"
TITLE "Dosojin"
FILE "01 - Inanome.wav" WAVE
TRACK 01 AUDIO
TITLE "Inanome"
PERFORMER "Jiro Inagaki"
INDEX 01 00:00:00
TRACK 02 AUDIO
TITLE "Kigishi"
PERFORMER "Jiro Inagaki"
INDEX 00 04:51:14
FILE "02 - Kigishi.wav" WAVE
INDEX 01 00:00:00
TRACK 03 AUDIO
TITLE "Susomi"
PERFORMER "Jiro Inagaki"
INDEX 00 04:52:62
FILE "03 - Susomi.wav" WAVE
INDEX 01 00:00:00
TRACK 04 AUDIO
TITLE "Kusakai"
PERFORMER "Jiro Inagaki"
INDEX 00 04:05:04
FILE "04 - Kusakai.wav" WAVE
INDEX 01 00:00:00
FILE "05 - Arisobe.wav" WAVE
TRACK 05 AUDIO
TITLE "Arisobe"
PERFORMER "Jiro Inagaki"
INDEX 01 00:00:00
TRACK 06 AUDIO
TITLE "Tabute"
PERFORMER "Jiro Inagaki"
INDEX 00 01:15:57
FILE "06 - Tabute.wav" WAVE
INDEX 01 00:00:00
TRACK 07 AUDIO
TITLE "Sasara"
PERFORMER "Jiro Inagaki"
INDEX 00 04:51:13
FILE "07 - Sasara.wav" WAVE
INDEX 01 00:00:00
TRACK 08 AUDIO
TITLE "Yabunirami no Isan"
PERFORMER "Jiro Inagaki"
INDEX 00 03:47:27
FILE "08 - Yabunirami no Isan.wav" WAVE
INDEX 01 00:00:00
 
Отчет CUETools
[CUETools log; Date: 15.07.2015 20:42:14; Version: 2.1.5]
[CTDB TOCID: KZ7LpcJkAeg2_GJ47i1kDEQQ2b4-] found.
Track | CTDB Status
1 | (1/1) Accurately ripped
2 | (1/1) Accurately ripped
3 | (1/1) Accurately ripped
4 | (1/1) Accurately ripped
5 | (1/1) Accurately ripped
6 | (1/1) Accurately ripped
7 | (1/1) Accurately ripped
8 | (1/1) Accurately ripped
[AccurateRip ID: 000b3355-004a3ea0-7908f008] disk not present in database.
Track Peak [ CRC32 ] [W/O NULL] [ LOG ]
-- 99,8 [EAF92642] [31FEB8CF]
01 99,8 [44403CE5] [41CBD2AD] CRC32
02 99,5 [102872DC] [DDD13F61] CRC32
03 98,9 [FE706502] [15B01FCD] CRC32
04 99,6 [2B122F69] [33E9825B] CRC32
05 39,0 [5F8C5A49] [6603BA7D] CRC32
06 99,0 [1CEC2578] [5697EE01] CRC32
07 99,4 [2062932C] [97B26328] CRC32
08 98,9 [136C2CAA] [A0DADE34] CRC32
 
Об альбоме (сборнике)
Vocalist Yasuhsi Sawada joins Jiro Inagaki & His Soul Media group this time around – but in a way that seems to create a whole new sound from both artists! The album's got a deeper, more sophisticated style than some of Inagaki's other records – not just funky soul, but a richer suite of tracks that still has plenty of soulful currents, but which also reaches towards some more ambitious emotional territory too – never in a way that's clunky or snoozy, but which takes all the best elements of the Soul Media groove, and pushes them a bit farther too! Sawada's vocals are all in Japanese, and have this very powerful approach – never dominating the music, but moving through the instrumentation in this evocative way that almost feels instrumental to our ears, given our lack of understanding of the language. The whole thing's almost got a spiritual undercurrent, althought the presentation is still more in the groovy mode of other Soul Media sets – and titles include "Sasara", "Tabute", "Kusakai", "Kigishi", "Susomi", and "Inanome".
Приватный:
Нет (DHT включён)
Размер:
214.66 Мб (225,083,263 байт) » файлов: 15
Участники:
0 раздают, 0 качают (0 участников всего)
Внешние участники:
8 раздают, 2 качают (10 участников всего) [ Обновить ]
Есть вопросы - пишите личное сообщение пользователю M0p94ok.
07:12
57
Нет комментариев. Ваш будет первым!