Поиск

(Soul, R&B) [CD] Gene Chandler - Live At The "Regal" - 1994, FLAC (tracks+.cue), lossless

(Soul, R&B) [CD] Gene Chandler - Live At The "Regal" - 1994, FLAC (tracks+.cue), lossless
Треклист:
Gene Chandler - Live At The "Regal" Жанр: Soul, R&B
Носитель: CD
Год издания: 1994
Издатель (лейбл): Collectables
Номер по каталогу: COL CD 5516
Аудиокодек: FLAC (*.flac)
Тип рипа: tracks+.cue
Битрейт аудио: lossless
Продолжительность: 35:59
Источник (релизер): What.cd (dddb)
Наличие сканов в содержимом раздачи: нет
Треклист:
01. Rainbow '65 (parts 1 and 2) (6:04)
02. If You Can't Be True (2:23)
03. Soul Hootenanny (6:17)
04. The Monkey Time (1:56)
05. What Now (2:58)
06. Just Be True (4:05)
07. Ain't No Use (2:43)
08. Bless Our Love (2:52)
09. A Thing Called Soul (6:41)
 
 
Лог создания рипа
Exact Audio Copy V1.0 beta 3 from 29. August 2011
EAC extraction logfile from 13. November 2011, 20:33
Gene Chandler / Live at the "Regal"
Used drive : PIONEER DVD-RW DVR-216R Adapter: 1 ID: 0
Read mode : Secure
Utilize accurate stream : Yes
Defeat audio cache : Yes
Make use of C2 pointers : No
Read offset correction : 96
Overread into Lead-In and Lead-Out : No
Fill up missing offset samples with silence : Yes
Delete leading and trailing silent blocks : No
Null samples used in CRC calculations : Yes
Used interface : Native Win32 interface for Win NT & 2000
Gap handling : Appended to previous track
Used output format : User Defined Encoder
Selected bitrate : 1024 kBit/s
Quality : High
Add ID3 tag : No
Command line compressor : C:\Program Files\Exact Audio Copy\Flac\flac.exe
Additional command line options : -8 -V -T "ARTIST=%artist%" -T "TITLE=%title%" -T "ALBUM=%albumtitle%" -T "DATE=%year%" -T "TRACKNUMBER=%tracknr%" -T "GENRE=%genre%" -T "PERFORMER=%albuminterpret%" -T "COMPOSER=%composer%" %haslyrics%--tag-from-file=LYRICS="%lyricsfile%"%haslyrics% -T "ALBUMARTIST=%albumartist%" -T "DISCNUMBER=%cdnumber%" -T "TOTALDISCS=%totalcds%" -T "TOTALTRACKS=%numtracks%" -T "COMMENT=%comment%" %source% -o %dest%
TOC of the extracted CD
Track | Start | Length | Start sector | End sector
---------------------------------------------------------
1 | 0:00.00 | 6:04.30 | 0 | 27329
2 | 6:04.30 | 2:23.12 | 27330 | 38066
3 | 8:27.42 | 6:16.40 | 38067 | 66306
4 | 14:44.07 | 1:55.68 | 66307 | 74999
5 | 16:40.00 | 2:58.22 | 75000 | 88371
6 | 19:38.22 | 4:05.30 | 88372 | 106776
7 | 23:43.52 | 2:43.20 | 106777 | 119021
8 | 26:26.72 | 2:51.55 | 119022 | 131901
9 | 29:18.52 | 6:40.55 | 131902 | 161956
Track 1
Filename C:\Documents and Settings\Administrator\Desktop\EAC & Audiograbber\01 - Rainbow '65 (parts 1 and 2).wav
Pre-gap length 0:00:02.00
Peak level 90.9 %
Extraction speed 4.6 X
Track quality 100.0 %
Test CRC 4039D580
Copy CRC 4039D580
Accurately ripped (confidence 1) [20BAA11D] (AR v1)
Copy OK
Track 2
Filename C:\Documents and Settings\Administrator\Desktop\EAC & Audiograbber\02 - If You Can't Be True.wav
Peak level 97.7 %
Extraction speed 4.4 X
Track quality 100.0 %
Test CRC A9A2FDB2
Copy CRC A9A2FDB2
Track not present in AccurateRip database
Copy OK
Track 3
Filename C:\Documents and Settings\Administrator\Desktop\EAC & Audiograbber\03 - Soul Hootenanny.wav
Peak level 94.1 %
Extraction speed 5.5 X
Track quality 100.0 %
Test CRC 280B0F88
Copy CRC 280B0F88
Track not present in AccurateRip database
Copy OK
Track 4
Filename C:\Documents and Settings\Administrator\Desktop\EAC & Audiograbber\04 - The Monkey Time.wav
Peak level 78.6 %
Extraction speed 4.9 X
Track quality 100.0 %
Test CRC 56402D6D
Copy CRC 56402D6D
Track not present in AccurateRip database
Copy OK
Track 5
Filename C:\Documents and Settings\Administrator\Desktop\EAC & Audiograbber\05 - What Now.wav
Peak level 94.1 %
Extraction speed 4.8 X
Track quality 99.9 %
Test CRC E9361D17
Copy CRC E9361D17
Accurately ripped (confidence 1) [5B7130E4] (AR v1)
Copy OK
Track 6
Filename C:\Documents and Settings\Administrator\Desktop\EAC & Audiograbber\06 - Just Be True.wav
Peak level 100.0 %
Extraction speed 6.0 X
Track quality 100.0 %
Test CRC 4121BF94
Copy CRC 4121BF94
Track not present in AccurateRip database
Copy OK
Track 7
Filename C:\Documents and Settings\Administrator\Desktop\EAC & Audiograbber\07 - Ain't No Use.wav
Peak level 100.0 %
Extraction speed 5.8 X
Track quality 100.0 %
Test CRC 2CE33CD1
Copy CRC 2CE33CD1
Accurately ripped (confidence 1) [346B272C] (AR v1)
Copy OK
Track 8
Filename C:\Documents and Settings\Administrator\Desktop\EAC & Audiograbber\08 - Bless Our Love.wav
Peak level 100.0 %
Extraction speed 6.0 X
Track quality 100.0 %
Test CRC F6458707
Copy CRC F6458707
Track not present in AccurateRip database
Copy OK
Track 9
Filename C:\Documents and Settings\Administrator\Desktop\EAC & Audiograbber\09 - A Thing Called Soul.wav
Peak level 100.0 %
Extraction speed 6.3 X
Track quality 99.9 %
Test CRC 9F3AF2EC
Copy CRC 9F3AF2EC
Track not present in AccurateRip database
Copy OK
3 track(s) accurately ripped
6 track(s) not present in the AccurateRip database
Some tracks could not be verified as accurate
No errors occurred
End of status report
---- CUETools DB Plugin V2.1.3
[CTDB TOCID: QPfI2hcVwHTRHM_dlNNYl2MkObI-] disk not present in database, Submit result: QPfI2hcVwHTRHM_dlNNYl2MkObI- has been uploaded
==== Log checksum 7CB0AB27A89EF555897A204B7964760D9E936A81D7984E7138625070AF0C29AC ====
 
Содержание индексной карты (.CUE)
REM GENRE Soul
REM DATE 1994
REM DISCID 72086F09
REM COMMENT "ExactAudioCopy v1.0b3"
PERFORMER "Gene Chandler"
TITLE "Live at the ''Regal''"
FILE "01 - Rainbow '65 (parts 1 and 2).wav" WAVE
TRACK 01 AUDIO
TITLE "Rainbow '65 (parts 1 and 2)"
PERFORMER "Gene Chandler"
INDEX 01 00:00:00
FILE "02 - If You Can't Be True.wav" WAVE
TRACK 02 AUDIO
TITLE "If You Can't Be True"
PERFORMER "Gene Chandler"
INDEX 01 00:00:00
FILE "03 - Soul Hootenanny.wav" WAVE
TRACK 03 AUDIO
TITLE "Soul Hootenanny"
PERFORMER "Gene Chandler"
INDEX 01 00:00:00
FILE "04 - The Monkey Time.wav" WAVE
TRACK 04 AUDIO
TITLE "The Monkey Time"
PERFORMER "Gene Chandler"
INDEX 01 00:00:00
FILE "05 - What Now.wav" WAVE
TRACK 05 AUDIO
TITLE "What Now"
PERFORMER "Gene Chandler"
INDEX 01 00:00:00
FILE "06 - Just Be True.wav" WAVE
TRACK 06 AUDIO
TITLE "Just Be True"
PERFORMER "Gene Chandler"
INDEX 01 00:00:00
FILE "07 - Ain't No Use.wav" WAVE
TRACK 07 AUDIO
TITLE "Ain't No Use"
PERFORMER "Gene Chandler"
INDEX 01 00:00:00
FILE "08 - Bless Our Love.wav" WAVE
TRACK 08 AUDIO
TITLE "Bless Our Love"
PERFORMER "Gene Chandler"
INDEX 01 00:00:00
FILE "09 - A Thing Called Soul.wav" WAVE
TRACK 09 AUDIO
TITLE "A Thing Called Soul"
PERFORMER "Gene Chandler"
INDEX 01 00:00:00
Приватный:
Нет (DHT включён)
Размер:
175.20 Мб (183,706,908 байт) » файлов: 15
Участники:
0 раздают, 0 качают (0 участников всего)
Внешние участники:
3 раздают, 1 качают (4 участников всего) [ Обновить ]
No seeders - write a personal message to user M0p94ok. Нет сидеров - пишите личное сообщение пользователю M0p94ok.
07:11
101
Нет комментариев. Ваш будет первым!