Поиск

(Soul, R&B) [CD] Lou Rawls - When You Hear Lou, You've Heard It All (1977) - 2005, FLAC (image+.cue), lossless

(Soul, R&B) [CD] Lou Rawls - When You Hear Lou, You've Heard It All (1977) - 2005, FLAC (image+.cue), lossless
Треклист:
Lou Rawls - When You Hear Lou, You've Heard It All (1977) Жанр: Soul, R&B
Носитель: CD
Год издания: 2005
Издатель (лейбл): Right Stuff/Philadelphia International Records
Номер по каталогу: 27628
Аудиокодек: FLAC (*.flac)
Тип рипа: image+.cue
Битрейт аудио: lossless
Продолжительность: 44:47
Rip by RunawayTrane
Наличие сканов в содержимом раздачи: да
Треклист:
01. Lady Love (4:05)
02. I Wish It Were Yesterday (3:30)
03. One Life To Live (3:56)
04. Dollar Green (3:12)
05. Trade Winds (3:50)
06. There Will Be Love (4:23)
07. Unforgettable (3:28)
08. That Would Do It For Me (3:16)
09. I Coulda, Woulda, Shoulda (4:35)
10. Not The Staying Kind (3:56)
11. Run Jesse Run [Bonus Track] (6:34)
 
Состав
Lou Rawls - Vocals
Michael Foreman - Bass
Eddie Green - Keyboards
Dennis Harris - Guitar
Roland Chambers - Guitar
Charles Collins - Drums
David Cruse - Bongos, Conga
Don Renaldo - Strings, Horn
Yvette Benson - Vocals (Background), Vocal Arrangement
Carla Benton - Vocals (Background), Vocal Arrangement
Barbara Ingram - Vocals (Background), Vocal Arrangement
Jack Faith - Producer, Arranger
Phil Terry - Producer
Bobby Martin - Producer, Arranger
Vonghn Gray - Producer
Leon Huff - Producer, Keyboards
Kenny Gamble - Producer, Liner Notes
Bud O'Shea - Reissue Executive Producer
Eli Okun - Reissue Executive Producer

 
 
Лог создания рипа
Exact Audio Copy V1.0 beta 3 from 29. August 2011
EAC extraction logfile from 20. October 2013, 17:59
Lou Rawls / When You Hear Lou, You've Heard It All
Used drive : Memorex 52MAXX 3252AJ1 Adapter: 1 ID: 0
Read mode : Secure
Utilize accurate stream : Yes
Defeat audio cache : Yes
Make use of C2 pointers : No
Read offset correction : 6
Overread into Lead-In and Lead-Out : No
Fill up missing offset samples with silence : Yes
Delete leading and trailing silent blocks : No
Null samples used in CRC calculations : Yes
Used interface : Native Win32 interface for Win NT & 2000
Used output format : User Defined Encoder
Selected bitrate : 1024 kBit/s
Quality : High
Add ID3 tag : No
Command line compressor : C:\Program Files (x86)\Exact Audio Copy\Flac\flac.exe
Additional command line options : %ishigh%-V -p -l 12 -b 4096 -m -e -r 8%ishigh%%islow%-5%islow% --replay-gain -T "ARTIST=%artist%" -T "ALBUM=%albumtitle%" -T "TITLE=%title%" -T "DATE=%year%" -T "TRACKNUMBER=%tracknr%" -T "GENRE=%genre%" -T "ENSEMBLE=%albuminterpret%" -T "ALBUMARTIST=%albumartist%" -T "COMPOSER=%albumcomposer%" -T "DISCNUMBER=%cdnumber%" -T "TOTALDISCS=%totalcds%" -T "TOTALTRACKS=%numtracks%" -T "SOURCEMEDIA=CD" -T "COMMENT=%comment%" %hascover%-T "PICTURE=%coverfile%"%hascover% %source%
TOC of the extracted CD
Track | Start | Length | Start sector | End sector
---------------------------------------------------------
1 | 0:00.00 | 4:05.10 | 0 | 18384
2 | 4:05.10 | 3:30.23 | 18385 | 34157
3 | 7:35.33 | 3:56.10 | 34158 | 51867
4 | 11:31.43 | 3:11.66 | 51868 | 66258
5 | 14:43.34 | 3:50.23 | 66259 | 83531
6 | 18:33.57 | 4:23.07 | 83532 | 103263
7 | 22:56.64 | 3:27.64 | 103264 | 118852
8 | 26:24.53 | 3:16.14 | 118853 | 133566
9 | 29:40.67 | 4:35.28 | 133567 | 154219
10 | 34:16.20 | 3:56.00 | 154220 | 171919
11 | 38:12.20 | 6:34.21 | 171920 | 201490
Range status and errors
Selected range
Filename C:\Users\M@ce\Music\Archives\Rips\Lou Rawls - When You Hear Lou, You've Heard It All.wav
Peak level 96.5 %
Extraction speed 8.5 X
Range quality 99.9 %
Test CRC 1780D51D
Copy CRC 1780D51D
Copy OK
No errors occurred
AccurateRip summary
Track 1 accurately ripped (confidence 1) [3ED9F58C] (AR v2)
Track 2 accurately ripped (confidence 1) [4B00A5E2] (AR v2)
Track 3 accurately ripped (confidence 1) [2DA15583] (AR v2)
Track 4 accurately ripped (confidence 1) [713E660C] (AR v2)
Track 5 accurately ripped (confidence 1) [60230E2B] (AR v1)
Track 6 accurately ripped (confidence 1) [C40972A0] (AR v2)
Track 7 accurately ripped (confidence 1) [D5F983CA] (AR v2)
Track 8 accurately ripped (confidence 1) [5CF10B10] (AR v2)
Track 9 accurately ripped (confidence 1) [DFA6DD07] (AR v2)
Track 10 accurately ripped (confidence 1) [608044FE] (AR v2)
Track 11 accurately ripped (confidence 1) [E1709E4A] (AR v2)
All tracks accurately ripped
End of status report
---- CUETools DB Plugin V2.1.4
[CTDB TOCID: uWrK6UNqOjtYk88UFW1Am5c.ibw-] disk not present in database
Submit result: uWrK6UNqOjtYk88UFW1Am5c.ibw- has been uploaded
==== Log checksum 89FAA14E4735C4BF3382AD47FB6F3483FC6262C121B123C9703DCC734E3D3360 ====
 
Содержание индексной карты (.CUE)
REM GENRE Soul
REM DATE 1977
REM DISCID A70A7E0B
REM COMMENT "ExactAudioCopy v1.0b3"
PERFORMER "Lou Rawls"
TITLE "When You Hear Lou, You've Heard It All"
FILE "Lou Rawls - When You Hear Lou, You've Heard It All.flac" WAVE
TRACK 01 AUDIO
TITLE "Lady Love"
PERFORMER "Lou Rawls"
INDEX 01 00:00:00
TRACK 02 AUDIO
TITLE "I Wish It Were Yesterday"
PERFORMER "Lou Rawls"
INDEX 00 04:02:44
INDEX 01 04:05:10
TRACK 03 AUDIO
TITLE "One Life To Live"
PERFORMER "Lou Rawls"
INDEX 00 07:32:67
INDEX 01 07:35:33
TRACK 04 AUDIO
TITLE "Dollar Green"
PERFORMER "Lou Rawls"
INDEX 00 11:29:02
INDEX 01 11:31:43
TRACK 05 AUDIO
TITLE "Trade Winds"
PERFORMER "Lou Rawls"
INDEX 00 14:40:68
INDEX 01 14:43:34
TRACK 06 AUDIO
TITLE "There Will Be Love"
PERFORMER "Lou Rawls"
INDEX 00 18:31:16
INDEX 01 18:33:57
TRACK 07 AUDIO
TITLE "Unforgettable"
PERFORMER "Lou Rawls"
INDEX 00 22:54:23
INDEX 01 22:56:64
TRACK 08 AUDIO
TITLE "That Would Do It For Me"
PERFORMER "Lou Rawls"
INDEX 00 26:22:12
INDEX 01 26:24:53
TRACK 09 AUDIO
TITLE "I Coulda, Woulda, Shoulda"
PERFORMER "Lou Rawls"
INDEX 00 29:38:26
INDEX 01 29:40:67
TRACK 10 AUDIO
TITLE "Not The Staying Kind"
PERFORMER "Lou Rawls"
INDEX 00 34:13:54
INDEX 01 34:16:20
TRACK 11 AUDIO
TITLE "Run Jesse Run [Bonus Track]"
PERFORMER "Lou Rawls"
INDEX 00 38:08:55
INDEX 01 38:12:20
 
Об альбоме (сборнике)
A smooth, often delightful album that kept Lou Rawls squarely in the love/romantic/mellow circle that he'd been scoring in throughout the late '70s. Gamble and Huff were really trimming the productions and keeping things laid-back and casual, while Rawls' emphatic, smoky vocals carried the day. They weren't getting huge pop hits, but were on the R&B charts steadily, and the album just missed the pop Top 40.
Приватный:
Нет (DHT включён)
Размер:
286.55 Мб (300,472,804 байт) » файлов: 9
Участники:
0 раздают, 0 качают (0 участников всего)
Внешние участники:
3 раздают, 1 качают (4 участников всего) [ Обновить ]
No seeders - write a personal message to user M0p94ok. Нет сидеров - пишите личное сообщение пользователю M0p94ok.
12:23
64
Нет комментариев. Ваш будет первым!