Поиск

(Soul, R&B) [CD] Lou Rawls - Let Me Be Good To You / Lou Rawls Live (2CD) - 1999, FLAC (tracks+.cue), lossless

(Soul, R&B) [CD] Lou Rawls - Let Me Be Good To You / Lou Rawls Live (2CD) - 1999, FLAC (tracks+.cue), lossless
Треклист:
Lou Rawls - Let Me Be Good To You / Lou Rawls Live (2CD) Жанр: Soul, R&B
Носитель: CD
Год издания: 1999
Издатель (лейбл): Westside/Philadelphia International Records
Номер по каталогу: WESD 220
Аудиокодек: FLAC (*.flac)
Тип рипа: tracks+.cue
Битрейт аудио: lossless
Продолжительность: 02:06:05
Rip by JET 1
Наличие сканов в содержимом раздачи: да
CD 1 (58:35)
01. Time Will Take Care Of Everything (4:40)
02. What's The Matter With The World? (5:58)
03. Tomorrow (4:02)
04. We Keep Getting Closer To Being Further Apart (4:14)
05. Bark, Bite (Fight All Night) (4:31)
06. Let Me Be Good To You (5:29)
07. Lover's Holiday (5:24)
08. Sweet Tender Nights (3:43)
09. Overture (You'll Never Find Another Love Like Mine) (3:25)
10. Groovy People (3:17)
11. Stay Awhile With Me (3:41)
12. Charge Card Blues Medley (10:09)
 
CD 2 (67:30)
01. Pure Imagination (2:52)
02. Hits Medley (11:19)
03. Lady Love (3:48)
04. This Song Will Last Forever (3:11)
05. Tribute Medley (16:17)
06. This One's For You (2:38)
07. See You When I Get There (4:27)
08. We Understand Each Other / Early Morning Love (5:04)
09. When You Say Budweiser, You've Said It All (0:43)
10. Send In The Clowns (5:17)
11. You'll Never Find Another Love Like Mine (3:26)
12. A Lovely Way To Spend An Evening (1:56)
13. Run Jesse Run (6:34)
 
CD 1
 
Лог создания рипа
Exact Audio Copy V1.0 beta 3 from 29. August 2011
EAC extraction logfile from 25. November 2014, 17:42
Lou Rawls / Let Me Be Good To You
Used drive : ATAPI DVD A DH16A6L-C Adapter: 2 ID: 0
Read mode : Secure
Utilize accurate stream : Yes
Defeat audio cache : Yes
Make use of C2 pointers : No
Read offset correction : 6
Overread into Lead-In and Lead-Out : No
Fill up missing offset samples with silence : Yes
Delete leading and trailing silent blocks : No
Null samples used in CRC calculations : Yes
Used interface : Native Win32 interface for Win NT & 2000
Gap handling : Appended to previous track
Used output format : User Defined Encoder
Selected bitrate : 1024 kBit/s
Quality : High
Add ID3 tag : No
Command line compressor : C:\Program Files\FLAC\flac.exe
Additional command line options : -8 -V -T "ARTIST=%artist%" -T "TITLE=%title%" -T "ALBUM=%albumtitle%" -T "DATE=%year%" -T "TRACKNUMBER=%tracknr%" -T "GENRE=%genre%" -T "PERFORMER=%albuminterpret%" -T "COMPOSER=%composer%" %haslyrics%--tag-from-file=LYRICS="%lyricsfile%"%haslyrics% -T "ALBUMARTIST=%albumartist%" -T "DISCNUMBER=%cdnumber%" -T "TOTALDISCS=%totalcds%" -T "TOTALTRACKS=%numtracks%" -T "COMMENT=%comment%" %source% -o %dest%
TOC of the extracted CD
Track | Start | Length | Start sector | End sector
---------------------------------------------------------
1 | 0:00.00 | 4:40.11 | 0 | 21010
2 | 4:40.11 | 5:58.07 | 21011 | 47867
3 | 10:38.18 | 4:02.22 | 47868 | 66039
4 | 14:40.40 | 4:14.35 | 66040 | 85124
5 | 18:55.00 | 4:31.20 | 85125 | 105469
6 | 23:26.20 | 5:29.27 | 105470 | 130171
7 | 28:55.47 | 5:23.58 | 130172 | 154454
8 | 34:19.30 | 3:42.61 | 154455 | 171165
9 | 38:02.16 | 3:25.33 | 171166 | 186573
10 | 41:27.49 | 3:17.27 | 186574 | 201375
11 | 44:45.01 | 3:40.59 | 201376 | 217934
12 | 48:25.60 | 10:09.25 | 217935 | 263634
Track 1
Filename F:\0\!!!!!POST!!!!\Lou Rawls - Let Me Be Good To You + Lou Rawls Live (1999)\Disc1\01 - Lou Rawals - Time Will Take Care O.wav
Pre-gap length 0:00:02.00
Peak level 93.0 %
Extraction speed 3.4 X
Track quality 100.0 %
Test CRC 934175F4
Copy CRC 934175F4
Accurately ripped (confidence 3) [C8EB5179] (AR v2)
Copy OK
Track 2
Filename F:\0\!!!!!POST!!!!\Lou Rawls - Let Me Be Good To You + Lou Rawls Live (1999)\Disc1\02 - Lou Rawls - What's The Matter With The World.wav
Pre-gap length 0:00:02.50
Peak level 92.4 %
Extraction speed 4.1 X
Track quality 100.0 %
Test CRC 44EA80F4
Copy CRC 44EA80F4
Accurately ripped (confidence 3) [E08316DF] (AR v2)
Copy OK
Track 3
Filename F:\0\!!!!!POST!!!!\Lou Rawls - Let Me Be Good To You + Lou Rawls Live (1999)\Disc1\03 - Lou Rawals - Tomorrow.wav
Pre-gap length 0:00:02.50
Peak level 91.5 %
Extraction speed 4.3 X
Track quality 100.0 %
Test CRC 9D9C01B0
Copy CRC 9D9C01B0
Accurately ripped (confidence 3) [B448331F] (AR v2)
Copy OK
Track 4
Filename F:\0\!!!!!POST!!!!\Lou Rawls - Let Me Be Good To You + Lou Rawls Live (1999)\Disc1\04 - Lou Rawals - We Keep Getting Closer To Being Further Apart.wav
Pre-gap length 0:00:02.50
Peak level 84.2 %
Extraction speed 4.6 X
Track quality 100.0 %
Test CRC DCC4E6D3
Copy CRC DCC4E6D3
Accurately ripped (confidence 3) [761786C1] (AR v2)
Copy OK
Track 5
Filename F:\0\!!!!!POST!!!!\Lou Rawls - Let Me Be Good To You + Lou Rawls Live (1999)\Disc1\05 - Lou Rawals - Bark, Bite [Fight All Night}.wav
Pre-gap length 0:00:02.50
Peak level 91.7 %
Extraction speed 4.2 X
Track quality 99.9 %
Test CRC D0D1740D
Copy CRC D0D1740D
Accurately ripped (confidence 3) [F94F6967] (AR v2)
Copy OK
Track 6
Filename F:\0\!!!!!POST!!!!\Lou Rawls - Let Me Be Good To You + Lou Rawls Live (1999)\Disc1\06 - Lou Rawals - Let Me Be Good To You.wav
Pre-gap length 0:00:02.50
Peak level 94.0 %
Extraction speed 4.7 X
Track quality 99.9 %
Test CRC F3056B38
Copy CRC F3056B38
Accurately ripped (confidence 3) [1886B860] (AR v2)
Copy OK
Track 7
Filename F:\0\!!!!!POST!!!!\Lou Rawls - Let Me Be Good To You + Lou Rawls Live (1999)\Disc1\07 - Lou Rawals - Lover's Holliday.wav
Pre-gap length 0:00:02.50
Peak level 92.1 %
Extraction speed 4.4 X
Track quality 99.9 %
Test CRC B042A4CA
Copy CRC B042A4CA
Accurately ripped (confidence 3) [AA6B4B4D] (AR v2)
Copy OK
Track 8
Filename F:\0\!!!!!POST!!!!\Lou Rawls - Let Me Be Good To You + Lou Rawls Live (1999)\Disc1\08 - Lou Rawals - Sweet Tender Nights.wav
Pre-gap length 0:00:02.51
Peak level 92.6 %
Extraction speed 5.7 X
Track quality 100.0 %
Test CRC D6737AE7
Copy CRC D6737AE7
Accurately ripped (confidence 3) [083FE28A] (AR v2)
Copy OK
Track 9
Filename F:\0\!!!!!POST!!!!\Lou Rawls - Let Me Be Good To You + Lou Rawls Live (1999)\Disc1\09 - Lou Rawals - Overture [You'll Never Find Anoyhe Love Like Mine].wav
Pre-gap length 0:00:02.49
Peak level 93.6 %
Extraction speed 5.7 X
Track quality 100.0 %
Test CRC F156E63F
Copy CRC F156E63F
Accurately ripped (confidence 3) [F9692CFA] (AR v2)
Copy OK
Track 10
Filename F:\0\!!!!!POST!!!!\Lou Rawls - Let Me Be Good To You + Lou Rawls Live (1999)\Disc1\10 - Lou Rawals - Groovy People.wav
Peak level 94.3 %
Extraction speed 5.9 X
Track quality 100.0 %
Test CRC 8A47EB8E
Copy CRC 8A47EB8E
Accurately ripped (confidence 3) [F08C3D24] (AR v2)
Copy OK
Track 11
Filename F:\0\!!!!!POST!!!!\Lou Rawls - Let Me Be Good To You + Lou Rawls Live (1999)\Disc1\11 - Lou Rawals - Stay Awhile With Me.wav
Peak level 92.1 %
Extraction speed 4.7 X
Track quality 99.9 %
Test CRC F03CEE87
Copy CRC F03CEE87
Accurately ripped (confidence 3) [8C31FDF6] (AR v2)
Copy OK
Track 12
Filename F:\0\!!!!!POST!!!!\Lou Rawls - Let Me Be Good To You + Lou Rawls Live (1999)\Disc1\12 - Lou Rawals - Charge Card Blues Medley.wav
Pre-gap length 0:00:02.32
Peak level 90.5 %
Extraction speed 7.1 X
Track quality 100.0 %
Test CRC AFFB9E79
Copy CRC AFFB9E79
Accurately ripped (confidence 3) [71ED55DB] (AR v2)
Copy OK
All tracks accurately ripped
No errors occurred
End of status report
==== Log checksum A5CFF7630E8E09F1DB02F4C160EF8015E535A9A7301BBF55821392A9371C4060 ====
 
Содержание индексной карты (.CUE)
REM GENRE Soul
REM DATE 1999
REM DISCID AE0DBB0C
REM COMMENT "ExactAudioCopy v1.0b3"
PERFORMER "Lou Rawls"
TITLE "Let Me Be Good To You & Lou Rawls Live (disc 1)"
FILE "01. Time Will Take Care Of Everything.wav" WAVE
TRACK 01 AUDIO
TITLE "Time Will Take Care Of Everything"
PERFORMER "Lou Rawls"
INDEX 01 00:00:00
TRACK 02 AUDIO
TITLE "What's The Matter With The World?"
PERFORMER "Lou Rawls"
INDEX 00 04:37:36
FILE "02. What's The Matter With The World.wav" WAVE
INDEX 01 00:00:00
TRACK 03 AUDIO
TITLE "Tomorrow"
PERFORMER "Lou Rawls"
INDEX 00 05:55:32
FILE "03. Tomorrow.wav" WAVE
INDEX 01 00:00:00
TRACK 04 AUDIO
TITLE "We Keep Getting Closer To Being Further Apart"
PERFORMER "Lou Rawls"
INDEX 00 03:59:47
FILE "04. We Keep Getting Closer To Being Further Apart.wav" WAVE
INDEX 01 00:00:00
TRACK 05 AUDIO
TITLE "Bark, Bite (Fight All Night)"
PERFORMER "Lou Rawls"
INDEX 00 04:11:60
FILE "05. Bark, Bite (Fight All Night).wav" WAVE
INDEX 01 00:00:00
TRACK 06 AUDIO
TITLE "Let Me Be Good To You"
PERFORMER "Lou Rawls"
INDEX 00 04:28:45
FILE "06. Let Me Be Good To You.wav" WAVE
INDEX 01 00:00:00
TRACK 07 AUDIO
TITLE "Lover's Holiday"
PERFORMER "Lou Rawls"
INDEX 00 05:26:52
FILE "07. Lover's Holiday.wav" WAVE
INDEX 01 00:00:00
TRACK 08 AUDIO
TITLE "Sweet Tender Nights"
PERFORMER "Lou Rawls"
INDEX 00 05:21:07
FILE "08. Sweet Tender Nights.wav" WAVE
INDEX 01 00:00:00
TRACK 09 AUDIO
TITLE "Overture (You'll Never Find Another Love Like Mine)"
PERFORMER "Lou Rawls"
INDEX 00 03:40:12
FILE "09. Overture (You'll Never Find Another Love Like Mine).wav" WAVE
INDEX 01 00:00:00
FILE "10. Groovy People.wav" WAVE
TRACK 10 AUDIO
TITLE "Groovy People"
PERFORMER "Lou Rawls"
INDEX 01 00:00:00
FILE "11. Stay Awhile With Me.wav" WAVE
TRACK 11 AUDIO
TITLE "Stay Awhile With Me"
PERFORMER "Lou Rawls"
INDEX 01 00:00:00
TRACK 12 AUDIO
TITLE "Charge Card Blues Medley"
PERFORMER "Lou Rawls"
INDEX 00 03:38:27
FILE "12. Charge Card Blues Medley.wav" WAVE
INDEX 01 00:00:00
 
CD 2
 
Лог создания рипа
Exact Audio Copy V1.0 beta 3 from 29. August 2011
EAC extraction logfile from 25. November 2014, 20:44
Lou Rawls / Lou Rawls Live
Used drive : GENERIC CDRCB05 Adapter: 4 ID: 0
Read mode : Secure
Utilize accurate stream : Yes
Defeat audio cache : Yes
Make use of C2 pointers : No
Read offset correction : 102
Overread into Lead-In and Lead-Out : No
Fill up missing offset samples with silence : Yes
Delete leading and trailing silent blocks : No
Null samples used in CRC calculations : Yes
Used interface : Native Win32 interface for Win NT & 2000
Gap handling : Appended to previous track
Used output format : User Defined Encoder
Selected bitrate : 1024 kBit/s
Quality : High
Add ID3 tag : No
Command line compressor : C:\Program Files\FLAC\flac.exe
Additional command line options : -8 -V -T "ARTIST=%artist%" -T "TITLE=%title%" -T "ALBUM=%albumtitle%" -T "DATE=%year%" -T "TRACKNUMBER=%tracknr%" -T "GENRE=%genre%" -T "PERFORMER=%albuminterpret%" -T "COMPOSER=%composer%" %haslyrics%--tag-from-file=LYRICS="%lyricsfile%"%haslyrics% -T "ALBUMARTIST=%albumartist%" -T "DISCNUMBER=%cdnumber%" -T "TOTALDISCS=%totalcds%" -T "TOTALTRACKS=%numtracks%" -T "COMMENT=%comment%" %source% -o %dest%
TOC of the extracted CD
Track | Start | Length | Start sector | End sector
---------------------------------------------------------
1 | 0:00.00 | 2:52.37 | 0 | 12936
2 | 2:52.37 | 11:18.63 | 12937 | 63849
3 | 14:11.25 | 3:48.32 | 63850 | 80981
4 | 17:59.57 | 3:10.38 | 80982 | 95269
5 | 21:10.20 | 16:16.38 | 95270 | 168507
6 | 37:26.58 | 2:37.49 | 168508 | 180331
7 | 40:04.32 | 4:26.54 | 180332 | 200335
8 | 44:31.11 | 5:03.47 | 200336 | 223107
9 | 49:34.58 | 0:42.50 | 223108 | 226307
10 | 50:17.33 | 5:16.40 | 226308 | 250047
11 | 55:33.73 | 3:26.12 | 250048 | 265509
12 | 59:00.10 | 1:55.46 | 265510 | 274180
13 | 60:55.56 | 6:34.10 | 274181 | 303740
Track 1
Filename F:\0\!!!!!POST!!!!\Lou Rawls - Let Me Be Good To You + Lou Rawls Live (1999)\Disc2\01 - Lou Rawls - Pure Imagination.wav
Pre-gap length 0:00:02.00
Peak level 87.3 %
Extraction speed 2.2 X
Track quality 100.0 %
Test CRC 8F94B8D1
Copy CRC 8F94B8D1
Accurately ripped (confidence 2) [F35EA2DF] (AR v2)
Copy OK
Track 2
Filename F:\0\!!!!!POST!!!!\Lou Rawls - Let Me Be Good To You + Lou Rawls Live (1999)\Disc2\02 - Lou Rawls - Hits Medley.wav
Pre-gap length 0:00:02.24
Peak level 93.9 %
Extraction speed 3.0 X
Track quality 100.0 %
Test CRC 8F9D64FF
Copy CRC 8F9D64FF
Accurately ripped (confidence 2) [AFADE9FC] (AR v2)
Copy OK
Track 3
Filename F:\0\!!!!!POST!!!!\Lou Rawls - Let Me Be Good To You + Lou Rawls Live (1999)\Disc2\03 - Lou Rawls - Lady Love.wav
Peak level 91.7 %
Extraction speed 2.7 X
Track quality 99.9 %
Test CRC F9800150
Copy CRC F9800150
Accurately ripped (confidence 2) [A3DB2FA7] (AR v2)
Copy OK
Track 4
Filename F:\0\!!!!!POST!!!!\Lou Rawls - Let Me Be Good To You + Lou Rawls Live (1999)\Disc2\04 - Lou Rawls - This Song Will Last Forever.wav
Pre-gap length 0:00:02.50
Peak level 94.1 %
Extraction speed 3.1 X
Track quality 100.0 %
Test CRC 908101FD
Copy CRC 908101FD
Accurately ripped (confidence 2) [25224D63] (AR v2)
Copy OK
Track 5
Filename F:\0\!!!!!POST!!!!\Lou Rawls - Let Me Be Good To You + Lou Rawls Live (1999)\Disc2\05 - Lou Rawls - Tribute Medley.wav
Pre-gap length 0:00:03.00
Peak level 94.3 %
Extraction speed 4.0 X
Track quality 100.0 %
Test CRC 6D5ACB4F
Copy CRC 6D5ACB4F
Accurately ripped (confidence 2) [CD6A98F6] (AR v2)
Copy OK
Track 6
Filename F:\0\!!!!!POST!!!!\Lou Rawls - Let Me Be Good To You + Lou Rawls Live (1999)\Disc2\06 - Lou Rawls - This One's For You.wav
Pre-gap length 0:00:00.15
Peak level 94.3 %
Extraction speed 3.7 X
Track quality 100.0 %
Test CRC 73B46338
Copy CRC 73B46338
Accurately ripped (confidence 2) [95950872] (AR v2)
Copy OK
Track 7
Filename F:\0\!!!!!POST!!!!\Lou Rawls - Let Me Be Good To You + Lou Rawls Live (1999)\Disc2\07 - Lou Rawls - See You When I Get There.wav
Pre-gap length 0:00:02.50
Peak level 94.3 %
Extraction speed 3.6 X
Track quality 100.0 %
Test CRC A18985D9
Copy CRC A18985D9
Accurately ripped (confidence 2) [BF23E3BD] (AR v2)
Copy OK
Track 8
Filename F:\0\!!!!!POST!!!!\Lou Rawls - Let Me Be Good To You + Lou Rawls Live (1999)\Disc2\08 - Lou Rawls - We Understand Each Other.wav
Pre-gap length 0:00:02.09
Peak level 94.2 %
Extraction speed 4.3 X
Track quality 100.0 %
Test CRC 5AA50BF7
Copy CRC 5AA50BF7
Accurately ripped (confidence 2) [47A9290D] (AR v2)
Copy OK
Track 9
Filename F:\0\!!!!!POST!!!!\Lou Rawls - Let Me Be Good To You + Lou Rawls Live (1999)\Disc2\09 - Lou Rawls - When You Say Budweiser.wav
Pre-gap length 0:00:02.47
Peak level 94.3 %
Extraction speed 2.6 X
Track quality 100.0 %
Test CRC 704CB79B
Copy CRC 704CB79B
Accurately ripped (confidence 2) [23E6E7E4] (AR v2)
Copy OK
Track 10
Filename F:\0\!!!!!POST!!!!\Lou Rawls - Let Me Be Good To You + Lou Rawls Live (1999)\Disc2\10 - Lou Rawls - Send In The Clowns.wav
Pre-gap length 0:00:02.50
Peak level 94.3 %
Extraction speed 4.6 X
Track quality 100.0 %
Test CRC 77BB3E94
Copy CRC 77BB3E94
Accurately ripped (confidence 2) [6A19C154] (AR v2)
Copy OK
Track 11
Filename F:\0\!!!!!POST!!!!\Lou Rawls - Let Me Be Good To You + Lou Rawls Live (1999)\Disc2\11 - Lou Rawls - You''ll Never Find Another Love Like Mine.wav
Pre-gap length 0:00:02.25
Peak level 94.3 %
Extraction speed 3.8 X
Track quality 99.9 %
Test CRC 20585A59
Copy CRC 20585A59
Accurately ripped (confidence 2) [249D6D5B] (AR v2)
Copy OK
Track 12
Filename F:\0\!!!!!POST!!!!\Lou Rawls - Let Me Be Good To You + Lou Rawls Live (1999)\Disc2\12 - Lou Rawls - A Lovely Way To Spend An Evening.wav
Peak level 94.3 %
Extraction speed 3.6 X
Track quality 100.0 %
Test CRC 37E36203
Copy CRC 37E36203
Accurately ripped (confidence 2) [149E3132] (AR v2)
Copy OK
Track 13
Filename F:\0\!!!!!POST!!!!\Lou Rawls - Let Me Be Good To You + Lou Rawls Live (1999)\Disc2\13 - Lou Rawls - Run Jesse Run.wav
Pre-gap length 0:00:04.11
Peak level 94.3 %
Extraction speed 4.8 X
Track quality 100.0 %
Test CRC 580E15F5
Copy CRC 580E15F5
Accurately ripped (confidence 2) [FE55FE9E] (AR v2)
Copy OK
All tracks accurately ripped
No errors occurred
End of status report
==== Log checksum 45D8F9640078A894768315728CCAEF663D2C12CF3033C5471B6AF6E02F405F8C ====
 
Содержание индексной карты (.CUE)
REM GENRE Soul
REM DATE 1999
REM DISCID B80FD10D
REM COMMENT "ExactAudioCopy v1.0b3"
PERFORMER "Lou Rawls"
TITLE "Let Me Be Good To You & Lou Rawls Live (disc 2)"
FILE "01. Pure Imagination.wav" WAVE
TRACK 01 AUDIO
TITLE "Pure Imagination"
PERFORMER "Lou Rawls"
INDEX 01 00:00:00
TRACK 02 AUDIO
TITLE "Hits Medley"
PERFORMER "Lou Rawls"
INDEX 00 02:50:13
FILE "02. Hits Medley.wav" WAVE
INDEX 01 00:00:00
FILE "03. Lady Love.wav" WAVE
TRACK 03 AUDIO
TITLE "Lady Love"
PERFORMER "Lou Rawls"
INDEX 01 00:00:00
TRACK 04 AUDIO
TITLE "This Song Will Last Forever"
PERFORMER "Lou Rawls"
INDEX 00 03:45:57
FILE "04. This Song Will Last Forever.wav" WAVE
INDEX 01 00:00:00
TRACK 05 AUDIO
TITLE "Tribute Medley"
PERFORMER "Lou Rawls"
INDEX 00 03:07:38
FILE "05. Tribute Medley.wav" WAVE
INDEX 01 00:00:00
TRACK 06 AUDIO
TITLE "This One's For You"
PERFORMER "Lou Rawls"
INDEX 00 16:16:23
FILE "06. This One's For You.wav" WAVE
INDEX 01 00:00:00
TRACK 07 AUDIO
TITLE "See You When I Get There"
PERFORMER "Lou Rawls"
INDEX 00 02:34:74
FILE "07. See You When I Get There.wav" WAVE
INDEX 01 00:00:00
TRACK 08 AUDIO
TITLE "We Understand Each Other / Early Morning Love"
PERFORMER "Lou Rawls"
INDEX 00 04:24:45
FILE "08. We Understand Each Other - Early Morning Love.wav" WAVE
INDEX 01 00:00:00
TRACK 09 AUDIO
TITLE "When You Say Budweiser, You've Said It All"
PERFORMER "Lou Rawls"
INDEX 00 05:01:00
FILE "09. When You Say Budweiser, You've Said It All.wav" WAVE
INDEX 01 00:00:00
TRACK 10 AUDIO
TITLE "Send In The Clowns"
PERFORMER "Lou Rawls"
INDEX 00 00:40:00
FILE "10. Send In The Clowns.wav" WAVE
INDEX 01 00:00:00
TRACK 11 AUDIO
TITLE "You'll Never Find Another Love Like Mine"
PERFORMER "Lou Rawls"
INDEX 00 05:14:15
FILE "11. You'll Never Find Another Love Like Mine.wav" WAVE
INDEX 01 00:00:00
FILE "12. A Lovely Way To Spend An Evening.wav" WAVE
TRACK 12 AUDIO
TITLE "A Lovely Way To Spend An Evening"
PERFORMER "Lou Rawls"
INDEX 01 00:00:00
TRACK 13 AUDIO
TITLE "Run Jesse Run"
PERFORMER "Lou Rawls"
INDEX 00 01:51:35
FILE "13. Run Jesse Run.wav" WAVE
INDEX 01 00:00:00
 
Приватный:
Нет (DHT включён)
Размер:
860.48 Мб (902,280,819 байт) » файлов: 41
Участники:
0 раздают, 0 качают (0 участников всего)
Внешние участники:
3 раздают, 1 качают (4 участников всего) [ Обновить ]
Есть вопросы - пишите личное сообщение пользователю M0p94ok.
12:23
68
Нет комментариев. Ваш будет первым!