Поиск

(Funk, Soul, R&B) [CD] Meli'sa Morgan - I Remember... - 2005, FLAC (image+.cue), lossless

(Funk, Soul, R&B) [CD] Meli'sa Morgan - I Remember... - 2005, FLAC (image+.cue), lossless
Треклист:
Meli'sa Morgan - I Remember... Жанр: Funk, Soul, R&B
Носитель: CD
Год издания: 2005
Издатель (лейбл): Orpheus
Номер по каталогу: 90249
Аудиокодек: FLAC (*.flac)
Тип рипа: image+.cue
Битрейт аудио: lossless
Продолжительность: 55:42
Rip by RunawayTrane
Наличие сканов в содержимом раздачи: да
Треклист:
01. The Voice (intro) / Old School, New School (prelude) (0:25)
02. Ain't Nothing Like the Real Thing (interlude) (1:04)
03. Back Together Again (5:01)
04. I Remember... (4:01)
05. Will You? (3:24)
06. Feel You (3:51)
07. High Maintenance (3:53)
08. Ain't No Way (interlude) (2:35)
09. Alright, Alright (3:10)
10. Let You Go (4:04)
11. There'll Never Be / My Idol (prelude) (4:16)
12. Pack'd My Bags (interlude) (2:50)
13. I'm Your Sistah (4:09)
14. Same Ole, Same Old (3:32)
15. Do You, Do You Want It? / Touch It (prelude) (4:03)
16. I'm So into You (interlude) (1:54)
17. He's the One (3:31)
 
 
Лог создания рипа
Exact Audio Copy V1.1 from 23. June 2015
EAC extraction logfile from 21. October 2016, 4:45
Meli'sa Morgan / I Remember
Used drive : Memorex 52MAXX 3252AJ1 Adapter: 1 ID: 1
Read mode : Secure
Utilize accurate stream : Yes
Defeat audio cache : Yes
Make use of C2 pointers : No
Read offset correction : 6
Overread into Lead-In and Lead-Out : No
Fill up missing offset samples with silence : Yes
Delete leading and trailing silent blocks : No
Null samples used in CRC calculations : Yes
Used interface : Native Win32 interface for Win NT & 2000
Used output format : User Defined Encoder
Selected bitrate : 896 kBit/s
Quality : High
Add ID3 tag : No
Command line compressor : C:\Program Files (x86)\Exact Audio Copy\Flac\flac.exe
Additional command line options : %ishigh%-V -p -l 12 -b 4096 -m -e -r 8%ishigh%%islow%-5%islow% --replay-gain -T "ARTIST=%artist%" -T "ALBUM=%albumtitle%" -T "TITLE=%title%" -T "DATE=%year%" -T "TRACKNUMBER=%tracknr%" -T "GENRE=%genre%" -T "ENSEMBLE=%albuminterpret%" -T "ALBUMARTIST=%albumartist%" -T "COMPOSER=%albumcomposer%" -T "DISCNUMBER=%cdnumber%" -T "TOTALDISCS=%totalcds%" -T "TOTALTRACKS=%numtracks%" -T "SOURCEMEDIA=CD" -T "COMMENT=%comment%" %hascover%-T "PICTURE=%coverfile%"%hascover% %source%
TOC of the extracted CD
Track | Start | Length | Start sector | End sector
---------------------------------------------------------
1 | 0:00.00 | 0:24.60 | 0 | 1859
2 | 0:24.60 | 1:03.73 | 1860 | 6657
3 | 1:28.58 | 5:00.63 | 6658 | 29220
4 | 6:29.46 | 4:00.65 | 29221 | 47285
5 | 10:30.36 | 3:24.21 | 47286 | 62606
6 | 13:54.57 | 3:50.39 | 62607 | 79895
7 | 17:45.21 | 3:52.48 | 79896 | 97343
8 | 21:37.69 | 2:34.51 | 97344 | 108944
9 | 24:12.45 | 3:10.03 | 108945 | 123197
10 | 27:22.48 | 4:04.11 | 123198 | 141508
11 | 31:26.59 | 4:16.31 | 141509 | 160739
12 | 35:43.15 | 2:49.51 | 160740 | 173465
13 | 38:32.66 | 4:09.37 | 173466 | 192177
14 | 42:42.28 | 3:32.00 | 192178 | 208077
15 | 46:14.28 | 4:02.40 | 208078 | 226267
16 | 50:16.68 | 1:54.20 | 226268 | 234837
17 | 52:11.13 | 3:31.22 | 234838 | 250684
Range status and errors
Selected range
Filename C:\Users\M@ce\Music\Archives\Rips\Burn WAV\Meli'sa Morgan - I Remember.wav
Peak level 99.2 %
Extraction speed 6.4 X
Range quality 100.0 %
Test CRC 798DDBBE
Copy CRC 798DDBBE
Copy OK
No errors occurred
AccurateRip summary
Track 1 accurately ripped (confidence 1) [DE6EBF71] (AR v2)
Track 2 accurately ripped (confidence 1) [2EFAC70C] (AR v2)
Track 3 accurately ripped (confidence 1) [B042D7E4] (AR v2)
Track 4 accurately ripped (confidence 1) [1D5DE04A] (AR v2)
Track 5 accurately ripped (confidence 1) [8B42BD24] (AR v2)
Track 6 accurately ripped (confidence 1) [8E88E84D] (AR v2)
Track 7 accurately ripped (confidence 1) [6B64CF7E] (AR v2)
Track 8 accurately ripped (confidence 1) [B3AFD2DB] (AR v2)
Track 9 accurately ripped (confidence 1) [FE79C8C3] (AR v2)
Track 10 accurately ripped (confidence 1) [83039A5F] (AR v2)
Track 11 accurately ripped (confidence 1) [5BE0EDE3] (AR v2)
Track 12 accurately ripped (confidence 1) [09F57EAB] (AR v2)
Track 13 accurately ripped (confidence 1) [256CEADD] (AR v2)
Track 14 accurately ripped (confidence 1) [AE179047] (AR v2)
Track 15 accurately ripped (confidence 1) [124DC0D8] (AR v2)
Track 16 accurately ripped (confidence 1) [FCB88367] (AR v2)
Track 17 accurately ripped (confidence 1) [7F3E5925] (AR v2)
All tracks accurately ripped
End of status report
---- CUETools DB Plugin V2.1.6
[CTDB TOCID: g0ESnfIR7dx5O35gD6Hs4sDFo2M-] found
Submit result: g0ESnfIR7dx5O35gD6Hs4sDFo2M- has been confirmed
Track | CTDB Status
1 | (1/1) Accurately ripped
2 | (1/1) Accurately ripped
3 | (1/1) Accurately ripped
4 | (1/1) Accurately ripped
5 | (1/1) Accurately ripped
6 | (1/1) Accurately ripped
7 | (1/1) Accurately ripped
8 | (1/1) Accurately ripped
9 | (1/1) Accurately ripped
10 | (1/1) Accurately ripped
11 | (1/1) Accurately ripped
12 | (1/1) Accurately ripped
13 | (1/1) Accurately ripped
14 | (1/1) Accurately ripped
15 | (1/1) Accurately ripped
16 | (1/1) Accurately ripped
17 | (1/1) Accurately ripped
==== Log checksum 6159B07FB0AD6B118C2667A3080A8E1E8FBAFDDFF0DFAC695EA58DA638501492 ====
 
Содержание индексной карты (.CUE)
REM GENRE Soul
REM DATE 2005
REM DISCID E80D0E11
REM COMMENT "ExactAudioCopy v1.1"
PERFORMER "Meli'sa Morgan"
TITLE "I Remember"
FILE "Meli'sa Morgan - I Remember.flac" WAVE
TRACK 01 AUDIO
TITLE "The Voice (intro) / Old School, New School (prelude)"
PERFORMER "Meli'sa Morgan"
INDEX 01 00:00:00
TRACK 02 AUDIO
TITLE "Ain't Nothing Like the Real Thing (interlude)"
PERFORMER "Meli'sa Morgan"
INDEX 01 00:24:60
TRACK 03 AUDIO
TITLE "Back Together Again"
PERFORMER "Meli'sa Morgan"
INDEX 01 01:28:58
TRACK 04 AUDIO
TITLE "I Remember..."
PERFORMER "Meli'sa Morgan"
INDEX 01 06:29:46
TRACK 05 AUDIO
TITLE "Will You?"
PERFORMER "Meli'sa Morgan"
INDEX 01 10:30:36
TRACK 06 AUDIO
TITLE "Feel You"
PERFORMER "Meli'sa Morgan"
INDEX 01 13:54:57
TRACK 07 AUDIO
TITLE "High Maintenance"
PERFORMER "Meli'sa Morgan"
INDEX 01 17:45:21
TRACK 08 AUDIO
TITLE "Ain't No Way (interlude)"
PERFORMER "Meli'sa Morgan"
INDEX 01 21:37:69
TRACK 09 AUDIO
TITLE "Alright, Alright"
PERFORMER "Meli'sa Morgan"
INDEX 01 24:12:45
TRACK 10 AUDIO
TITLE "Let You Go"
PERFORMER "Meli'sa Morgan"
INDEX 01 27:22:48
TRACK 11 AUDIO
TITLE "There'll Never Be / My Idol (prelude)"
PERFORMER "Meli'sa Morgan"
INDEX 01 31:26:59
TRACK 12 AUDIO
TITLE "Pack'd My Bags (interlude)"
PERFORMER "Meli'sa Morgan"
INDEX 01 35:43:15
TRACK 13 AUDIO
TITLE "I'm Your Sistah"
PERFORMER "Meli'sa Morgan"
INDEX 01 38:32:66
TRACK 14 AUDIO
TITLE "Same Ole, Same Old"
PERFORMER "Meli'sa Morgan"
INDEX 01 42:42:28
TRACK 15 AUDIO
TITLE "Do You, Do You Want It? / Touch It (prelude)"
PERFORMER "Meli'sa Morgan"
INDEX 01 46:14:28
TRACK 16 AUDIO
TITLE "I'm So into You (interlude)"
PERFORMER "Meli'sa Morgan"
INDEX 01 50:16:68
TRACK 17 AUDIO
TITLE "He's the One"
PERFORMER "Meli'sa Morgan"
INDEX 00 52:09:49
INDEX 01 52:11:13
 
Об альбоме (сборнике)
I Remember is a studio album by American recording artist Meli'sa Morgan, released in 2005 and issued by Lu Ann/Orpheus Records. The album consist of three covers produced by Valerie Simpson and Nickolas Ashford, as well as new songs produced by Morgan and longtime collaborator Lesette Wilson. The album's lead single "Back Together Again" is a ballad duet with R&B singer Freddie Jackson.
Приватный:
Нет (DHT включён)
Размер:
407.62 Мб (427,416,741 байт) » файлов: 12
Участники:
0 раздают, 0 качают (0 участников всего)
Внешние участники:
2 раздают, 1 качают (3 участников всего) [ Обновить ]
Есть вопросы - пишите личное сообщение пользователю M0p94ok.
12:24
102
Нет комментариев. Ваш будет первым!