Поиск

(Soul, R&B) [CD] Keisa Brown - I'll Carry You - 2000, FLAC (tracks+.cue), lossless

(Soul, R&B) [CD] Keisa Brown - I'll Carry You - 2000, FLAC (tracks+.cue), lossless
Треклист:
Keisa Brown - I'll Carry You Жанр: Soul, R&B
Носитель: CD
Год издания: 2000
Издатель (лейбл): Juana Records
Номер по каталогу: JCD 2000
Аудиокодек: FLAC (*.flac)
Тип рипа: tracks+.cue
Битрейт аудио: lossless
Продолжительность: 40:36
Rip by JET 1
Наличие сканов в содержимом раздачи: да
Треклист:
01. Who Left The Gate Open (4:04)
02. Rocket Ride (3:45)
03. Your Love Is So Good (4:26)
04. Some Bridges Need Burning (4:16)
05. I'm Leaving Married Men Alone (4:43)
06. Last Two Dollars (4:25)
07. Long Way Home (4:26)
08. I Wanna Baby You Baby (5:39)
09. I'll Carry You (4:54)
 
 
Лог создания рипа
Exact Audio Copy V1.0 beta 3 from 29. August 2011
EAC extraction logfile from 13. January 2015, 16:35
Keisa Brown / I'll Carry You
Used drive : ATAPI DVD A DH16A6L-C Adapter: 2 ID: 0
Read mode : Secure
Utilize accurate stream : Yes
Defeat audio cache : Yes
Make use of C2 pointers : No
Read offset correction : 6
Overread into Lead-In and Lead-Out : No
Fill up missing offset samples with silence : Yes
Delete leading and trailing silent blocks : No
Null samples used in CRC calculations : Yes
Used interface : Native Win32 interface for Win NT & 2000
Gap handling : Appended to previous track
Used output format : User Defined Encoder
Selected bitrate : 1024 kBit/s
Quality : High
Add ID3 tag : No
Command line compressor : C:\Program Files\FLAC\flac.exe
Additional command line options : -8 -V -T "ARTIST=%artist%" -T "TITLE=%title%" -T "ALBUM=%albumtitle%" -T "DATE=%year%" -T "TRACKNUMBER=%tracknr%" -T "GENRE=%genre%" -T "PERFORMER=%albuminterpret%" -T "COMPOSER=%composer%" %haslyrics%--tag-from-file=LYRICS="%lyricsfile%"%haslyrics% -T "ALBUMARTIST=%albumartist%" -T "DISCNUMBER=%cdnumber%" -T "TOTALDISCS=%totalcds%" -T "TOTALTRACKS=%numtracks%" -T "COMMENT=%comment%" %source% -o %dest%
TOC of the extracted CD
Track | Start | Length | Start sector | End sector
---------------------------------------------------------
1 | 0:00.00 | 4:03.62 | 0 | 18286
2 | 4:03.62 | 3:44.48 | 18287 | 35134
3 | 7:48.35 | 4:25.42 | 35135 | 55051
4 | 12:14.02 | 4:15.53 | 55052 | 74229
5 | 16:29.55 | 4:42.62 | 74230 | 95441
6 | 21:12.42 | 4:24.68 | 95442 | 115309
7 | 25:37.35 | 4:26.05 | 115310 | 135264
8 | 30:03.40 | 5:38.65 | 135265 | 160679
9 | 35:42.30 | 4:53.47 | 160680 | 182701
Track 1
Filename F:\0\!!!!!POST!!!!\Keisa Brown ‎- I'll Carry You (2000)\01 - Who Left The Gate Open.wav
Pre-gap length 0:00:02.00
Peak level 93.3 %
Extraction speed 3.4 X
Track quality 100.0 %
Test CRC AD7F0C30
Copy CRC AD7F0C30
Track not present in AccurateRip database
Copy OK
Track 2
Filename F:\0\!!!!!POST!!!!\Keisa Brown ‎- I'll Carry You (2000)\02 - Rocket Ride.wav
Peak level 93.3 %
Extraction speed 3.7 X
Track quality 100.0 %
Test CRC 025B741A
Copy CRC 025B741A
Track not present in AccurateRip database
Copy OK
Track 3
Filename F:\0\!!!!!POST!!!!\Keisa Brown ‎- I'll Carry You (2000)\03 - Your Love Is So Good.wav
Peak level 92.7 %
Extraction speed 4.1 X
Track quality 100.0 %
Test CRC 6532CBB5
Copy CRC 6532CBB5
Track not present in AccurateRip database
Copy OK
Track 4
Filename F:\0\!!!!!POST!!!!\Keisa Brown ‎- I'll Carry You (2000)\04 - Some Bridges Need Burning.wav
Peak level 90.3 %
Extraction speed 4.4 X
Track quality 100.0 %
Test CRC B8A98B4F
Copy CRC B8A98B4F
Track not present in AccurateRip database
Copy OK
Track 5
Filename F:\0\!!!!!POST!!!!\Keisa Brown ‎- I'll Carry You (2000)\05 - I'm Leaving Married Men Alone.wav
Peak level 91.2 %
Extraction speed 4.1 X
Track quality 99.9 %
Test CRC 9597D7DC
Copy CRC 9597D7DC
Track not present in AccurateRip database
Copy OK
Track 6
Filename F:\0\!!!!!POST!!!!\Keisa Brown ‎- I'll Carry You (2000)\06 - Last Two Dollars.wav
Peak level 93.3 %
Extraction speed 4.2 X
Track quality 99.9 %
Test CRC F430A0C8
Copy CRC F430A0C8
Track not present in AccurateRip database
Copy OK
Track 7
Filename F:\0\!!!!!POST!!!!\Keisa Brown ‎- I'll Carry You (2000)\07 - Long Way Home.wav
Peak level 89.5 %
Extraction speed 5.4 X
Track quality 100.0 %
Test CRC B32BDE55
Copy CRC B32BDE55
Track not present in AccurateRip database
Copy OK
Track 8
Filename F:\0\!!!!!POST!!!!\Keisa Brown ‎- I'll Carry You (2000)\08 - I Wanna Baby You Baby.wav
Peak level 91.3 %
Extraction speed 5.5 X
Track quality 100.0 %
Test CRC B10BBC68
Copy CRC B10BBC68
Track not present in AccurateRip database
Copy OK
Track 9
Filename F:\0\!!!!!POST!!!!\Keisa Brown ‎- I'll Carry You (2000)\09 - I'll Carry You.wav
Peak level 90.7 %
Extraction speed 6.0 X
Track quality 100.0 %
Test CRC 4BFBD222
Copy CRC 4BFBD222
Track not present in AccurateRip database
Copy OK
None of the tracks are present in the AccurateRip database
No errors occurred
End of status report
==== Log checksum 1779A09CCE812F26CFD8295F96FCCB4FD2DE8DC08E9DB589F8A9BD225EC723F6 ====
 
Содержание индексной карты (.CUE)
REM GENRE Soul
REM DATE 2000
REM DISCID 74098409
REM COMMENT "ExactAudioCopy v1.0b3"
PERFORMER "Keisa Brown"
TITLE "I'll Carry You"
FILE "01 - Who Left The Gate Open.wav" WAVE
TRACK 01 AUDIO
TITLE "Who Left The Gate Open "
PERFORMER "Keisa Brown"
INDEX 01 00:00:00
FILE "02 - Rocket Ride.wav" WAVE
TRACK 02 AUDIO
TITLE "Rocket Ride"
PERFORMER "Keisa Brown"
INDEX 01 00:00:00
FILE "03 - Your Love Is So Good.wav" WAVE
TRACK 03 AUDIO
TITLE "Your Love Is So Good"
PERFORMER "Keisa Brown"
INDEX 01 00:00:00
FILE "04 - Some Bridges Need Burning.wav" WAVE
TRACK 04 AUDIO
TITLE "Some Bridges Need Burning"
PERFORMER "Keisa Brown"
INDEX 01 00:00:00
FILE "05 - I'm Leaving Married Men Alone.wav" WAVE
TRACK 05 AUDIO
TITLE "I'm Leaving Married Men Alone "
PERFORMER "Keisa Brown"
INDEX 01 00:00:00
FILE "06 - Last Two Dollars.wav" WAVE
TRACK 06 AUDIO
TITLE "Last Two Dollars"
PERFORMER "Keisa Brown"
INDEX 01 00:00:00
FILE "07 - Long Way Home.wav" WAVE
TRACK 07 AUDIO
TITLE "Long Way Home "
PERFORMER "Keisa Brown"
INDEX 01 00:00:00
FILE "08 - I Wanna Baby You Baby.wav" WAVE
TRACK 08 AUDIO
TITLE "I Wanna Baby You Baby "
PERFORMER "Keisa Brown"
INDEX 01 00:00:00
FILE "09 - I'll Carry You.wav" WAVE
TRACK 09 AUDIO
TITLE "I'll Carry You "
PERFORMER "Keisa Brown"
INDEX 01 00:00:00
Приватный:
Нет (DHT включён)
Размер:
300.24 Мб (314,824,046 байт) » файлов: 18
Участники:
0 раздают, 0 качают (0 участников всего)
Внешние участники:
2 раздают, 1 качают (3 участников всего) [ Обновить ]
No seeders - write personal message to user M0p94ok. Нет сидеров - пишите личное сообщение пользователю M0p94ok.
05:00
59
Нет комментариев. Ваш будет первым!