Поиск

(R&B, Soul, Reggae-Pop, Indie) [CD] Selah Sue - Reason (Limited Edition) - 2015, FLAC (tracks+.cue), lossless

(R&B, Soul, Reggae-Pop, Indie) [CD] Selah Sue - Reason (Limited Edition) - 2015, FLAC (tracks+.cue), lossless
Треклист:
Selah Sue / Reason (Limited Edition)
Жанр: R&B, Soul, Reggae-Pop, Indie
Носитель: CD
Страна-производитель диска (релиза): Europe
Год издания: 2015
Издатель (лейбл): Because Music
Номер по каталогу: 2564613534
Страна исполнителя (группы): Belgium
Аудиокодек: FLAC (*.flac)
Тип рипа: tracks+.cue
Битрейт аудио: lossless
Продолжительность: 49:13 + 15:06
Источник (релизер): what.cd (Titfouine)
Наличие сканов в содержимом раздачи: нет
Треклист:
01. Alone (03:26)
02. I Won't Go For More (04:18)
03. Reason (03:20)
04. Together (Feat. Childish Gambino) (03:21)
05. Alive (03:42)
06. The Light (03:45)
07. Fear Nothing (03:25)
08. Daddy (04:28)
09. Sadness (04:00)
10. Feel (03:39)
11. Right Where I Want You (03:31)
12. Always Home (04:19)
13. Falling Out (03:51)
Bonus Tracks:
01. Gotta Make It Last (03:13)
02. Stand Back (04:09)
03. Direction (04:01)
04. Alone (Acoustic Version) (03:43)
 
Лог создания рипа
 
CD1
Exact Audio Copy V1.0 beta 3 from 29. August 2011
EAC extraction logfile from 28. March 2015, 23:45
Selah Sue / Reason
Used drive : hp CDDVDW SN-208DB Adapter: 0 ID: 0
Read mode : Secure
Utilize accurate stream : Yes
Defeat audio cache : Yes
Make use of C2 pointers : No
Read offset correction : 6
Overread into Lead-In and Lead-Out : No
Fill up missing offset samples with silence : Yes
Delete leading and trailing silent blocks : No
Null samples used in CRC calculations : Yes
Used interface : Native Win32 interface for Win NT & 2000
Gap handling : Appended to previous track
Used output format : User Defined Encoder
Selected bitrate : 1024 kBit/s
Quality : High
Add ID3 tag : No
Command line compressor : C:\Program Files (x86)\Exact Audio Copy\Flac\flac.exe
Additional command line options : -8 -V -T "ARTIST=%artist%" -T "TITLE=%title%" -T "ALBUM=%albumtitle%" -T "DATE=%year%" -T "TRACKNUMBER=%tracknr%" -T "GENRE=%genre%" -T "PERFORMER=%albuminterpret%" -T "COMPOSER=%composer%" %haslyrics%--tag-from-file=LYRICS="%lyricsfile%"%haslyrics% -T "ALBUMARTIST=%albumartist%" -T "DISCNUMBER=%cdnumber%" -T "TOTALDISCS=%totalcds%" -T "TOTALTRACKS=%numtracks%" -T "COMMENT=%comment%" %source% -o %dest%
TOC of the extracted CD
Track | Start | Length | Start sector | End sector
---------------------------------------------------------
1 | 0:00.00 | 3:28.33 | 0 | 15632
2 | 3:28.33 | 4:20.62 | 15633 | 35194
3 | 7:49.20 | 3:19.73 | 35195 | 50192
4 | 11:09.18 | 3:21.33 | 50193 | 65300
5 | 14:30.51 | 3:41.65 | 65301 | 81940
6 | 18:12.41 | 3:46.24 | 81941 | 98914
7 | 21:58.65 | 3:25.25 | 98915 | 114314
8 | 25:24.15 | 4:26.15 | 114315 | 134279
9 | 29:50.30 | 4:01.50 | 134280 | 152404
10 | 33:52.05 | 3:39.33 | 152405 | 168862
11 | 37:31.38 | 3:32.61 | 168863 | 184823
12 | 41:04.24 | 4:18.69 | 184824 | 204242
13 | 45:23.18 | 3:49.61 | 204243 | 221478
Track 1
Filename C:\Users\Julien\Music\Selah.Sue\01 - Selah Sue - Alone.wav
Pre-gap length 0:00:02.00
Peak level 98.8 %
Extraction speed 2.1 X
Track quality 100.0 %
Test CRC B631A276
Copy CRC B631A276
Track not present in AccurateRip database
Copy OK
Track 2
Filename C:\Users\Julien\Music\Selah.Sue\02 - Selah Sue - I won't go for more.wav
Peak level 98.8 %
Extraction speed 2.4 X
Track quality 100.0 %
Test CRC E1FBB248
Copy CRC E1FBB248
Track not present in AccurateRip database
Copy OK
Track 3
Filename C:\Users\Julien\Music\Selah.Sue\03 - Selah Sue - Reason.wav
Pre-gap length 0:00:01.98
Peak level 98.9 %
Extraction speed 2.5 X
Track quality 100.0 %
Test CRC 6AE06990
Copy CRC 6AE06990
Track not present in AccurateRip database
Copy OK
Track 4
Filename C:\Users\Julien\Music\Selah.Sue\04 - Selah Sue (feat Childish Gambino) - Together.wav
Pre-gap length 0:00:01.25
Peak level 99.8 %
Extraction speed 2.7 X
Track quality 100.0 %
Test CRC 1B3965B4
Copy CRC 1B3965B4
Track not present in AccurateRip database
Copy OK
Track 5
Filename C:\Users\Julien\Music\Selah.Sue\05 - Selah Sue - Alive.wav
Pre-gap length 0:00:01.93
Peak level 98.8 %
Extraction speed 2.5 X
Track quality 100.0 %
Test CRC 321D5889
Copy CRC 321D5889
Track not present in AccurateRip database
Copy OK
Track 6
Filename C:\Users\Julien\Music\Selah.Sue\06 - Selah Sue - The light.wav
Pre-gap length 0:00:01.36
Peak level 98.9 %
Extraction speed 3.0 X
Track quality 100.0 %
Test CRC D801E862
Copy CRC D801E862
Track not present in AccurateRip database
Copy OK
Track 7
Filename C:\Users\Julien\Music\Selah.Sue\07 - Selah Sue - Fear nothing.wav
Pre-gap length 0:00:01.98
Peak level 98.8 %
Extraction speed 2.9 X
Track quality 100.0 %
Test CRC 6AD0E25D
Copy CRC 6AD0E25D
Track not present in AccurateRip database
Copy OK
Track 8
Filename C:\Users\Julien\Music\Selah.Sue\08 - Selah Sue - Daddy.wav
Pre-gap length 0:00:01.98
Peak level 98.8 %
Extraction speed 3.3 X
Track quality 100.0 %
Test CRC 04D17C85
Copy CRC 04D17C85
Track not present in AccurateRip database
Copy OK
Track 9
Filename C:\Users\Julien\Music\Selah.Sue\09 - Selah Sue - Sadness.wav
Peak level 98.8 %
Extraction speed 2.8 X
Track quality 99.9 %
Test CRC 3FBCD9DF
Copy CRC 3FBCD9DF
Track not present in AccurateRip database
Copy OK
Track 10
Filename C:\Users\Julien\Music\Selah.Sue\10 - Selah Sue - Feel.wav
Pre-gap length 0:00:01.48
Peak level 98.8 %
Extraction speed 2.8 X
Track quality 99.9 %
Test CRC 3539FC3F
Copy CRC 3539FC3F
Track not present in AccurateRip database
Copy OK
Track 11
Filename C:\Users\Julien\Music\Selah.Sue\11 - Selah Sue - Right where I want you.wav
Pre-gap length 0:00:01.29
Peak level 98.8 %
Extraction speed 2.8 X
Track quality 99.9 %
Test CRC FBCC4C0B
Copy CRC FBCC4C0B
Track not present in AccurateRip database
Copy OK
Track 12
Filename C:\Users\Julien\Music\Selah.Sue\12 - Selah Sue - Always home.wav
Pre-gap length 0:00:02.46
Peak level 98.3 %
Extraction speed 3.8 X
Track quality 100.0 %
Test CRC CFAB4408
Copy CRC CFAB4408
Track not present in AccurateRip database
Copy OK
Track 13
Filename C:\Users\Julien\Music\Selah.Sue\13 - Selah Sue - Falling out.wav
Pre-gap length 0:00:01.77
Peak level 98.8 %
Extraction speed 3.5 X
Track quality 100.0 %
Test CRC 3F8FCDA6
Copy CRC 3F8FCDA6
Track not present in AccurateRip database
Copy OK
None of the tracks are present in the AccurateRip database
No errors occurred
End of status report
---- CUETools DB Plugin V2.1.3
[CTDB TOCID: 4XO4ZLfDYyCSqK4wOBIYMQFdgAQ-] found, Submit result: 4XO4ZLfDYyCSqK4wOBIYMQFdgAQ- has been confirmed
[3a53cfe8] (4/4) Accurately ripped
==== Log checksum E51AF8F1F4D621A7063E5CD35DFB4BD73EBE29EB92FD541766DB4C22F53E522C ====
------------------------------------------------------------
Exact Audio Copy V1.0 beta 3 from 29. August 2011
EAC extraction logfile from 28. March 2015, 23:46
Selah Sue / Reason
Used drive : hp CDDVDW SN-208DB Adapter: 0 ID: 0
Read mode : Secure
Utilize accurate stream : Yes
Defeat audio cache : Yes
Make use of C2 pointers : No
Read offset correction : 6
Overread into Lead-In and Lead-Out : No
Fill up missing offset samples with silence : Yes
Delete leading and trailing silent blocks : No
Null samples used in CRC calculations : Yes
Used interface : Native Win32 interface for Win NT & 2000
Gap handling : Appended to previous track
Used output format : User Defined Encoder
Selected bitrate : 1024 kBit/s
Quality : High
Add ID3 tag : No
Command line compressor : C:\Program Files (x86)\Exact Audio Copy\Flac\flac.exe
Additional command line options : -8 -V -T "ARTIST=%artist%" -T "TITLE=%title%" -T "ALBUM=%albumtitle%" -T "DATE=%year%" -T "TRACKNUMBER=%tracknr%" -T "GENRE=%genre%" -T "PERFORMER=%albuminterpret%" -T "COMPOSER=%composer%" %haslyrics%--tag-from-file=LYRICS="%lyricsfile%"%haslyrics% -T "ALBUMARTIST=%albumartist%" -T "DISCNUMBER=%cdnumber%" -T "TOTALDISCS=%totalcds%" -T "TOTALTRACKS=%numtracks%" -T "COMMENT=%comment%" %source% -o %dest%
TOC of the extracted CD
Track | Start | Length | Start sector | End sector
---------------------------------------------------------
1 | 0:00.00 | 3:28.33 | 0 | 15632
2 | 3:28.33 | 4:20.62 | 15633 | 35194
3 | 7:49.20 | 3:19.73 | 35195 | 50192
4 | 11:09.18 | 3:21.33 | 50193 | 65300
5 | 14:30.51 | 3:41.65 | 65301 | 81940
6 | 18:12.41 | 3:46.24 | 81941 | 98914
7 | 21:58.65 | 3:25.25 | 98915 | 114314
8 | 25:24.15 | 4:26.15 | 114315 | 134279
9 | 29:50.30 | 4:01.50 | 134280 | 152404
10 | 33:52.05 | 3:39.33 | 152405 | 168862
11 | 37:31.38 | 3:32.61 | 168863 | 184823
12 | 41:04.24 | 4:18.69 | 184824 | 204242
13 | 45:23.18 | 3:49.61 | 204243 | 221478
Track 1
Filename C:\Users\Julien\Music\Selah.Sue\01 - Selah Sue - Alone.wav
Pre-gap length 0:00:02.00
Peak level 98.8 %
Extraction speed 2.1 X
Track quality 100.0 %
Test CRC B631A276
Copy CRC B631A276
Track not present in AccurateRip database
Copy OK
Track 2
Filename C:\Users\Julien\Music\Selah.Sue\02 - Selah Sue - I won't go for more.wav
Peak level 98.8 %
Extraction speed 2.4 X
Track quality 100.0 %
Test CRC E1FBB248
Copy CRC E1FBB248
Track not present in AccurateRip database
Copy OK
Track 3
Filename C:\Users\Julien\Music\Selah.Sue\03 - Selah Sue - Reason.wav
Pre-gap length 0:00:01.98
Peak level 98.9 %
Extraction speed 2.5 X
Track quality 100.0 %
Test CRC 6AE06990
Copy CRC 6AE06990
Track not present in AccurateRip database
Copy OK
Track 4
Filename C:\Users\Julien\Music\Selah.Sue\04 - Selah Sue (feat Childish Gambino) - Together.wav
Pre-gap length 0:00:01.25
Peak level 99.8 %
Extraction speed 2.7 X
Track quality 100.0 %
Test CRC 1B3965B4
Copy CRC 1B3965B4
Track not present in AccurateRip database
Copy OK
Track 5
Filename C:\Users\Julien\Music\Selah.Sue\05 - Selah Sue - Alive.wav
Pre-gap length 0:00:01.93
Peak level 98.8 %
Extraction speed 2.5 X
Track quality 100.0 %
Test CRC 321D5889
Copy CRC 321D5889
Track not present in AccurateRip database
Copy OK
Track 6
Filename C:\Users\Julien\Music\Selah.Sue\06 - Selah Sue - The light.wav
Pre-gap length 0:00:01.36
Peak level 98.9 %
Extraction speed 3.0 X
Track quality 100.0 %
Test CRC D801E862
Copy CRC D801E862
Track not present in AccurateRip database
Copy OK
Track 7
Filename C:\Users\Julien\Music\Selah.Sue\07 - Selah Sue - Fear nothing.wav
Pre-gap length 0:00:01.98
Peak level 98.8 %
Extraction speed 2.9 X
Track quality 100.0 %
Test CRC 6AD0E25D
Copy CRC 6AD0E25D
Track not present in AccurateRip database
Copy OK
Track 8
Filename C:\Users\Julien\Music\Selah.Sue\08 - Selah Sue - Daddy.wav
Pre-gap length 0:00:01.98
Peak level 98.8 %
Extraction speed 3.3 X
Track quality 100.0 %
Test CRC 04D17C85
Copy CRC 04D17C85
Track not present in AccurateRip database
Copy OK
Track 9
Filename C:\Users\Julien\Music\Selah.Sue\09 - Selah Sue - Sadness.wav
Peak level 98.8 %
Extraction speed 2.8 X
Track quality 99.9 %
Test CRC 3FBCD9DF
Copy CRC 3FBCD9DF
Track not present in AccurateRip database
Copy OK
Track 10
Filename C:\Users\Julien\Music\Selah.Sue\10 - Selah Sue - Feel.wav
Pre-gap length 0:00:01.48
Peak level 98.8 %
Extraction speed 2.8 X
Track quality 99.9 %
Test CRC 3539FC3F
Copy CRC 3539FC3F
Track not present in AccurateRip database
Copy OK
Track 11
Filename C:\Users\Julien\Music\Selah.Sue\11 - Selah Sue - Right where I want you.wav
Pre-gap length 0:00:01.29
Peak level 98.8 %
Extraction speed 2.8 X
Track quality 99.9 %
Test CRC FBCC4C0B
Copy CRC FBCC4C0B
Track not present in AccurateRip database
Copy OK
Track 12
Filename C:\Users\Julien\Music\Selah.Sue\12 - Selah Sue - Always home.wav
Pre-gap length 0:00:02.46
Peak level 98.3 %
Extraction speed 3.8 X
Track quality 100.0 %
Test CRC CFAB4408
Copy CRC CFAB4408
Track not present in AccurateRip database
Copy OK
Track 13
Filename C:\Users\Julien\Music\Selah.Sue\13 - Selah Sue - Falling out.wav
Pre-gap length 0:00:01.77
Peak level 98.8 %
Extraction speed 3.5 X
Track quality 100.0 %
Test CRC 3F8FCDA6
Copy CRC 3F8FCDA6
Track not present in AccurateRip database
Copy OK
None of the tracks are present in the AccurateRip database
No errors occurred
End of status report
---- CUETools DB Plugin V2.1.3
[CTDB TOCID: 4XO4ZLfDYyCSqK4wOBIYMQFdgAQ-] found, Submit result: 4XO4ZLfDYyCSqK4wOBIYMQFdgAQ- has been confirmed
[3a53cfe8] (4/4) Accurately ripped
==== Log checksum D3D1FB8DB6198EF2C0D8EF0D9AA55633043BD1992A532DDA1F20FF8D57ECA511 ====
 
CD2
Exact Audio Copy V1.0 beta 3 from 29. August 2011
EAC extraction logfile from 29. March 2015, 0:18
Selah Sue / Reason (bonus tracks)
Used drive : hp CDDVDW SN-208DB Adapter: 0 ID: 0
Read mode : Secure
Utilize accurate stream : Yes
Defeat audio cache : Yes
Make use of C2 pointers : No
Read offset correction : 6
Overread into Lead-In and Lead-Out : No
Fill up missing offset samples with silence : Yes
Delete leading and trailing silent blocks : No
Null samples used in CRC calculations : Yes
Used interface : Native Win32 interface for Win NT & 2000
Gap handling : Appended to previous track
Used output format : User Defined Encoder
Selected bitrate : 1024 kBit/s
Quality : High
Add ID3 tag : No
Command line compressor : C:\Program Files (x86)\Exact Audio Copy\Flac\flac.exe
Additional command line options : -8 -V -T "ARTIST=%artist%" -T "TITLE=%title%" -T "ALBUM=%albumtitle%" -T "DATE=%year%" -T "TRACKNUMBER=%tracknr%" -T "GENRE=%genre%" -T "PERFORMER=%albuminterpret%" -T "COMPOSER=%composer%" %haslyrics%--tag-from-file=LYRICS="%lyricsfile%"%haslyrics% -T "ALBUMARTIST=%albumartist%" -T "DISCNUMBER=%cdnumber%" -T "TOTALDISCS=%totalcds%" -T "TOTALTRACKS=%numtracks%" -T "COMMENT=%comment%" %source% -o %dest%
TOC of the extracted CD
Track | Start | Length | Start sector | End sector
---------------------------------------------------------
1 | 0:00.00 | 3:12.39 | 0 | 14438
2 | 3:12.39 | 4:11.18 | 14439 | 33281
3 | 7:23.57 | 4:00.69 | 33282 | 51350
4 | 11:24.51 | 3:40.68 | 51351 | 67918
Track 1
Filename C:\Users\Julien\Music\Selah.Sue\CD2\01 - Gotta make it last.wav
Pre-gap length 0:00:02.00
Peak level 98.8 %
Extraction speed 1.0 X
Track quality 100.0 %
Test CRC 4075CECD
Copy CRC 4075CECD
Track not present in AccurateRip database
Copy OK
Track 2
Filename C:\Users\Julien\Music\Selah.Sue\CD2\02 - Stand back.wav
Pre-gap length 0:00:01.49
Peak level 98.8 %
Extraction speed 1.2 X
Track quality 100.0 %
Test CRC 3AF1AE89
Copy CRC 3AF1AE89
Track not present in AccurateRip database
Copy OK
Track 3
Filename C:\Users\Julien\Music\Selah.Sue\CD2\03 - Direction.wav
Pre-gap length 0:00:02.88
Peak level 98.8 %
Extraction speed 1.3 X
Track quality 100.0 %
Test CRC C006971A
Copy CRC C006971A
Track not present in AccurateRip database
Copy OK
Track 4
Filename C:\Users\Julien\Music\Selah.Sue\CD2\04 - Alone (acoustic version).wav
Pre-gap length 0:00:02.20
Peak level 98.8 %
Extraction speed 1.4 X
Track quality 100.0 %
Test CRC BCB1A5C7
Copy CRC BCB1A5C7
Track not present in AccurateRip database
Copy OK
None of the tracks are present in the AccurateRip database
No errors occurred
End of status report
---- CUETools DB Plugin V2.1.3
[CTDB TOCID: 8WK0137NU7ZcRgwVZJ3b1I7pa3E-] found, Submit result: 8WK0137NU7ZcRgwVZJ3b1I7pa3E- has been confirmed
[dbcb32c4] (4/4) Accurately ripped
==== Log checksum E3662DE5914EBA2FAE1C4BF9DE256F77A48098A99F1DB2FDAD6D6EFC9F2995A8 ====
------------------------------------------------------------
Exact Audio Copy V1.0 beta 3 from 29. August 2011
EAC extraction logfile from 29. March 2015, 0:19
Selah Sue / Reason (bonus tracks)
Used drive : hp CDDVDW SN-208DB Adapter: 0 ID: 0
Read mode : Secure
Utilize accurate stream : Yes
Defeat audio cache : Yes
Make use of C2 pointers : No
Read offset correction : 6
Overread into Lead-In and Lead-Out : No
Fill up missing offset samples with silence : Yes
Delete leading and trailing silent blocks : No
Null samples used in CRC calculations : Yes
Used interface : Native Win32 interface for Win NT & 2000
Gap handling : Appended to previous track
Used output format : User Defined Encoder
Selected bitrate : 1024 kBit/s
Quality : High
Add ID3 tag : No
Command line compressor : C:\Program Files (x86)\Exact Audio Copy\Flac\flac.exe
Additional command line options : -8 -V -T "ARTIST=%artist%" -T "TITLE=%title%" -T "ALBUM=%albumtitle%" -T "DATE=%year%" -T "TRACKNUMBER=%tracknr%" -T "GENRE=%genre%" -T "PERFORMER=%albuminterpret%" -T "COMPOSER=%composer%" %haslyrics%--tag-from-file=LYRICS="%lyricsfile%"%haslyrics% -T "ALBUMARTIST=%albumartist%" -T "DISCNUMBER=%cdnumber%" -T "TOTALDISCS=%totalcds%" -T "TOTALTRACKS=%numtracks%" -T "COMMENT=%comment%" %source% -o %dest%
TOC of the extracted CD
Track | Start | Length | Start sector | End sector
---------------------------------------------------------
1 | 0:00.00 | 3:12.39 | 0 | 14438
2 | 3:12.39 | 4:11.18 | 14439 | 33281
3 | 7:23.57 | 4:00.69 | 33282 | 51350
4 | 11:24.51 | 3:40.68 | 51351 | 67918
Track 1
Filename C:\Users\Julien\Music\Selah.Sue\CD2\01 - Gotta make it last.wav
Pre-gap length 0:00:02.00
Peak level 98.8 %
Extraction speed 1.0 X
Track quality 100.0 %
Test CRC 4075CECD
Copy CRC 4075CECD
Track not present in AccurateRip database
Copy OK
Track 2
Filename C:\Users\Julien\Music\Selah.Sue\CD2\02 - Stand back.wav
Pre-gap length 0:00:01.49
Peak level 98.8 %
Extraction speed 1.2 X
Track quality 100.0 %
Test CRC 3AF1AE89
Copy CRC 3AF1AE89
Track not present in AccurateRip database
Copy OK
Track 3
Filename C:\Users\Julien\Music\Selah.Sue\CD2\03 - Direction.wav
Pre-gap length 0:00:02.88
Peak level 98.8 %
Extraction speed 1.3 X
Track quality 100.0 %
Test CRC C006971A
Copy CRC C006971A
Track not present in AccurateRip database
Copy OK
Track 4
Filename C:\Users\Julien\Music\Selah.Sue\CD2\04 - Alone (acoustic version).wav
Pre-gap length 0:00:02.20
Peak level 98.8 %
Extraction speed 1.4 X
Track quality 100.0 %
Test CRC BCB1A5C7
Copy CRC BCB1A5C7
Track not present in AccurateRip database
Copy OK
None of the tracks are present in the AccurateRip database
No errors occurred
End of status report
---- CUETools DB Plugin V2.1.3
[CTDB TOCID: 8WK0137NU7ZcRgwVZJ3b1I7pa3E-] found, Submit result: 8WK0137NU7ZcRgwVZJ3b1I7pa3E- has been confirmed
[dbcb32c4] (4/4) Accurately ripped
==== Log checksum DFB7A03872BEA5206DFBD8E8F8195558CA8579F4AF751D9E5FC8711D0B8D4850 ====
 
Содержание индексной карты (.CUE)
 
CD1
REM GENRE Pop
REM DATE 2015
REM DISCID 9C0B890D
REM COMMENT "ExactAudioCopy v1.0b3"
CATALOG 5060421560717
PERFORMER "Selah Sue"
TITLE "Reason"
FILE "01 - Selah Sue - Alone.wav" WAVE
TRACK 01 AUDIO
TITLE "Alone"
PERFORMER "Selah Sue"
ISRC FR6P11402500
INDEX 01 00:00:00
FILE "02 - Selah Sue - I won't go for more.wav" WAVE
TRACK 02 AUDIO
TITLE "I won't go for more"
PERFORMER "Selah Sue"
ISRC FR6P11500070
INDEX 01 00:00:00
TRACK 03 AUDIO
TITLE "Reason"
PERFORMER "Selah Sue"
ISRC FR6P11500080
INDEX 00 04:18:63
FILE "03 - Selah Sue - Reason.wav" WAVE
INDEX 01 00:00:00
TRACK 04 AUDIO
TITLE "Together"
PERFORMER "Selah Sue (feat Childish Gambino)"
ISRC FR6P11402510
INDEX 00 03:18:54
FILE "04 - Selah Sue (feat Childish Gambino) - Together.wav" WAVE
INDEX 01 00:00:00
TRACK 05 AUDIO
TITLE "Alive"
PERFORMER "Selah Sue"
ISRC FR6P11500090
INDEX 00 03:19:38
FILE "05 - Selah Sue - Alive.wav" WAVE
INDEX 01 00:00:00
TRACK 06 AUDIO
TITLE "The light"
PERFORMER "Selah Sue"
ISRC FR6P11500100
INDEX 00 03:40:38
FILE "06 - Selah Sue - The light.wav" WAVE
INDEX 01 00:00:00
TRACK 07 AUDIO
TITLE "Fear nothing"
PERFORMER "Selah Sue"
ISRC FR6P11500110
INDEX 00 03:44:25
FILE "07 - Selah Sue - Fear nothing.wav" WAVE
INDEX 01 00:00:00
TRACK 08 AUDIO
TITLE "Daddy"
PERFORMER "Selah Sue"
ISRC FR6P11500140
INDEX 00 03:23:26
FILE "08 - Selah Sue - Daddy.wav" WAVE
INDEX 01 00:00:00
FILE "09 - Selah Sue - Sadness.wav" WAVE
TRACK 09 AUDIO
TITLE "Sadness"
PERFORMER "Selah Sue"
ISRC FR6P11500150
INDEX 01 00:00:00
TRACK 10 AUDIO
TITLE "Feel"
PERFORMER "Selah Sue"
ISRC FR6P11500130
INDEX 00 04:00:14
FILE "10 - Selah Sue - Feel.wav" WAVE
INDEX 01 00:00:00
TRACK 11 AUDIO
TITLE "Right where I want you"
PERFORMER "Selah Sue"
ISRC FR6P11500180
INDEX 00 03:38:11
FILE "11 - Selah Sue - Right where I want you.wav" WAVE
INDEX 01 00:00:00
TRACK 12 AUDIO
TITLE "Always home"
PERFORMER "Selah Sue"
ISRC FR6P11500160
INDEX 00 03:30:26
FILE "12 - Selah Sue - Always home.wav" WAVE
INDEX 01 00:00:00
TRACK 13 AUDIO
TITLE "Falling out"
PERFORMER "Selah Sue"
ISRC FR6P11500170
INDEX 00 04:17:11
FILE "13 - Selah Sue - Falling out.wav" WAVE
INDEX 01 00:00:00
 
CD2
REM GENRE Pop
REM DATE 2015
REM DISCID 31038904
REM COMMENT "ExactAudioCopy v1.0b3"
CATALOG 5060421560717
PERFORMER "Selah Sue"
TITLE "Reason (bonus tracks)"
FILE "01 - Gotta make it last.wav" WAVE
TRACK 01 AUDIO
TITLE "Gotta make it last"
PERFORMER "Selah Sue"
ISRC FR6P11500120
INDEX 01 00:00:00
TRACK 02 AUDIO
TITLE "Stand back"
PERFORMER "Selah Sue"
ISRC FR6P11500190
INDEX 00 03:11:02
FILE "02 - Stand back.wav" WAVE
INDEX 01 00:00:00
TRACK 03 AUDIO
TITLE "Direction"
PERFORMER "Selah Sue"
ISRC FR6P11500340
INDEX 00 04:08:27
FILE "03 - Direction.wav" WAVE
INDEX 01 00:00:00
TRACK 04 AUDIO
TITLE "Alone (acoustic version)"
PERFORMER "Selah Sue"
ISRC FR6P11500350
INDEX 00 03:58:54
FILE "04 - Alone (acoustic version).wav" WAVE
INDEX 01 00:00:00
Приватный:
Нет (DHT включён)
Размер:
406.88 Мб (426,649,583 байт) » файлов: 29
Участники:
0 раздают, 0 качают (0 участников всего)
Внешние участники:
5 раздают, 2 качают (7 участников всего) [ Обновить ]
Есть вопросы - пишите личное сообщение пользователю M0p94ok.
05:01
81
Нет комментариев. Ваш будет первым!