Поиск

(Funk / Soul) [2xCD] Average White Band - AWB - 2003, FLAC (tracks+.cue), lossless

(Funk / Soul) [2xCD] Average White Band - AWB - 2003, FLAC (tracks+.cue), lossless
Треклист:
Average White Band / AWB
Жанр: Funk / Soul
Носитель: CD
Год издания: 2003
Издатель (лейбл): Columbia
Номер по каталогу: 513413 2
Аудиокодек: FLAC (*.flac)
Тип рипа: tracks+.cue
Битрейт аудио: lossless
Продолжительность: 01:21:51
Источник (релизер): what.cd
Наличие сканов в содержимом раздачи: да
Треклист:
CD 1
01. Average White Band - You Got It [03:36]
02. Average White Band - Got The Love [03:54]
03. Average White Band - Pick Up The Pieces [04:01]
04. Average White Band - Person To Person [03:42]
05. Average White Band - Work To Do [04:25]
06. Average White Band - Nothing You Can Do [04:11]
07. Average White Band - Just Wanna Love You Tonight [04:01]
08. Average White Band - Keepin' It To Myself [04:04]
09. Average White Band - I Just Can't Give You Up [03:33]
10. Average White Band - There's Always Someone Waiting [05:37]
CD 2
01. Average White Band - Person To Person [03:30]
02. Average White Band - Keepin' It To Myself [03:16]
03. Average White Band - There's Always Someone Waiting [05:09]
04. Average White Band - McEwan's Export [04:54]
05. Average White Band - Got The Love [03:50]
06. Average White Band - Work To Do [03:50]
07. Average White Band - Just Want To Love You Tonight [04:50]
08. Average White Band - Pick Up The Pieces [04:02]
09. Average White Band - I Just Can't Give You Up [03:49]
10. Average White Band - How Sweet Can You Get (Mark 1) [03:47]
 
logs and sheets
 
Log EAC CD 1
Exact Audio Copy V1.0 beta 1 from 15. November 2010
EAC extraction logfile from 14. February 2015, 14:36
Average White Band / AWB (CD1)
Used drive : TSSTcorpCDDVDW SH-224DB Adapter: 1 ID: 0
Read mode : Secure
Utilize accurate stream : Yes
Defeat audio cache : Yes
Make use of C2 pointers : No
Read offset correction : 6
Overread into Lead-In and Lead-Out : No
Fill up missing offset samples with silence : Yes
Delete leading and trailing silent blocks : No
Null samples used in CRC calculations : Yes
Used interface : Native Win32 interface for Win NT & 2000
Gap handling : Appended to previous track
Used output format : User Defined Encoder
Selected bitrate : 896 kBit/s
Quality : High
Add ID3 tag : No
Command line compressor : C:\Program Files\Exact Audio Copy\Flac\flac.exe
Additional command line options : -6 -V -T "ARTIST=%a" -T "TITLE=%t" -T "ALBUM=%g" -T "DATE=%y" -T "TRACKNUMBER=%n" -T "GENRE=%m" -T "COMMENT=%e" %s -o %d
TOC of the extracted CD
Track | Start | Length | Start sector | End sector
---------------------------------------------------------
1 | 0:00.00 | 3:35.67 | 0 | 16191
2 | 3:35.67 | 3:53.03 | 16192 | 33669
3 | 7:28.70 | 4:00.57 | 33670 | 51726
4 | 11:29.52 | 3:41.48 | 51727 | 68349
5 | 15:11.25 | 4:24.25 | 68350 | 88174
6 | 19:35.50 | 4:10.55 | 88175 | 106979
7 | 23:46.30 | 4:00.55 | 106980 | 125034
8 | 27:47.10 | 4:03.40 | 125035 | 143299
9 | 31:50.50 | 3:32.37 | 143300 | 159236
10 | 35:23.12 | 5:36.30 | 159237 | 184466
Track 1
Filename C:\New Folder\01 - You Got It.wav
Pre-gap length 0:00:02.00
Peak level 99.8 %
Extraction speed 1.7 X
Track quality 100.0 %
Test CRC 646033BD
Copy CRC 646033BD
Accurately ripped (confidence 5) [354238E5]
Copy OK
Track 2
Filename C:\New Folder\02 - Got The Love.wav
Peak level 99.8 %
Extraction speed 1.8 X
Track quality 100.0 %
Test CRC DEC6E59F
Copy CRC DEC6E59F
Accurately ripped (confidence 5) [6CA558B9]
Copy OK
Track 3
Filename C:\New Folder\03 - Pick Up The Pieces.wav
Peak level 99.8 %
Extraction speed 1.8 X
Track quality 99.9 %
Test CRC 80E5B1DD
Copy CRC 80E5B1DD
Accurately ripped (confidence 5) [CF7858C2]
Copy OK
Track 4
Filename C:\New Folder\04 - Person To Person.wav
Peak level 98.8 %
Extraction speed 2.2 X
Track quality 100.0 %
Test CRC 3E12372F
Copy CRC 3E12372F
Accurately ripped (confidence 4) [6B2E8D5D]
Copy OK
Track 5
Filename C:\New Folder\05 - Work To Do.wav
Peak level 97.7 %
Extraction speed 2.0 X
Track quality 99.9 %
Test CRC F0111B92
Copy CRC F0111B92
Accurately ripped (confidence 5) [9C58A74C]
Copy OK
Track 6
Filename C:\New Folder\06 - Nothing You Can Do.wav
Peak level 99.8 %
Extraction speed 2.1 X
Track quality 99.9 %
Test CRC BEF6FC1C
Copy CRC BEF6FC1C
Accurately ripped (confidence 4) [7EF9C45C]
Copy OK
Track 7
Filename C:\New Folder\07 - Just Wanna Love You Tonight.wav
Peak level 99.8 %
Extraction speed 2.1 X
Track quality 99.9 %
Test CRC 2E9D32EA
Copy CRC 2E9D32EA
Accurately ripped (confidence 4) [EE9809B3]
Copy OK
Track 8
Filename C:\New Folder\08 - Keepin' It To Myself.wav
Peak level 99.8 %
Extraction speed 2.8 X
Track quality 100.0 %
Test CRC CC4AF416
Copy CRC CC4AF416
Accurately ripped (confidence 5) [EF845CA1]
Copy OK
Track 9
Filename C:\New Folder\09 - I Just Can't Give You Up.wav
Peak level 99.8 %
Extraction speed 2.2 X
Track quality 99.9 %
Test CRC F210E65A
Copy CRC F210E65A
Accurately ripped (confidence 4) [97339C80]
Copy OK
Track 10
Filename C:\New Folder\10 - There's Always Someone Waiting.wav
Peak level 99.8 %
Extraction speed 2.7 X
Track quality 99.9 %
Test CRC 25361C4C
Copy CRC 25361C4C
Accurately ripped (confidence 4) [7DDEC0B1]
Copy OK
All tracks accurately ripped
No errors occurred
End of status report
==== Log checksum 4A527AAD879B9F3DBA1045FAA354AF20BF58E97AE54BB6CBDB4E807C01401CF8 ====
 
cue CD 1
REM GENRE R&B
REM DATE 1974
REM DISCID 7E099B0A
REM COMMENT "ExactAudioCopy v1.0b1"
PERFORMER "Average White Band"
TITLE "AWB (CD1)"
FILE "01 - You Got It.wav" WAVE
TRACK 01 AUDIO
TITLE "You Got It"
PERFORMER "Average White Band"
INDEX 01 00:00:00
FILE "02 - Got The Love.wav" WAVE
TRACK 02 AUDIO
TITLE "Got The Love"
PERFORMER "Average White Band"
INDEX 01 00:00:00
FILE "03 - Pick Up The Pieces.wav" WAVE
TRACK 03 AUDIO
TITLE "Pick Up The Pieces"
PERFORMER "Average White Band"
INDEX 01 00:00:00
FILE "04 - Person To Person.wav" WAVE
TRACK 04 AUDIO
TITLE "Person To Person"
PERFORMER "Average White Band"
INDEX 01 00:00:00
FILE "05 - Work To Do.wav" WAVE
TRACK 05 AUDIO
TITLE "Work To Do"
PERFORMER "Average White Band"
INDEX 01 00:00:00
FILE "06 - Nothing You Can Do.wav" WAVE
TRACK 06 AUDIO
TITLE "Nothing You Can Do"
PERFORMER "Average White Band"
INDEX 01 00:00:00
FILE "07 - Just Wanna Love You Tonight.wav" WAVE
TRACK 07 AUDIO
TITLE "Just Wanna Love You Tonight"
PERFORMER "Average White Band"
INDEX 01 00:00:00
FILE "08 - Keepin' It To Myself.wav" WAVE
TRACK 08 AUDIO
TITLE "Keepin' It To Myself"
PERFORMER "Average White Band"
INDEX 01 00:00:00
FILE "09 - I Just Can't Give You Up.wav" WAVE
TRACK 09 AUDIO
TITLE "I Just Can't Give You Up"
PERFORMER "Average White Band"
INDEX 01 00:00:00
FILE "10 - There's Always Someone Waiting.wav" WAVE
TRACK 10 AUDIO
TITLE "There's Always Someone Waiting"
PERFORMER "Average White Band"
INDEX 01 00:00:00
 
Log EAC CD 2
Exact Audio Copy V1.0 beta 1 from 15. November 2010
EAC extraction logfile from 14. February 2015, 20:28
Average White Band / AWB (CD2)
Used drive : TSSTcorpCDDVDW SH-224DB Adapter: 1 ID: 0
Read mode : Secure
Utilize accurate stream : Yes
Defeat audio cache : Yes
Make use of C2 pointers : No
Read offset correction : 6
Overread into Lead-In and Lead-Out : No
Fill up missing offset samples with silence : Yes
Delete leading and trailing silent blocks : No
Null samples used in CRC calculations : Yes
Used interface : Native Win32 interface for Win NT & 2000
Gap handling : Appended to previous track
Used output format : User Defined Encoder
Selected bitrate : 896 kBit/s
Quality : High
Add ID3 tag : No
Command line compressor : C:\Program Files\Exact Audio Copy\Flac\flac.exe
Additional command line options : -6 -V -T "ARTIST=%a" -T "TITLE=%t" -T "ALBUM=%g" -T "DATE=%y" -T "TRACKNUMBER=%n" -T "GENRE=%m" -T "COMMENT=%e" %s -o %d
TOC of the extracted CD
Track | Start | Length | Start sector | End sector
---------------------------------------------------------
1 | 0:00.00 | 3:29.33 | 0 | 15707
2 | 3:29.33 | 3:15.40 | 15708 | 30372
3 | 6:44.73 | 5:08.10 | 30373 | 53482
4 | 11:53.08 | 4:53.61 | 53483 | 75518
5 | 16:46.69 | 3:49.01 | 75519 | 92694
6 | 20:35.70 | 3:49.37 | 92695 | 109906
7 | 24:25.32 | 4:49.39 | 109907 | 131620
8 | 29:14.71 | 4:01.57 | 131621 | 149752
9 | 33:16.53 | 3:48.26 | 149753 | 166878
10 | 37:05.04 | 3:46.10 | 166879 | 183838
Track 1
Filename C:\New Folder\01 - Person To Person.wav
Pre-gap length 0:00:02.00
Peak level 98.6 %
Extraction speed 1.7 X
Track quality 100.0 %
Test CRC 98F68DD8
Copy CRC 98F68DD8
Accurately ripped (confidence 4) [B82EAF5D]
Copy OK
Track 2
Filename C:\New Folder\02 - Keepin' It To Myself.wav
Pre-gap length 0:00:02.00
Peak level 98.7 %
Extraction speed 1.8 X
Track quality 100.0 %
Test CRC 5F5460F3
Copy CRC 5F5460F3
Accurately ripped (confidence 4) [D8BC01D7]
Copy OK
Track 3
Filename C:\New Folder\03 - There's Always Someone Waiting.wav
Pre-gap length 0:00:02.00
Peak level 98.5 %
Extraction speed 1.9 X
Track quality 99.9 %
Test CRC 487C9D09
Copy CRC 487C9D09
Accurately ripped (confidence 4) [70EE31BD]
Copy OK
Track 4
Filename C:\New Folder\04 - McEwan's Export.wav
Pre-gap length 0:00:02.00
Peak level 98.8 %
Extraction speed 2.3 X
Track quality 100.0 %
Test CRC 16C067B9
Copy CRC 16C067B9
Accurately ripped (confidence 4) [DF40163B]
Copy OK
Track 5
Filename C:\New Folder\05 - Got The Love.wav
Pre-gap length 0:00:02.00
Peak level 98.8 %
Extraction speed 2.4 X
Track quality 100.0 %
Test CRC 63EBA753
Copy CRC 63EBA753
Accurately ripped (confidence 4) [34A3948A]
Copy OK
Track 6
Filename C:\New Folder\06 - Work To Do.wav
Pre-gap length 0:00:02.00
Peak level 95.4 %
Extraction speed 2.5 X
Track quality 100.0 %
Test CRC AD06F355
Copy CRC AD06F355
Accurately ripped (confidence 4) [EDEC5CE1]
Copy OK
Track 7
Filename C:\New Folder\07 - Just Want To Love You Tonight.wav
Pre-gap length 0:00:02.00
Peak level 98.5 %
Extraction speed 2.7 X
Track quality 100.0 %
Test CRC 78FA5AED
Copy CRC 78FA5AED
Accurately ripped (confidence 4) [C5C1D279]
Copy OK
Track 8
Filename C:\New Folder\08 - Pick Up The Pieces.wav
Pre-gap length 0:00:02.00
Peak level 98.6 %
Extraction speed 2.3 X
Track quality 99.9 %
Test CRC D81A3E83
Copy CRC D81A3E83
Accurately ripped (confidence 4) [2D0481B7]
Copy OK
Track 9
Filename C:\New Folder\09 - I Just Can't Give You Up.wav
Pre-gap length 0:00:02.00
Peak level 98.6 %
Extraction speed 2.9 X
Track quality 100.0 %
Test CRC 38DFD1A3
Copy CRC 38DFD1A3
Accurately ripped (confidence 4) [4ECA855E]
Copy OK
Track 10
Filename C:\New Folder\10 - How Sweet Can You Get (Mark 1).wav
Pre-gap length 0:00:02.00
Peak level 98.5 %
Extraction speed 2.4 X
Track quality 99.9 %
Test CRC 5DA56F13
Copy CRC 5DA56F13
Accurately ripped (confidence 4) [6626B9C3]
Copy OK
All tracks accurately ripped
No errors occurred
End of status report
==== Log checksum DA60DCDABD241F2CE9C80DCD5F3D6111D6EAB5E72A11DC2B07CDCA35652C2FB5 ====
 
cue CD 2
REM GENRE Soul
REM DATE 1974
REM DISCID 8009930A
REM COMMENT "ExactAudioCopy v1.0b1"
PERFORMER "Average White Band"
TITLE "AWB (CD2)"
FILE "01 - Person To Person.wav" WAVE
TRACK 01 AUDIO
TITLE "Person To Person"
PERFORMER "Average White Band"
INDEX 01 00:00:00
TRACK 02 AUDIO
TITLE "Keepin' It To Myself"
PERFORMER "Average White Band"
INDEX 00 03:27:33
FILE "02 - Keepin' It To Myself.wav" WAVE
INDEX 01 00:00:00
TRACK 03 AUDIO
TITLE "There's Always Someone Waiting"
PERFORMER "Average White Band"
INDEX 00 03:13:40
FILE "03 - There's Always Someone Waiting.wav" WAVE
INDEX 01 00:00:00
TRACK 04 AUDIO
TITLE "McEwan's Export"
PERFORMER "Average White Band"
INDEX 00 05:06:10
FILE "04 - McEwan's Export.wav" WAVE
INDEX 01 00:00:00
TRACK 05 AUDIO
TITLE "Got The Love"
PERFORMER "Average White Band"
INDEX 00 04:51:61
FILE "05 - Got The Love.wav" WAVE
INDEX 01 00:00:00
TRACK 06 AUDIO
TITLE "Work To Do"
PERFORMER "Average White Band"
INDEX 00 03:47:01
FILE "06 - Work To Do.wav" WAVE
INDEX 01 00:00:00
TRACK 07 AUDIO
TITLE "Just Want To Love You Tonight"
PERFORMER "Average White Band"
INDEX 00 03:47:37
FILE "07 - Just Want To Love You Tonight.wav" WAVE
INDEX 01 00:00:00
TRACK 08 AUDIO
TITLE "Pick Up The Pieces"
PERFORMER "Average White Band"
INDEX 00 04:47:39
FILE "08 - Pick Up The Pieces.wav" WAVE
INDEX 01 00:00:00
TRACK 09 AUDIO
TITLE "I Just Can't Give You Up"
PERFORMER "Average White Band"
INDEX 00 03:59:57
FILE "09 - I Just Can't Give You Up.wav" WAVE
INDEX 01 00:00:00
TRACK 10 AUDIO
TITLE "How Sweet Can You Get (Mark 1)"
PERFORMER "Average White Band"
INDEX 00 03:46:26
FILE "10 - How Sweet Can You Get (Mark 1).wav" WAVE
INDEX 01 00:00:00
Приватный:
Нет (DHT включён)
Размер:
618.24 Мб (648,275,125 байт) » файлов: 43
Участники:
0 раздают, 0 качают (0 участников всего)
Внешние участники:
5 раздают, 1 качают (6 участников всего) [ Обновить ]
No seeders - write a personal message to user M0p94ok. Нет сидеров - пишите личное сообщение пользователю M0p94ok.
05:02
73
Нет комментариев. Ваш будет первым!