Поиск

(Jazz Funk, Soul) [CD] Gege' Telesforo - Nu Joy - 2012, FLAC (tracks+.cue), lossless

(Jazz Funk, Soul) [CD] Gege' Telesforo - Nu Joy - 2012, FLAC (tracks+.cue), lossless
Треклист:
Gege' Telesforo / Nu Joy
Жанр: Jazz Funk, Soul
Носитель: CD
Год издания: 2012
Издатель (лейбл): Columbia
Номер по каталогу: 88765425822
Аудиокодек: FLAC (*.flac)
Тип рипа: tracks+.cue
Битрейт аудио: lossless
Продолжительность: 49:54
Источник (релизер): получено по обмену
Наличие сканов в содержимом раздачи: да
Треклист:
01. Gege' Telesforo - Go on [03:59]
02. Gege' Telesforo - A new joy [04:46]
03. Gege' Telesforo - All I have to say [04:32]
04. Gege' Telesforo - Last goodbye [04:09]
05. Gege' Telesforo - Give me your hands [04:08]
06. Gege' Telesforo - Available for wedding [05:41]
07. Gege' Telesforo - Diamonds [04:52]
08. Gege' Telesforo - No woman no cry [06:07]
09. Gege' Telesforo - Jojo step [04:49]
10. Gege' Telesforo - Stronzo [03:11]
11. Gege' Telesforo - I...(wanna get happy) [03:44]
 
Лог создания рипа
Exact Audio Copy V1.0 beta 3 from 29. August 2011
EAC extraction logfile from 20. July 2014, 10:35
Gege' Telesforo / Nu Joy
Used drive : HL-DT-STDVD-ROM GDR8161B Adapter: 4 ID: 1
Read mode : Secure
Utilize accurate stream : Yes
Defeat audio cache : Yes
Make use of C2 pointers : No
Read offset correction : 102
Overread into Lead-In and Lead-Out : No
Fill up missing offset samples with silence : Yes
Delete leading and trailing silent blocks : No
Null samples used in CRC calculations : Yes
Used interface : Installed external ASPI interface
Gap handling : Appended to previous track
Used output format : User Defined Encoder
Selected bitrate : 896 kBit/s
Quality : High
Add ID3 tag : No
Command line compressor : C:\Program Files (x86)\Exact Audio Copy\Flac\flac.exe
Additional command line options : -8 -V -T "ARTIST=%artist%" -T "TITLE=%title%" -T "ALBUM=%albumtitle%" -T "DATE=%year%" -T "TRACKNUMBER=%tracknr%" -T "TOTALTRACKS=%numtracks%" -T "GENRE=%genre%" -T "ALBUMARTIST=%albumartist%" -T "ALBUM ARTIST=%albumartist%" -T "COMMENT=EAC Secure Mode, Test & Copy, AccurateRip, FLAC -8" %source%
TOC of the extracted CD
Track | Start | Length | Start sector | End sector
---------------------------------------------------------
1 | 0:00.00 | 3:58.54 | 0 | 17903
2 | 3:58.54 | 4:45.59 | 17904 | 39337
3 | 8:44.38 | 4:31.26 | 39338 | 59688
4 | 13:15.64 | 4:08.48 | 59689 | 78336
5 | 17:24.37 | 4:07.55 | 78337 | 96916
6 | 21:32.17 | 5:40.53 | 96917 | 122469
7 | 27:12.70 | 4:51.16 | 122470 | 144310
8 | 32:04.11 | 6:06.07 | 144311 | 171767
9 | 38:10.18 | 4:48.53 | 171768 | 193420
10 | 42:58.71 | 3:10.22 | 193421 | 207692
11 | 46:09.18 | 3:43.71 | 207693 | 224488
Track 1
Filename C:\Users\Public\Documents\01 - Go on.wav
Pre-gap length 0:00:02.00
Peak level 99.9 %
Extraction speed 4.3 X
Track quality 99.9 %
Test CRC 3FDEC4E6
Copy CRC 3FDEC4E6
Track not present in AccurateRip database
Copy OK
Track 2
Filename C:\Users\Public\Documents\02 - A new joy.wav
Peak level 99.9 %
Extraction speed 5.8 X
Track quality 100.0 %
Test CRC 12171A10
Copy CRC 12171A10
Track not present in AccurateRip database
Copy OK
Track 3
Filename C:\Users\Public\Documents\03 - All I have to say.wav
Peak level 99.9 %
Extraction speed 6.3 X
Track quality 100.0 %
Test CRC EDD648B9
Copy CRC EDD648B9
Track not present in AccurateRip database
Copy OK
Track 4
Filename C:\Users\Public\Documents\04 - Last goodbye.wav
Peak level 99.9 %
Extraction speed 5.8 X
Track quality 99.9 %
Test CRC D5192BBD
Copy CRC D5192BBD
Track not present in AccurateRip database
Copy OK
Track 5
Filename C:\Users\Public\Documents\05 - Give me your hands.wav
Peak level 99.9 %
Extraction speed 7.0 X
Track quality 100.0 %
Test CRC 88A829A0
Copy CRC 88A829A0
Track not present in AccurateRip database
Copy OK
Track 6
Filename C:\Users\Public\Documents\06 - Available for wedding.wav
Peak level 99.9 %
Extraction speed 7.8 X
Track quality 100.0 %
Test CRC 228B9DF3
Copy CRC 228B9DF3
Track not present in AccurateRip database
Copy OK
Track 7
Filename C:\Users\Public\Documents\07 - Diamonds.wav
Peak level 99.9 %
Extraction speed 8.1 X
Track quality 100.0 %
Test CRC 76980E62
Copy CRC 76980E62
Track not present in AccurateRip database
Copy OK
Track 8
Filename C:\Users\Public\Documents\08 - No woman no cry.wav
Peak level 100.0 %
Extraction speed 8.7 X
Track quality 100.0 %
Test CRC 10E8C6E3
Copy CRC 10E8C6E3
Track not present in AccurateRip database
Copy OK
Track 9
Filename C:\Users\Public\Documents\09 - Jojo step.wav
Peak level 99.9 %
Extraction speed 8.9 X
Track quality 100.0 %
Test CRC 86AD379A
Copy CRC 86AD379A
Track not present in AccurateRip database
Copy OK
Track 10
Filename C:\Users\Public\Documents\10 - Stronzo.wav
Peak level 99.9 %
Extraction speed 8.7 X
Track quality 100.0 %
Test CRC 47C53B8C
Copy CRC 47C53B8C
Track not present in AccurateRip database
Copy OK
Track 11
Filename C:\Users\Public\Documents\11 - I...(wanna get happy).wav
Peak level 99.9 %
Extraction speed 9.1 X
Track quality 100.0 %
Test CRC CAC39AAC
Copy CRC CAC39AAC
Track not present in AccurateRip database
Copy OK
None of the tracks are present in the AccurateRip database
No errors occurred
End of status report
==== Log checksum EC06C83F4BEB0C51FE9414EBB61ABDAB0E2C2C4535193CFB81CC37889D7B502F ====
 
Содержание индексной карты (.CUE)
REM GENRE Vocal
REM DATE 2012
REM DISCID 960BB10B
REM COMMENT "ExactAudioCopy v1.0b3"
PERFORMER "Gege' Telesforo"
TITLE "Nu Joy"
FILE "01 - Go on.wav" WAVE
TRACK 01 AUDIO
TITLE "Go on"
PERFORMER "Gege' Telesforo"
INDEX 01 00:00:00
FILE "02 - A new joy.wav" WAVE
TRACK 02 AUDIO
TITLE "A new joy"
PERFORMER "Gege' Telesforo"
INDEX 01 00:00:00
FILE "03 - All I have to say.wav" WAVE
TRACK 03 AUDIO
TITLE "All I have to say"
PERFORMER "Gege' Telesforo"
INDEX 01 00:00:00
FILE "04 - Last goodbye.wav" WAVE
TRACK 04 AUDIO
TITLE "Last goodbye"
PERFORMER "Gege' Telesforo"
INDEX 01 00:00:00
FILE "05 - Give me your hands.wav" WAVE
TRACK 05 AUDIO
TITLE "Give me your hands"
PERFORMER "Gege' Telesforo"
INDEX 01 00:00:00
FILE "06 - Available for wedding.wav" WAVE
TRACK 06 AUDIO
TITLE "Available for wedding"
PERFORMER "Gege' Telesforo"
INDEX 01 00:00:00
FILE "07 - Diamonds.wav" WAVE
TRACK 07 AUDIO
TITLE "Diamonds"
PERFORMER "Gege' Telesforo"
INDEX 01 00:00:00
FILE "08 - No woman no cry.wav" WAVE
TRACK 08 AUDIO
TITLE "No woman no cry"
PERFORMER "Gege' Telesforo"
INDEX 01 00:00:00
FILE "09 - Jojo step.wav" WAVE
TRACK 09 AUDIO
TITLE "Jojo step"
PERFORMER "Gege' Telesforo"
INDEX 01 00:00:00
FILE "10 - Stronzo.wav" WAVE
TRACK 10 AUDIO
TITLE "Stronzo"
PERFORMER "Gege' Telesforo"
INDEX 01 00:00:00
FILE "11 - I...(wanna get happy).wav" WAVE
TRACK 11 AUDIO
TITLE "I...(wanna get happy)"
PERFORMER "Gege' Telesforo"
INDEX 01 00:00:00
Приватный:
Нет (DHT включён)
Размер:
358.52 Мб (375,932,561 байт) » файлов: 25
Участники:
0 раздают, 0 качают (0 участников всего)
Внешние участники:
5 раздают, 1 качают (6 участников всего) [ Обновить ]
Есть вопросы - пишите личное сообщение пользователю M0p94ok.
05:02
65
Нет комментариев. Ваш будет первым!