Поиск

(Fusion,Funk) [CD] Mezzoforte - Playing for Time (1989) - 1996, FLAC (image+.cue), lossless

(Fusion,Funk) [CD] Mezzoforte - Playing for Time (1989) - 1996, FLAC (image+.cue), lossless
Треклист:
Mezzoforte / Playing for Time (1989)
Жанр: Fusion,Funk
Носитель: CD
Год издания: 1996
Аудиокодек: FLAC (*.flac)
Тип рипа: image+.cue
Битрейт аудио: lossless
Продолжительность: 42:26
Источник (релизер): my disc
Наличие сканов в содержимом раздачи: да
Треклист:
01. Playing For Time [0:05:19.19]
02. Expressway [0:04:27.56]
03. Magic [0:04:57.06]
04. Take A Breath [0:05:17.54]
05. Prime Time [0:05:34.59]
06. Hitchhiker [0:03:59.36]
07. High Season [0:04:55.11]
08. Quick Step [0:04:10.62]
09. In A Word [0:03:43.63]
 
Лог создания рипа
Exact Audio Copy V1.0 beta 3 from 29. August 2011
Отчёт EAC об извлечении, выполненном 27. марта 2015, 22:27
Mezzoforte / Playing For Time
Дисковод: TSSTcorpCDDVDW SH-224DB Adapter: 1 ID: 0
Режим чтения : Достоверность
Использование точного потока : Да
Отключение кэша аудио : Да
Использование указателей C2 : Нет
Коррекция смещения при чтении : 6
Способность читать области Lead-in и Lead-out : Нет
Заполнение пропущенных сэмплов тишиной : Да
Удаление блоков с тишиной в начале и конце : Нет
При вычислениях CRC использовались нулевые сэмплы : Да
Интерфейс : Встроенный Win32-интерфейс для Win NT/2000
Выходной формат : Пользовательский кодировщик
Выбранный битрейт : 768 kBit/s
Качество : Высокий
Добавление ID3-тега : Нет
Утилита сжатия : C:\Program Files\Exact Audio Copy\Flac\flac.exe
Дополнительные параметры : -V -8 -T "Date=%year%" -T "Genre=%genre%" %source%
TOC извлечённого CD
Трек | Старт | Длительность | Начальный сектор | Конечный сектор
---------------------------------------------------------------------
1 | 0:00.00 | 5:19.19 | 0 | 23943
2 | 5:19.19 | 4:27.56 | 23944 | 44024
3 | 9:47.00 | 4:57.06 | 44025 | 66305
4 | 14:44.06 | 5:17.54 | 66306 | 90134
5 | 20:01.60 | 5:34.59 | 90135 | 115243
6 | 25:36.44 | 3:59.36 | 115244 | 133204
7 | 29:36.05 | 4:55.11 | 133205 | 155340
8 | 34:31.16 | 4:10.62 | 155341 | 174152
9 | 38:42.03 | 3:43.63 | 174153 | 190940
Характеристики диапазона извлечения и сообщения об ошибках
Выбранный диапазон
Имя файла D:\lo$$le$$\mezzoforte'89\Mezzoforte - Playing For Time.wav
Пиковый уровень 94.9 %
Скорость извлечения 7.0 X
Качество диапазона 100.0 %
CRC теста 361515E6
CRC копии 361515E6
Копирование... OK
Ошибок не произошло
Конец отчёта
==== Контрольная сумма отчёта 5C075C455AF7F94821A7D73FBE8BE52569318E3DF5676E3133919E68BE010C54 ====
 
Об исполнителе (группе)
 
Состав
Fridrik Karlsson:guitars
Eythor Gunnarsson:keyboards
Johann Asmundsson:bass,fretless bass
Gulli Briem:drums,percussion
Приватный:
Нет (DHT включён)
Размер:
257.69 Мб (270,210,802 байт) » файлов: 10
Участники:
0 раздают, 0 качают (0 участников всего)
Внешние участники:
1 раздают, 0 качают (1 участников всего) [ Обновить ]
Есть вопросы - пишите личное сообщение пользователю M0p94ok.
05:00
78
Нет комментариев. Ваш будет первым!