Поиск

(Fusion,Funk) [CD] Mezzoforte - Monkey - fields - 1996, FLAC (image+.cue), lossless

Треклист:
Mezzoforte / Monkey - fields
Жанр: Fusion,Funk
Носитель: CD
Год издания: 1996
Аудиокодек: FLAC (*.flac)
Тип рипа: image+.cue
Битрейт аудио: lossless
Продолжительность: 69:18
Источник (релизер): my disc
Наличие сканов в содержимом раздачи: да
Треклист:
01. Monkey Fields [0:06:12.12]
02. 1812 Premature [0:06:27.10]
03. Make It Funky [0:04:07.23]
04. Wee Ahh [0:05:18.17]
05. Drive [0:04:21.68]
06. Plan B [0:05:00.72]
07. Blow [0:04:28.15]
08. Step Right Back [0:04:57.73]
09. Funeral For A Mouse [0:05:21.40]
10. Tom Jam Blah [0:04:30.72]
11. The Squid [0:06:12.28]
12. Aurora [0:05:14.15]
13. Monkey Fields /Jam [0:07:05.32]
 
Лог создания рипа
Exact Audio Copy V1.0 beta 3 from 29. August 2011
Отчёт EAC об извлечении, выполненном 27. марта 2015, 18:49
Mezzoforte / Monkey - Fields
Дисковод: TSSTcorpCDDVDW SH-224DB Adapter: 1 ID: 0
Режим чтения : Достоверность
Использование точного потока : Да
Отключение кэша аудио : Да
Использование указателей C2 : Нет
Коррекция смещения при чтении : 6
Способность читать области Lead-in и Lead-out : Нет
Заполнение пропущенных сэмплов тишиной : Да
Удаление блоков с тишиной в начале и конце : Нет
При вычислениях CRC использовались нулевые сэмплы : Да
Интерфейс : Встроенный Win32-интерфейс для Win NT/2000
Выходной формат : Пользовательский кодировщик
Выбранный битрейт : 768 kBit/s
Качество : Высокий
Добавление ID3-тега : Нет
Утилита сжатия : C:\Program Files\Exact Audio Copy\Flac\flac.exe
Дополнительные параметры : -V -8 -T "Date=%year%" -T "Genre=%genre%" %source%
TOC извлечённого CD
Трек | Старт | Длительность | Начальный сектор | Конечный сектор
---------------------------------------------------------------------
1 | 0:00.00 | 6:12.12 | 0 | 27911
2 | 6:12.12 | 6:27.10 | 27912 | 56946
3 | 12:39.22 | 4:07.23 | 56947 | 75494
4 | 16:46.45 | 5:18.17 | 75495 | 99361
5 | 22:04.62 | 4:21.68 | 99362 | 119004
6 | 26:26.55 | 5:00.72 | 119005 | 141576
7 | 31:27.52 | 4:28.15 | 141577 | 161691
8 | 35:55.67 | 4:57.73 | 161692 | 184039
9 | 40:53.65 | 5:21.40 | 184040 | 208154
10 | 46:15.30 | 4:30.72 | 208155 | 228476
11 | 50:46.27 | 6:12.28 | 228477 | 256404
12 | 56:58.55 | 5:14.15 | 256405 | 279969
13 | 62:12.70 | 7:05.32 | 279970 | 311876
Характеристики диапазона извлечения и сообщения об ошибках
Выбранный диапазон
Имя файла D:\lo$$le$$\mezzoforte'96\Mezzoforte - Monkey - Fields.wav
Пиковый уровень 100.0 %
Скорость извлечения 8.3 X
Качество диапазона 100.0 %
CRC теста CE01071B
CRC копии CE01071B
Копирование... OK
Ошибок не произошло
Конец отчёта
==== Контрольная сумма отчёта 9D5CA0593A38999C0FB556EB3EC5182761AAEAB3984712C918BD726D8B7F5623 ====
 
Об исполнителе (группе)
Среди групп, начавших исполнять музыку стиля «фанки-фьюжн» вслед за ее создателями, нельзя не выделить «Mezzoforte». Этот коллектив возник в столице Исландии, городе Рейкьявик, в 1977 году. Поначалу это была любительская студенческая группа, быстро завоевавшая популярность в своей стране. В ее состав вошли: Fridrik Karlsson – гитара, Eythor Gunnarsson – клавишные, Johann Asmundsson – бас-гитара, Gunnlaugur Breim – барабаны, Kristin Svararsson – саксофон. Первое время их карьера строилась а Исландии, они подписали контракт с местной фирмой “Steinar”. Но постепенно о группе «Mezzoforte» стало известно в ближайшей к ним Англии. Композиция “Garden Party” со второго альбома стала их первым хитом, попав в Британские “Top-20” в 1983 году. Вскоре о группе узнали и в США, после того, как популярный трубач Herb Alpert наиграл свою версию этой мелодии. После того, как появился их следующий хит “Rockall”, группа перебазировалась в Лондон, постепенно приобрела более широкую известность, выступая на европейских фестивалях, разъезжая с гастролями. С «Mezzoforte» стали выступать вокалисты Chris Cameron и Noel McCalla. В 1990 году гитарист группы Fridrik Karlsson организовал новую группу аналогичного стиля “Point Blank”, куда вошли и некоторые бывшие члены «Mezzoforte».Когда слушаешь записи этой группы, то не верится, что в этой крохотной островной стране, находящейся почти на Северном полюсе, могут так глубоко чувствовать то, пришло из недр черного этноса – музыку «фанки». На примере группы «Mezzoforte» еще раз становится ясно, что понятие «драйв» не связано с национальностью или расой, а также с климатическими условиями.
 
Состав
Tracie Ackerman: Vocal Arrangement, Vocals
Johann Asmundsson: Bass, Bass Programming, Composer, Fretless Bass, Guitar (Bass), Handclapping Gulli Briem Berimbau, Drums, Handclapping, Marimba, Percussion, Programming, Sampling, Tambourine
Sigurdur Flosason: Clarinet (Bass), Flute (Alto), Flute (Bass)
Eythor Gunnarsson: Arranger, Fender Rhodes, Juno, Keyboards, Mini Moog, Organ (Hammond), Piano, Producer, Roland JD800, Woodwind Arrangement
Fridrik Karlsson: Guitar, Radio, Vocal Arrangement
Veigar Margeirsson: Horn Arrangements, Trumpet
Приватный:
Нет (DHT включён)
Размер:
412.83 Мб (432,878,565 байт) » файлов: 13
Участники:
0 раздают, 1 качают (1 участников всего)
Внешние участники:
1 раздают, 0 качают (1 участников всего) [ Обновить ]
Скорость:
1.02 Мб/c 127.09 Кб/c
No seeders - write a personal message to user M0p94ok. Нет сидеров - пишите личное сообщение пользователю M0p94ok.
04:59
122
Нет комментариев. Ваш будет первым!