Поиск

(Soul, R&B) [CD] Kathy Sledge - Heart (1992) - 2011, FLAC (tracks+.cue), lossless

(Soul, R&B) [CD] Kathy Sledge - Heart (1992) - 2011, FLAC (tracks+.cue), lossless
Треклист:
Kathy Sledge - Heart (1992) Жанр: Soul, R&B
Носитель: CD
Год издания: 2011
Издатель (лейбл): SuperBird
Номер по каталогу: SBIRD 0044 CD
Аудиокодек: FLAC (*.flac)
Тип рипа: tracks+.cue
Битрейт аудио: lossless
Продолжительность: 56:30
Rip by JET 1
Наличие сканов в содержимом раздачи: да
Треклист:
01. Heart (5:05)
02. Take Me Back To Love Again (4:00)
03. Every Little Way (5:47)
04. Reason For This (5:01)
05. You Win Some, You Lose Some (Gabby's Song) (5:16)
06. I Think Of You (5:09)
07. Baby, Baby, Baby (4:17)
08. Pleasure (3:57)
09. Careful (5:05)
10. All Of My Love (4:21)
11. Since I Found You (4:31)
12. Take Me Back To Love Again (Radio Remix) (3:59)
 
 
Лог создания рипа
Exact Audio Copy V1.0 beta 3 from 29. August 2011
EAC extraction logfile from 13. August 2016, 23:10
Kathy Sledge / Heart
Used drive : GENERIC CDRCB05 Adapter: 4 ID: 0
Read mode : Secure
Utilize accurate stream : Yes
Defeat audio cache : Yes
Make use of C2 pointers : No
Read offset correction : 102
Overread into Lead-In and Lead-Out : No
Fill up missing offset samples with silence : Yes
Delete leading and trailing silent blocks : No
Null samples used in CRC calculations : Yes
Used interface : Native Win32 interface for Win NT & 2000
Gap handling : Appended to previous track
Used output format : User Defined Encoder
Selected bitrate : 1024 kBit/s
Quality : High
Add ID3 tag : No
Command line compressor : C:\Program Files\FLAC\flac.exe
Additional command line options : -8 -V -T "ARTIST=%artist%" -T "TITLE=%title%" -T "ALBUM=%albumtitle%" -T "DATE=%year%" -T "TRACKNUMBER=%tracknr%" -T "GENRE=%genre%" -T "PERFORMER=%albuminterpret%" -T "COMPOSER=%composer%" %haslyrics%--tag-from-file=LYRICS="%lyricsfile%"%haslyrics% -T "ALBUMARTIST=%albumartist%" -T "DISCNUMBER=%cdnumber%" -T "TOTALDISCS=%totalcds%" -T "TOTALTRACKS=%numtracks%" -T "COMMENT=%comment%" %source% -o %dest%
TOC of the extracted CD
Track | Start | Length | Start sector | End sector
---------------------------------------------------------
1 | 0:00.00 | 5:04.47 | 0 | 22846
2 | 5:04.47 | 4:00.13 | 22847 | 40859
3 | 9:04.60 | 5:47.25 | 40860 | 66909
4 | 14:52.10 | 5:01.21 | 66910 | 89505
5 | 19:53.31 | 5:15.68 | 89506 | 113198
6 | 25:09.24 | 5:09.36 | 113199 | 136409
7 | 30:18.60 | 4:17.29 | 136410 | 155713
8 | 34:36.14 | 3:57.20 | 155714 | 173508
9 | 38:33.34 | 5:05.19 | 173509 | 196402
10 | 43:38.53 | 4:21.22 | 196403 | 215999
11 | 48:00.00 | 4:30.69 | 216000 | 236318
12 | 52:30.69 | 3:59.06 | 236319 | 254249
Track 1
Filename G:\......POSTSSS\Kathy Sledge - Heart (1992) [2011]\01 - Heart.wav
Pre-gap length 0:00:02.00
Peak level 98.3 %
Extraction speed 2.5 X
Track quality 100.0 %
Test CRC CB50CD3A
Copy CRC CB50CD3A
Track not present in AccurateRip database
Copy OK
Track 2
Filename G:\......POSTSSS\Kathy Sledge - Heart (1992) [2011]\02 - Take Me Back To Love Again.wav
Peak level 98.3 %
Extraction speed 2.7 X
Track quality 100.0 %
Test CRC E007A4E4
Copy CRC E007A4E4
Track not present in AccurateRip database
Copy OK
Track 3
Filename G:\......POSTSSS\Kathy Sledge - Heart (1992) [2011]\03 - Every Little Way.wav
Pre-gap length 0:00:01.74
Peak level 98.3 %
Extraction speed 3.1 X
Track quality 100.0 %
Test CRC DE107CE2
Copy CRC DE107CE2
Track not present in AccurateRip database
Copy OK
Track 4
Filename G:\......POSTSSS\Kathy Sledge - Heart (1992) [2011]\04 - Reason For This.wav
Pre-gap length 0:00:01.74
Peak level 98.3 %
Extraction speed 3.3 X
Track quality 100.0 %
Test CRC 0E69819D
Copy CRC 0E69819D
Track not present in AccurateRip database
Copy OK
Track 5
Filename G:\......POSTSSS\Kathy Sledge - Heart (1992) [2011]\05 - You Win Some, You Lose Some (Gabby's Song).wav
Pre-gap length 0:00:01.74
Peak level 98.3 %
Extraction speed 3.5 X
Track quality 100.0 %
Test CRC F9348B3F
Copy CRC F9348B3F
Track not present in AccurateRip database
Copy OK
Track 6
Filename G:\......POSTSSS\Kathy Sledge - Heart (1992) [2011]\06 - I Think Of You.wav
Pre-gap length 0:00:01.74
Peak level 98.3 %
Extraction speed 3.7 X
Track quality 100.0 %
Test CRC FC9CD9BE
Copy CRC FC9CD9BE
Track not present in AccurateRip database
Copy OK
Track 7
Filename G:\......POSTSSS\Kathy Sledge - Heart (1992) [2011]\07 - Baby, Baby, Baby.wav
Pre-gap length 0:00:01.74
Peak level 98.3 %
Extraction speed 3.8 X
Track quality 100.0 %
Test CRC 4A779792
Copy CRC 4A779792
Track not present in AccurateRip database
Copy OK
Track 8
Filename G:\......POSTSSS\Kathy Sledge - Heart (1992) [2011]\08 - Pleasure.wav
Pre-gap length 0:00:01.74
Peak level 98.3 %
Extraction speed 3.6 X
Track quality 100.0 %
Test CRC 9586898F
Copy CRC 9586898F
Track not present in AccurateRip database
Copy OK
Track 9
Filename G:\......POSTSSS\Kathy Sledge - Heart (1992) [2011]\09 - Careful.wav
Pre-gap length 0:00:01.74
Peak level 98.3 %
Extraction speed 4.3 X
Track quality 100.0 %
Test CRC 49A38D89
Copy CRC 49A38D89
Track not present in AccurateRip database
Copy OK
Track 10
Filename G:\......POSTSSS\Kathy Sledge - Heart (1992) [2011]\10 - All Of My Love.wav
Pre-gap length 0:00:01.74
Peak level 98.3 %
Extraction speed 3.9 X
Track quality 99.9 %
Test CRC 6F01B46A
Copy CRC 6F01B46A
Track not present in AccurateRip database
Copy OK
Track 11
Filename G:\......POSTSSS\Kathy Sledge - Heart (1992) [2011]\11 - Since I Found You.wav
Pre-gap length 0:00:01.74
Peak level 98.3 %
Extraction speed 4.1 X
Track quality 99.9 %
Test CRC 4AC38683
Copy CRC 4AC38683
Track not present in AccurateRip database
Copy OK
Track 12
Filename G:\......POSTSSS\Kathy Sledge - Heart (1992) [2011]\12 - Take Me Back To Love Again (Radio Remix).wav
Pre-gap length 0:00:01.74
Peak level 98.3 %
Extraction speed 4.7 X
Track quality 100.0 %
Test CRC 3C26EC2B
Copy CRC 3C26EC2B
Track not present in AccurateRip database
Copy OK
None of the tracks are present in the AccurateRip database
No errors occurred
End of status report
==== Log checksum 82BD334CDD54F8B5CFA8AA929FCB01EC9D00C62C29578EA3572C7467A5719C13 ====
 
Содержание индексной карты (.CUE)
REM GENRE Soul
REM DATE 1992
REM DISCID 970D3E0C
REM COMMENT "ExactAudioCopy v1.0b3"
PERFORMER "Kathy Sledge"
TITLE "Heart"
FILE "01 - Heart.wav" WAVE
TRACK 01 AUDIO
TITLE "Heart"
PERFORMER "Kathy Sledge"
INDEX 01 00:00:00
FILE "02 - Take Me Back To Love Again.wav" WAVE
TRACK 02 AUDIO
TITLE "Take Me Back To Love Again"
PERFORMER "Kathy Sledge"
INDEX 01 00:00:00
TRACK 03 AUDIO
TITLE "Every Little Way"
PERFORMER "Kathy Sledge"
INDEX 00 03:58:14
FILE "03 - Every Little Way.wav" WAVE
INDEX 01 00:00:00
TRACK 04 AUDIO
TITLE "Reason For This"
PERFORMER "Kathy Sledge"
INDEX 00 05:45:26
FILE "04 - Reason For This.wav" WAVE
INDEX 01 00:00:00
TRACK 05 AUDIO
TITLE "You Win Some, You Lose Some (Gabby's Song)"
PERFORMER "Kathy Sledge"
INDEX 00 04:59:22
FILE "05 - You Win Some, You Lose Some (Gabby's Song).wav" WAVE
INDEX 01 00:00:00
TRACK 06 AUDIO
TITLE "I Think Of You"
PERFORMER "Kathy Sledge"
INDEX 00 05:13:69
FILE "06 - I Think Of You.wav" WAVE
INDEX 01 00:00:00
TRACK 07 AUDIO
TITLE "Baby, Baby, Baby"
PERFORMER "Kathy Sledge"
INDEX 00 05:07:37
FILE "07 - Baby, Baby, Baby.wav" WAVE
INDEX 01 00:00:00
TRACK 08 AUDIO
TITLE "Pleasure"
PERFORMER "Kathy Sledge"
INDEX 00 04:15:30
FILE "08 - Pleasure.wav" WAVE
INDEX 01 00:00:00
TRACK 09 AUDIO
TITLE "Careful"
PERFORMER "Kathy Sledge"
INDEX 00 03:55:21
FILE "09 - Careful.wav" WAVE
INDEX 01 00:00:00
TRACK 10 AUDIO
TITLE "All Of My Love"
PERFORMER "Kathy Sledge"
INDEX 00 05:03:20
FILE "10 - All Of My Love.wav" WAVE
INDEX 01 00:00:00
TRACK 11 AUDIO
TITLE "Since I Found You"
PERFORMER "Kathy Sledge"
INDEX 00 04:19:23
FILE "11 - Since I Found You.wav" WAVE
INDEX 01 00:00:00
TRACK 12 AUDIO
TITLE "Take Me Back To Love Again (Radio Remix)"
PERFORMER "Kathy Sledge"
INDEX 00 04:28:70
FILE "12 - Take Me Back To Love Again (Radio Remix).wav" WAVE
INDEX 01 00:00:00
Приватный:
Нет (DHT включён)
Размер:
501.78 Мб (526,150,688 байт) » файлов: 26
Участники:
0 раздают, 0 качают (0 участников всего)
Внешние участники:
1 раздают, 0 качают (1 участников всего) [ Обновить ]
Есть вопросы - пишите личное сообщение пользователю M0p94ok.
11:55
68
Нет комментариев. Ваш будет первым!