Поиск

(New Orleans Funk, Jam Band) [CD] The New Orleans Suspects - The New Orleans Suspects - 2012, FLAC (tracks+.cue), lossless

(New Orleans Funk, Jam Band) [CD] The New Orleans Suspects - The New Orleans Suspects - 2012, FLAC (tracks+.cue), lossless
Треклист:
The New Orleans Suspects / The New Orleans Suspects
Жанр: New Orleans Funk, Jam Band
Носитель: CD
Год издания: 2012
Издатель (лейбл): self-released
Аудиокодек: FLAC (*.flac)
Тип рипа: tracks+.cue
Битрейт аудио: lossless
Продолжительность: 00:40:18
Источник (релизер): CrazyTrain
Наличие сканов в содержимом раздачи: нет
Треклист:
1. 36 Cars 4:37
2. All The Money 4:05
3. Ev'ry Wind (In the River) 4:56
4. Swampthang 4:08
5. All By Myself 4:04
6. Oak St Rag 4:55
7. Willie's Second Line 4:15
8. Money Honey 3:07
9. Jesus On The Mainline 6:06
 
Лог создания рипа
X Lossless Decoder version 20120407 (140.0)
XLD extraction logfile from 2012-06-05 13:07:57 -0400
New Orleans Suspects / New Orleans Suspects
Used drive : TOSHIBA DVD-ROM SD-R1312 (revision 1A06)
Ripper mode : CDParanoia III 10.2
Disable audio cache : OK for the drive with a cache less than 2750KiB
Make use of C2 pointers : NO
Read offset correction : 116
Max retry count : 100
Gap status : Analyzed, Appended
TOC of the extracted CD
Track | Start | Length | Start sector | End sector
---------------------------------------------------------
1 | 00:00:00 | 04:37:73 | 0 | 20847
2 | 04:37:73 | 04:05:05 | 20848 | 39227
3 | 08:43:03 | 04:55:65 | 39228 | 61417
4 | 13:38:68 | 04:08:33 | 61418 | 80050
5 | 17:47:26 | 04:03:51 | 80051 | 98326
6 | 21:51:02 | 04:55:43 | 98327 | 120494
7 | 26:46:45 | 04:15:66 | 120495 | 139685
8 | 31:02:36 | 03:07:28 | 139686 | 153738
9 | 34:09:64 | 06:06:41 | 153739 | 181229
AccurateRip Summary
Disc not found in AccurateRip DB.
All Tracks
Album gain : -8.62 dB
Peak : 1.000000
Statistics
Read error : 0
Skipped (treated as error) : 0
Edge jitter error (maybe fixed) : 0
Atom jitter error (maybe fixed) : 0
Drift error (maybe fixed) : 0
Dropped bytes error (maybe fixed) : 0
Duplicated bytes error (maybe fixed) : 0
Track 01
Filename : /Volumes/External 1/waffles 2/01 - 36 Cars.flac
Pre-gap length : 00:02:00
Track gain : -9.05 dB
Peak : 1.000000
CRC32 hash (test run) : 8EFF9D2F
CRC32 hash : 8EFF9D2F
CRC32 hash (skip zero) : 8F006716
AccurateRip signature : FF2B742B
->Track not present in AccurateRip database.
Statistics
Read error : 0
Skipped (treated as error) : 0
Edge jitter error (maybe fixed) : 0
Atom jitter error (maybe fixed) : 0
Drift error (maybe fixed) : 0
Dropped bytes error (maybe fixed) : 0
Duplicated bytes error (maybe fixed) : 0
Inconsistency in error sectors : 0
Track 02
Filename : /Volumes/External 1/waffles 2/02 - All The Money.flac
Track gain : -9.06 dB
Peak : 1.000000
CRC32 hash (test run) : D22FFBD3
CRC32 hash : D22FFBD3
CRC32 hash (skip zero) : 18905CCC
AccurateRip signature : 5D7B080D
->Track not present in AccurateRip database.
Statistics
Read error : 0
Skipped (treated as error) : 0
Edge jitter error (maybe fixed) : 0
Atom jitter error (maybe fixed) : 0
Drift error (maybe fixed) : 0
Dropped bytes error (maybe fixed) : 0
Duplicated bytes error (maybe fixed) : 0
Inconsistency in error sectors : 0
Track 03
Filename : /Volumes/External 1/waffles 2/03 - Ev'ry Wind (In The River).flac
Track gain : -8.46 dB
Peak : 0.994843
CRC32 hash (test run) : 0A3672F1
CRC32 hash : 0A3672F1
CRC32 hash (skip zero) : C7CCAF7A
AccurateRip signature : 45010A7F
->Track not present in AccurateRip database.
Statistics
Read error : 0
Skipped (treated as error) : 0
Edge jitter error (maybe fixed) : 0
Atom jitter error (maybe fixed) : 0
Drift error (maybe fixed) : 0
Dropped bytes error (maybe fixed) : 0
Duplicated bytes error (maybe fixed) : 0
Inconsistency in error sectors : 0
Track 04
Filename : /Volumes/External 1/waffles 2/04 - Swampthang.flac
Track gain : -7.92 dB
Peak : 1.000000
CRC32 hash (test run) : 0C0D908A
CRC32 hash : 0C0D908A
CRC32 hash (skip zero) : A92A51B8
AccurateRip signature : 19CE48F7
->Track not present in AccurateRip database.
Statistics
Read error : 0
Skipped (treated as error) : 0
Edge jitter error (maybe fixed) : 0
Atom jitter error (maybe fixed) : 0
Drift error (maybe fixed) : 0
Dropped bytes error (maybe fixed) : 0
Duplicated bytes error (maybe fixed) : 0
Inconsistency in error sectors : 0
Track 05
Filename : /Volumes/External 1/waffles 2/05 - All By Myself.flac
Track gain : -7.98 dB
Peak : 1.000000
CRC32 hash (test run) : 372DC64B
CRC32 hash : 372DC64B
CRC32 hash (skip zero) : 92C9497D
AccurateRip signature : 8AF1AD57
->Track not present in AccurateRip database.
Statistics
Read error : 0
Skipped (treated as error) : 0
Edge jitter error (maybe fixed) : 0
Atom jitter error (maybe fixed) : 0
Drift error (maybe fixed) : 0
Dropped bytes error (maybe fixed) : 0
Duplicated bytes error (maybe fixed) : 0
Inconsistency in error sectors : 0
Track 06
Filename : /Volumes/External 1/waffles 2/06 - Oak St. Rag.flac
Track gain : -8.18 dB
Peak : 1.000000
CRC32 hash (test run) : DDC28FC9
CRC32 hash : DDC28FC9
CRC32 hash (skip zero) : A9483A3B
AccurateRip signature : 16012386
->Track not present in AccurateRip database.
Statistics
Read error : 0
Skipped (treated as error) : 0
Edge jitter error (maybe fixed) : 0
Atom jitter error (maybe fixed) : 0
Drift error (maybe fixed) : 0
Dropped bytes error (maybe fixed) : 0
Duplicated bytes error (maybe fixed) : 0
Inconsistency in error sectors : 0
Track 07
Filename : /Volumes/External 1/waffles 2/07 - Willie's Second Line.flac
Track gain : -9.07 dB
Peak : 1.000000
CRC32 hash (test run) : B26BAFE6
CRC32 hash : B26BAFE6
CRC32 hash (skip zero) : 19189B47
AccurateRip signature : 71AEA5C7
->Track not present in AccurateRip database.
Statistics
Read error : 0
Skipped (treated as error) : 0
Edge jitter error (maybe fixed) : 0
Atom jitter error (maybe fixed) : 0
Drift error (maybe fixed) : 0
Dropped bytes error (maybe fixed) : 0
Duplicated bytes error (maybe fixed) : 0
Inconsistency in error sectors : 0
Track 08
Filename : /Volumes/External 1/waffles 2/08 - Money Honey.flac
Track gain : -8.47 dB
Peak : 0.954987
CRC32 hash (test run) : CF5C004B
CRC32 hash : CF5C004B
CRC32 hash (skip zero) : 47AF091D
AccurateRip signature : 7DC90383
->Track not present in AccurateRip database.
Statistics
Read error : 0
Skipped (treated as error) : 0
Edge jitter error (maybe fixed) : 0
Atom jitter error (maybe fixed) : 0
Drift error (maybe fixed) : 0
Dropped bytes error (maybe fixed) : 0
Duplicated bytes error (maybe fixed) : 0
Inconsistency in error sectors : 0
Track 09
Filename : /Volumes/External 1/waffles 2/09 - Jesus On The Mainline.flac
Track gain : -8.48 dB
Peak : 1.000000
CRC32 hash (test run) : CBB51146
CRC32 hash : CBB51146
CRC32 hash (skip zero) : 96BCC32C
AccurateRip signature : 5F064AB5
->Track not present in AccurateRip database.
Statistics
Read error : 0
Skipped (treated as error) : 0
Edge jitter error (maybe fixed) : 0
Atom jitter error (maybe fixed) : 0
Drift error (maybe fixed) : 0
Dropped bytes error (maybe fixed) : 0
Duplicated bytes error (maybe fixed) : 0
Inconsistency in error sectors : 0
No errors occurred
End of status report
 
Содержание индексной карты (.CUE)
TITLE "New Orleans Suspects"
PERFORMER "New Orleans Suspects"
REM GENRE "Blues"
REM DATE "2012"
REM DISCID 6C097009
FILE "01 - 36 Cars.wav" WAVE
TRACK 01 AUDIO
TITLE "36 Cars"
INDEX 01 00:00:00
FILE "02 - All The Money.wav" WAVE
TRACK 02 AUDIO
TITLE "All The Money"
INDEX 01 00:00:00
FILE "03 - Ev'ry Wind (In The River).wav" WAVE
TRACK 03 AUDIO
TITLE "Ev'ry Wind (In The River)"
INDEX 01 00:00:00
FILE "04 - Swampthang.wav" WAVE
TRACK 04 AUDIO
TITLE "Swampthang"
INDEX 01 00:00:00
FILE "05 - All By Myself.wav" WAVE
TRACK 05 AUDIO
TITLE "All By Myself"
INDEX 01 00:00:00
FILE "06 - Oak St. Rag.wav" WAVE
TRACK 06 AUDIO
TITLE "Oak St. Rag"
INDEX 01 00:00:00
FILE "07 - Willie's Second Line.wav" WAVE
TRACK 07 AUDIO
TITLE "Willie's Second Line"
INDEX 01 00:00:00
FILE "08 - Money Honey.wav" WAVE
TRACK 08 AUDIO
TITLE "Money Honey"
INDEX 01 00:00:00
FILE "09 - Jesus On The Mainline.wav" WAVE
TRACK 09 AUDIO
TITLE "Jesus On The Mainline"
INDEX 01 00:00:00
 
Об альбоме (сборнике)
Приватный:
Нет (DHT включён)
Размер:
267.43 Мб (280,424,426 байт) » файлов: 13
Участники:
0 раздают, 0 качают (0 участников всего)
Внешние участники:
5 раздают, 1 качают (6 участников всего) [ Обновить ]
No seeders - write a personal message to user M0p94ok. Нет сидеров - пишите личное сообщение пользователю M0p94ok.
11:54
125
Нет комментариев. Ваш будет первым!