Поиск

(Blues, Soul) [CD] Tasha Taylor - Honey For The Biscuit - 2016, FLAC (tracks+.cue), lossless

(Blues, Soul) [CD] Tasha Taylor - Honey For The Biscuit - 2016, FLAC (tracks+.cue), lossless
Треклист:
Tasha Taylor / Honey For The Biscuit
Жанр: Blues, Soul
Носитель: CD
Страна-производитель диска (релиза): Germany
Год издания: 2016
Издатель (лейбл): Ruf Records
Номер по каталогу: RUF 1225
Страна исполнителя (группы): USA
Аудиокодек: FLAC (*.flac)
Тип рипа: tracks+.cue
Битрейт аудио: lossless
Продолжительность: 48:47
Источник (релизер): BozMozzis
Наличие сканов в содержимом раздачи: Front
Треклист:

01. Feels So Good
02. Wedding Bells
03. Family Tree
04. Weathernan
05. One And Only
06. Little Miss Suzie
07. I Knew
08. How Long
09. That Man
10. Leave That Dog Alone
11. Places I Miss
12. Don't Rush Off
13. Same Old Thing
 
Лог создания рипа
Exact Audio Copy V1.1 from 23. June 2015
EAC extraction logfile from 26. July 2016, 17:12
Tasha Taylor / Honey for the Biscuit
Used drive : LITE-ON DVDRW LH-20A1S Adapter: 1 ID: 0
Read mode : Secure
Utilize accurate stream : Yes
Defeat audio cache : Yes
Make use of C2 pointers : No
Read offset correction : 6
Overread into Lead-In and Lead-Out : No
Fill up missing offset samples with silence : Yes
Delete leading and trailing silent blocks : No
Null samples used in CRC calculations : Yes
Used interface : Native Win32 interface for Win NT & 2000
Gap handling : Appended to previous track
Used output format : User Defined Encoder
Selected bitrate : 1024 kBit/s
Quality : High
Add ID3 tag : No
Command line compressor : C:\Program Files (x86)\Exact Audio Copy\Flac\flac.exe
Additional command line options : -8 -e -V -T "ARTIST=%artist%" -T "TITLE=%title%" -T "ALBUM=%albumtitle%" -T "DATE=%year%" -T "TRACKNUMBER=%tracknr%" -T "GENRE=%genre%" -T "PERFORMER=%albuminterpret%" -T "COMPOSER=%composer%" %haslyrics%--tag-from-file=LYRICS="%lyricsfile%"%haslyrics% -T "ALBUMARTIST=%albumartist%" -T "DISCNUMBER=%cdnumber%" -T "TOTALDISCS=%totalcds%" -T "TOTALTRACKS=%numtracks%" -T "COMMENT=%comment%" %source% -o %dest%
TOC of the extracted CD
Track | Start | Length | Start sector | End sector
---------------------------------------------------------
1 | 0:00.00 | 3:59.22 | 0 | 17946
2 | 3:59.22 | 4:28.32 | 17947 | 38078
3 | 8:27.54 | 3:52.05 | 38079 | 55483
4 | 12:19.59 | 2:56.60 | 55484 | 68743
5 | 15:16.44 | 4:37.74 | 68744 | 89592
6 | 19:54.43 | 3:12.49 | 89593 | 104041
7 | 23:07.17 | 3:22.02 | 104042 | 119193
8 | 26:29.19 | 2:33.70 | 119194 | 130738
9 | 29:03.14 | 3:53.23 | 130739 | 148236
10 | 32:56.37 | 3:44.45 | 148237 | 165081
11 | 36:41.07 | 4:47.55 | 165082 | 186661
12 | 41:28.62 | 3:08.73 | 186662 | 200834
13 | 44:37.60 | 4:08.63 | 200835 | 219497
Track 1
Filename D:\EAC rips\Tasha Taylor - Honey For The Biscuit (2016) [FLAC]\01 - Feels So Good.wav
Pre-gap length 0:00:02.00
Peak level 99.8 %
Extraction speed 1.8 X
Track quality 100.0 %
Test CRC 286F5A2D
Copy CRC 286F5A2D
Accurately ripped (confidence 6) [46C06966] (AR v2)
Copy OK
Track 2
Filename D:\EAC rips\Tasha Taylor - Honey For The Biscuit (2016) [FLAC]\02 - Wedding Bells.wav
Peak level 97.7 %
Extraction speed 2.0 X
Track quality 100.0 %
Test CRC 206179BD
Copy CRC 206179BD
Accurately ripped (confidence 6) [8913D38E] (AR v2)
Copy OK
Track 3
Filename D:\EAC rips\Tasha Taylor - Honey For The Biscuit (2016) [FLAC]\03 - Family Tree.wav
Peak level 97.7 %
Extraction speed 1.9 X
Track quality 99.9 %
Test CRC F0FC4B0E
Copy CRC F0FC4B0E
Accurately ripped (confidence 6) [AB4C515C] (AR v2)
Copy OK
Track 4
Filename D:\EAC rips\Tasha Taylor - Honey For The Biscuit (2016) [FLAC]\04 - Weatherman.wav
Peak level 97.7 %
Extraction speed 2.2 X
Track quality 100.0 %
Test CRC 6A4C538B
Copy CRC 6A4C538B
Accurately ripped (confidence 6) [6FB1A206] (AR v2)
Copy OK
Track 5
Filename D:\EAC rips\Tasha Taylor - Honey For The Biscuit (2016) [FLAC]\05 - One and Only.wav
Peak level 97.7 %
Extraction speed 2.5 X
Track quality 100.0 %
Test CRC 2671877F
Copy CRC 2671877F
Accurately ripped (confidence 6) [56360003] (AR v2)
Copy OK
Track 6
Filename D:\EAC rips\Tasha Taylor - Honey For The Biscuit (2016) [FLAC]\06 - Little Miss Suzie.wav
Peak level 98.8 %
Extraction speed 2.6 X
Track quality 100.0 %
Test CRC AE7A8BBA
Copy CRC AE7A8BBA
Accurately ripped (confidence 6) [C1494339] (AR v2)
Copy OK
Track 7
Filename D:\EAC rips\Tasha Taylor - Honey For The Biscuit (2016) [FLAC]\07 - I Knew.wav
Peak level 100.0 %
Extraction speed 2.7 X
Track quality 100.0 %
Test CRC 9F2052BA
Copy CRC 9F2052BA
Accurately ripped (confidence 6) [258614C8] (AR v2)
Copy OK
Track 8
Filename D:\EAC rips\Tasha Taylor - Honey For The Biscuit (2016) [FLAC]\08 - How Long.wav
Peak level 98.8 %
Extraction speed 2.6 X
Track quality 100.0 %
Test CRC 4A33AE9B
Copy CRC 4A33AE9B
Accurately ripped (confidence 6) [2F9D76EA] (AR v2)
Copy OK
Track 9
Filename D:\EAC rips\Tasha Taylor - Honey For The Biscuit (2016) [FLAC]\09 - That Man.wav
Peak level 98.8 %
Extraction speed 2.9 X
Track quality 100.0 %
Test CRC 3B0A0262
Copy CRC 3B0A0262
Accurately ripped (confidence 6) [C65B66B4] (AR v2)
Copy OK
Track 10
Filename D:\EAC rips\Tasha Taylor - Honey For The Biscuit (2016) [FLAC]\10 - Leave That Dog Alone.wav
Peak level 98.8 %
Extraction speed 3.0 X
Track quality 100.0 %
Test CRC 6D818CBA
Copy CRC 6D818CBA
Accurately ripped (confidence 6) [6C7770BD] (AR v2)
Copy OK
Track 11
Filename D:\EAC rips\Tasha Taylor - Honey For The Biscuit (2016) [FLAC]\11 - Places I Miss.wav
Peak level 97.7 %
Extraction speed 3.3 X
Track quality 100.0 %
Test CRC 6B6184E3
Copy CRC 6B6184E3
Accurately ripped (confidence 6) [EFBADE5B] (AR v2)
Copy OK
Track 12
Filename D:\EAC rips\Tasha Taylor - Honey For The Biscuit (2016) [FLAC]\12 - Don't Rush Off.wav
Peak level 97.7 %
Extraction speed 3.2 X
Track quality 100.0 %
Test CRC 3C5B6731
Copy CRC 3C5B6731
Accurately ripped (confidence 6) [001397A6] (AR v2)
Copy OK
Track 13
Filename D:\EAC rips\Tasha Taylor - Honey For The Biscuit (2016) [FLAC]\13 - Same Old Thing.wav
Peak level 98.8 %
Extraction speed 3.4 X
Track quality 100.0 %
Test CRC 92B000F6
Copy CRC 92B000F6
Accurately ripped (confidence 6) [F6BC09A0] (AR v2)
Copy OK
All tracks accurately ripped
No errors occurred
End of status report
---- CUETools DB Plugin V2.1.6
[CTDB TOCID: xz2Gm_YnQMepzEpGLlOhSIjUUIQ-] found
Submit result: xz2Gm_YnQMepzEpGLlOhSIjUUIQ- has been confirmed
Track | CTDB Status
1 | (13/13) Accurately ripped
2 | (13/13) Accurately ripped
3 | (13/13) Accurately ripped
4 | (13/13) Accurately ripped
5 | (13/13) Accurately ripped
6 | (13/13) Accurately ripped
7 | (13/13) Accurately ripped
8 | (13/13) Accurately ripped
9 | (13/13) Accurately ripped
10 | (13/13) Accurately ripped
11 | (13/13) Accurately ripped
12 | (13/13) Accurately ripped
13 | (13/13) Accurately ripped
==== Log checksum A876AED47A0C0E25E076183462AED005C83C7A605DC74263C9D8777978DDDB38 ====
 
Содержание индексной карты (.CUE)
REM GENRE Blues
REM DATE 2016
REM DISCID C30B6E0D
REM COMMENT "ExactAudioCopy v1.1"
PERFORMER "Tasha Taylor"
TITLE "Honey for the Biscuit"
FILE "01 - Feels So Good.wav" WAVE
TRACK 01 AUDIO
TITLE "Feels So Good"
PERFORMER "Tasha Taylor"
INDEX 01 00:00:00
FILE "02 - Wedding Bells.wav" WAVE
TRACK 02 AUDIO
TITLE "Wedding Bells"
PERFORMER "Tasha Taylor"
INDEX 01 00:00:00
FILE "03 - Family Tree.wav" WAVE
TRACK 03 AUDIO
TITLE "Family Tree"
PERFORMER "Tasha Taylor"
INDEX 01 00:00:00
FILE "04 - Weatherman.wav" WAVE
TRACK 04 AUDIO
TITLE "Weatherman"
PERFORMER "Tasha Taylor"
INDEX 01 00:00:00
FILE "05 - One and Only.wav" WAVE
TRACK 05 AUDIO
TITLE "One and Only"
PERFORMER "Tasha Taylor"
INDEX 01 00:00:00
FILE "06 - Little Miss Suzie.wav" WAVE
TRACK 06 AUDIO
TITLE "Little Miss Suzie"
PERFORMER "Tasha Taylor"
INDEX 01 00:00:00
FILE "07 - I Knew.wav" WAVE
TRACK 07 AUDIO
TITLE "I Knew"
PERFORMER "Tasha Taylor"
INDEX 01 00:00:00
FILE "08 - How Long.wav" WAVE
TRACK 08 AUDIO
TITLE "How Long"
PERFORMER "Tasha Taylor"
INDEX 01 00:00:00
FILE "09 - That Man.wav" WAVE
TRACK 09 AUDIO
TITLE "That Man"
PERFORMER "Tasha Taylor"
INDEX 01 00:00:00
FILE "10 - Leave That Dog Alone.wav" WAVE
TRACK 10 AUDIO
TITLE "Leave That Dog Alone"
PERFORMER "Tasha Taylor"
INDEX 01 00:00:00
FILE "11 - Places I Miss.wav" WAVE
TRACK 11 AUDIO
TITLE "Places I Miss"
PERFORMER "Tasha Taylor"
INDEX 01 00:00:00
FILE "12 - Don't Rush Off.wav" WAVE
TRACK 12 AUDIO
TITLE "Don't Rush Off"
PERFORMER "Tasha Taylor"
INDEX 01 00:00:00
FILE "13 - Same Old Thing.wav" WAVE
TRACK 13 AUDIO
TITLE "Same Old Thing"
PERFORMER "Tasha Taylor"
INDEX 01 00:00:00
 
DR Log
foobar2000 1.1.10 / Dynamic Range Meter 1.1.1
log date: 2016-08-25 18:53:21
--------------------------------------------------------------------------------
Analyzed: Tasha Taylor / Honey for the Biscuit
--------------------------------------------------------------------------------
DR Peak RMS Duration Track
--------------------------------------------------------------------------------
DR7 -0.02 dB -8.03 dB 3:59 ?-Feels So Good
DR8 -0.20 dB -9.99 dB 4:28 ?-Wedding Bells
DR8 -0.20 dB -9.98 dB 3:52 ?-Family Tree
DR7 -0.20 dB -9.30 dB 2:57 ?-Weatherman
DR7 -0.20 dB -9.99 dB 4:38 ?-One and Only
DR9 -0.10 dB -11.00 dB 3:13 ?-Little Miss Suzie
DR8 0.00 dB -10.44 dB 3:22 ?-I Knew
DR7 -0.10 dB -8.81 dB 2:34 ?-How Long
DR8 -0.10 dB -9.88 dB 3:53 ?-That Man
DR8 -0.10 dB -9.82 dB 3:45 ?-Leave That Dog Alone
DR7 -0.20 dB -8.87 dB 4:48 ?-Places I Miss
DR8 -0.20 dB -10.96 dB 3:09 ?-Don't Rush Off
DR8 -0.10 dB -9.29 dB 4:09 ?-Same Old Thing
--------------------------------------------------------------------------------
Number of tracks: 13
Official DR value: DR8
Samplerate: 44100 Hz
Channels: 2
Bits per sample: 16
Bitrate: 969 kbps
Codec: FLAC
================================================================================
 
Об исполнителе (группе)
Таша Тэйлор американская певица, автор песен и актриса, дочь соул/ритм-энд-блюз исполнителя Johnnie Taylor. Это ее третий соло-альбом, кроме того она работала приглашенной вокалисткой на записи альбома Томми Кастро "The Devil You Know" и в концертном туре с The Blues Brothers.
Кроме этого, вместе с Ina Forsman и Layla Zo, Таша выступает в трио Blue Sisters.
http://tashataylor.com/
Приватный:
Нет (DHT включён)
Размер:
311.72 Мб (326,865,794 байт) » файлов: 17
Участники:
0 раздают, 0 качают (0 участников всего)
Внешние участники:
1 раздают, 0 качают (1 участников всего) [ Обновить ]
No seeders - write a personal message to user M0p94ok. Нет сидеров - пишите личное сообщение пользователю M0p94ok.
11:54
106
Нет комментариев. Ваш будет первым!