Поиск

(AOR/Funk/Pop) St. Paul - Down To The Wire - 1990, FLAC (image+.cue), lossless

(AOR/Funk/Pop) St. Paul - Down To The Wire - 1990, FLAC (image+.cue), lossless
Треклист:
St. Paul / Down To The Wire Жанр: AOR/Funk/Pop
Страна-производитель диска: Germany
Год издания: 1990
Издатель (лейбл): Atlantic
Номер по каталогу: 7567-82097-2
Страна: USA
Аудиокодек: FLAC (*.flac)
Тип рипа: image+.cue
Битрейт аудио: lossless
Продолжительность: 45:29
Источник (релизер): Thunder
Наличие сканов в содержимом раздачи: да
Треклист:
01. Stranger To Love [04:39]
02. Every Time I Close My Eyes [04:25]
03. Every Heart Needs A Home [05:07]
04. Maybe In Another World [04:11]
05. Heart To Heart [03:24]
06. I Never Knew What Love Could Do [05:40]
07. Nowhere To Run [03:46]
08. Next Time You See My Girl [04:43]
09. Only Reminds Me Of You [03:49]
10. Shooting Star [05:39]
 
Лог создания рипа
Exact Audio Copy V1.0 beta 1 from 15. November 2010
EAC extraction logfile from 3. June 2013, 15:11
St. Paul / Down To The Wire
Used drive : HL-DT-STDVDRAM GH20NS10 Adapter: 0 ID: 1
Read mode : Secure
Utilize accurate stream : Yes
Defeat audio cache : Yes
Make use of C2 pointers : No
Read offset correction : 667
Overread into Lead-In and Lead-Out : No
Fill up missing offset samples with silence : Yes
Delete leading and trailing silent blocks : No
Null samples used in CRC calculations : Yes
Used interface : Installed external ASPI interface
Used output format : User Defined Encoder
Selected bitrate : 768 kBit/s
Quality : High
Add ID3 tag : No
Command line compressor : C:\Program Files\Exact Audio Copy\FLAC\FLAC.EXE
Additional command line options : -6 -V -T "ARTIST=%a" -T "TITLE=%t" -T "ALBUM=%g" -T "DATE=%y" -T "TRACKNUMBER=%n" -T "GENRE=%m" -T "COMMENT=%e" %j--picture="%i"%j %s -o %d
TOC of the extracted CD
Track | Start | Length | Start sector | End sector
---------------------------------------------------------
1 | 0:00.32 | 4:39.13 | 32 | 20969
2 | 4:39.45 | 4:25.40 | 20970 | 40884
3 | 9:05.10 | 5:07.10 | 40885 | 63919
4 | 14:12.20 | 4:11.30 | 63920 | 82774
5 | 18:23.50 | 3:24.40 | 82775 | 98114
6 | 21:48.15 | 5:40.60 | 98115 | 123674
7 | 27:29.00 | 3:46.45 | 123675 | 140669
8 | 31:15.45 | 4:43.50 | 140670 | 161944
9 | 35:59.20 | 3:49.60 | 161945 | 179179
10 | 39:49.05 | 5:39.50 | 179180 | 204654
Range status and errors
Selected range
Filename H:\ 123\St. Paul - Down To The Wire.wav
Suspicious position 0:35:19 - 0:35:22
Suspicious position 0:35:24 - 0:35:25
Suspicious position 0:37:05 - 0:37:07
Peak level 100.0 %
Extraction speed 0.3 X
Range quality 99.6 %
Copy CRC DCAAFCFE
Copy finished
There were errors
AccurateRip summary
Track 1 accurately ripped (confidence 3) [2F197BBE]
Track 2 accurately ripped (confidence 3) [20228523]
Track 3 accurately ripped (confidence 3) [4D7B8F3C]
Track 4 accurately ripped (confidence 3) [C45D2306]
Track 5 accurately ripped (confidence 3) [9875E435]
Track 6 accurately ripped (confidence 3) [F14A69BE]
Track 7 accurately ripped (confidence 3) [AD0DFF20]
Track 8 cannot be verified as accurate (confidence 3) [31CDBF2B], AccurateRip returned [525989DF]
Track 9 cannot be verified as accurate (confidence 3) [41ACF527], AccurateRip returned [7A50DF8F]
Track 10 accurately ripped (confidence 3) [5114A707]
8 track(s) accurately ripped
2 track(s) could not be verified as accurate
Some tracks could not be verified as accurate
End of status report
 
Содержание индексной карты (.CUE)
REM GENRE Rock
REM DATE 1987
REM DISCID 770AA80A
REM COMMENT "ExactAudioCopy v1.0b1"
PERFORMER "St. Paul"
TITLE "Down To The Wire"
FILE "St. Paul - Down To The Wire.flac" WAVE
TRACK 01 AUDIO
TITLE "Stranger To Love"
PERFORMER "St. Paul"
INDEX 00 00:00:00
INDEX 01 00:00:32
TRACK 02 AUDIO
TITLE "Every Time I Close My Eyes"
PERFORMER "St. Paul"
INDEX 01 04:39:45
TRACK 03 AUDIO
TITLE "Every Heart Needs A Home"
PERFORMER "St. Paul"
INDEX 00 09:02:65
INDEX 01 09:05:10
TRACK 04 AUDIO
TITLE "Maybe In Another World"
PERFORMER "St. Paul"
INDEX 00 14:10:32
INDEX 01 14:12:20
TRACK 05 AUDIO
TITLE "Heart To Heart"
PERFORMER "St. Paul"
INDEX 00 18:22:05
INDEX 01 18:23:50
TRACK 06 AUDIO
TITLE "I Never Knew What Love Could Do"
PERFORMER "St. Paul"
INDEX 00 21:46:02
INDEX 01 21:48:15
TRACK 07 AUDIO
TITLE "Nowhere To Run"
PERFORMER "St. Paul"
INDEX 00 27:26:60
INDEX 01 27:29:00
TRACK 08 AUDIO
TITLE "Next Time You See My Girl"
PERFORMER "St. Paul"
INDEX 01 31:15:45
TRACK 09 AUDIO
TITLE "Only Reminds Me Of You"
PERFORMER "St. Paul"
INDEX 00 35:57:15
INDEX 01 35:59:20
TRACK 10 AUDIO
TITLE "Shooting Star"
PERFORMER "St. Paul"
INDEX 00 39:48:27
INDEX 01 39:49:05
Приватный:
Нет (DHT включён)
Размер:
313.37 Мб (328,595,950 байт) » файлов: 10
Участники:
0 раздают, 0 качают (0 участников всего)
Внешние участники:
1 раздают, 0 качают (1 участников всего) [ Обновить ]
No seeders - write a personal message to user M0p94ok. Нет сидеров - пишите личное сообщение пользователю M0p94ok.
11:53
88
Нет комментариев. Ваш будет первым!