Поиск

(Funk, R&B) [CD] James Brown - Sex Machine / Volume Two (2 x CD) - 2005, FLAC (image+.cue), lossless

(Funk, R&B) [CD] James Brown - Sex Machine / Volume Two (2 x CD) - 2005, FLAC (image+.cue), lossless
Треклист:
James Brown
Sex MachineЖанр: Funk, R&B
Носитель: CD
Штрих-код: Germany
Год издания: 2005
Издатель (лейбл): MCPS
Номер по каталогу: 300.006
Страна исполнителя (группы): USA
Аудиокодек: FLAC (*.flac)
Тип рипа: image+.cue
Битрейт аудио: lossless
Продолжительность: 00:40:32
Источник (релизер): stas64
Наличие сканов в содержимом раздачи: да 600 dpi.Треклист:
01. Turn It Loose,It's Too Funky In Here,Gonna Have A Funky Good Time,Try Me.
02. Get On The Good Foot,Prisoner Of Love,Get Up Of That Thang.
03. Georgia Om My Mind.
04. Sex Machine.
 
Booklet


 
Лог создания рипа
Exact Audio Copy V1.1 from 23. June 2015
Отчёт EAC об извлечении, выполненном 15. августа 2016, 23:42
James Brown / Sex Machine
Дисковод: PLEXTOR DVDR PX-712A Adapter: 8 ID: 0
Режим чтения : Достоверность
Использование точного потока : Да
Отключение кэша аудио : Да
Использование указателей C2 : Нет
Коррекция смещения при чтении : 30
Способность читать области Lead-in и Lead-out : Нет
Заполнение пропущенных сэмплов тишиной : Да
Удаление блоков с тишиной в начале и конце : Нет
При вычислениях CRC использовались нулевые сэмплы : Да
Интерфейс : Установленный внешний ASPI-интерфейс
Выходной формат : Пользовательский кодировщик
Выбранный битрейт : 128 kBit/s
Качество : Высокий
Добавление ID3-тега : Нет
Утилита сжатия : C:\Program Files\Exact Audio Copy\FLAC\FLAC.EXE
Дополнительные параметры : -V -8 -T "Genre=%genre%" -T "Artist=%artist%" -T "Title=%title%" -T "Album=%albumtitle%" -T "Date=%year%" -T "Tracknumber=%tracknr%" -T "Comment=%comment%" %source%
TOC извлечённого CD
Трек | Старт | Длительность | Начальный сектор | Конечный сектор
---------------------------------------------------------------------
1 | 0:00.00 | 15:16.40 | 0 | 68739
2 | 15:16.40 | 14:56.67 | 68740 | 136006
3 | 30:13.32 | 6:01.18 | 136007 | 163099
4 | 36:14.50 | 4:17.40 | 163100 | 182414
Характеристики диапазона извлечения и сообщения об ошибках
Выбранный диапазон
Имя файла I:\MOI_RAZDACI\James.Brown_Sex.Machine_Volume.Two\James.Brown_Sex.Machine_Volume.Two\CD-1_Sex.Machine\James Brown - Sex Machine.wav
Пиковый уровень 88.6 %
Скорость извлечения 11.4 X
Качество диапазона 99.9 %
CRC теста DCCC4258
CRC копии DCCC4258
Копирование... OK
Ошибок не произошло
AccurateRip: сводка
Трек 1 отсутствует в базе данных
Трек 2 отсутствует в базе данных
Трек 3 отсутствует в базе данных
Трек 4 отсутствует в базе данных
Ни одного трека нет в базе AccurateRip
Конец отчёта
---- CUETools DB Plugin V2.1.6
[CTDB TOCID: KUjZmTrXrydh_lSLMJJw1GI1q0o-] found
Submit result: KUjZmTrXrydh_lSLMJJw1GI1q0o- has been confirmed
Track | CTDB Status
1 | (2/5) Accurately ripped
2 | (2/5) Accurately ripped
3 | (2/5) Accurately ripped
4 | (2/5) Accurately ripped
==== Контрольная сумма отчёта AF370647FBF2D5AC394CA345E6023DFAC964BC5131BBDA99CE6E1DA60615A69B ====
 
Содержание индексной карты (.CUE)
REM GENRE Soul
REM DISCID 33098004
REM COMMENT "ExactAudioCopy v1.1"
PERFORMER "James Brown"
TITLE "Sex Machine"
FILE "James Brown - Sex Machine.flac" WAVE
TRACK 01 AUDIO
TITLE "Turn It Loose/It's Too Funky In Here/Gonna Have A Funky Good Time/Try Me"
PERFORMER "James Brown"
INDEX 01 00:00:00
TRACK 02 AUDIO
TITLE "Get On The Good Foot/Prisoner Of Love/Get Up Of That Thang"
PERFORMER "James Brown"
INDEX 00 15:15:11
INDEX 01 15:16:40
TRACK 03 AUDIO
TITLE "Georgia Om My Mind"
PERFORMER "James Brown"
INDEX 00 30:11:00
INDEX 01 30:13:32
TRACK 04 AUDIO
TITLE "Sex Machine"
PERFORMER "James Brown"
INDEX 00 36:11:53
INDEX 01 36:14:50
 
Лог проверки качества / Скриншот спектра частот
-----------------------
DON'T MODIFY THIS FILE
-----------------------
PERFORMER: auCDtect Task Manager, ver. 1.5.1RC6 build 1.5.1.7
Copyright (c) 2008-2010 y-soft. All rights reserved
http://y-soft.org
ANALYZER: auCDtect: CD records authenticity detector, version 0.8.2
Copyright (c) 2004 Oleg Berngardt. All rights reserved.
Copyright (c) 2004 Alexander Djourik. All rights reserved.
FILE: James Brown - Sex Machine.flac
Size: 220406685 Hash: D581370963A76F65165F6A0CBF24D27D Accuracy: -m0
Conclusion: CDDA 100%
Signature: B66C8EBF378749D38E479DEA0E25E4F750BEF065
 
Скриншот спектра частот
James Brown
Volume TwoЖанр: Funk, R&B
Носитель: CD
Штрих-код: Germany
Год издания: 2005
Издатель (лейбл): MCPS
Номер по каталогу: 300.007
Страна исполнителя (группы): USA
Аудиокодек: FLAC (*.flac)
Тип рипа: image+.cue
Битрейт аудио: lossless
Продолжительность: 00:39:23
Источник (релизер): stas64
Наличие сканов в содержимом раздачи: да - 600 dpi.Треклист:
01. I Got the Feeling.
02. Its a Mans Mans World,Super Bad,DiscoRap.
03. Cold Sweat,When You Touch Me,Papa’s Got a Brand New Bag,I Got You,I Feel Good.
04. Please,Please,Please.
 
Booklet


 
Лог создания рипа
Exact Audio Copy V1.1 from 23. June 2015
Отчёт EAC об извлечении, выполненном 16. августа 2016, 0:00
James Brown / Volume Two
Дисковод: PLEXTOR DVDR PX-712A Adapter: 8 ID: 0
Режим чтения : Достоверность
Использование точного потока : Да
Отключение кэша аудио : Да
Использование указателей C2 : Нет
Коррекция смещения при чтении : 30
Способность читать области Lead-in и Lead-out : Нет
Заполнение пропущенных сэмплов тишиной : Да
Удаление блоков с тишиной в начале и конце : Нет
При вычислениях CRC использовались нулевые сэмплы : Да
Интерфейс : Установленный внешний ASPI-интерфейс
Выходной формат : Пользовательский кодировщик
Выбранный битрейт : 128 kBit/s
Качество : Высокий
Добавление ID3-тега : Нет
Утилита сжатия : C:\Program Files\Exact Audio Copy\FLAC\FLAC.EXE
Дополнительные параметры : -V -8 -T "Genre=%genre%" -T "Artist=%artist%" -T "Title=%title%" -T "Album=%albumtitle%" -T "Date=%year%" -T "Tracknumber=%tracknr%" -T "Comment=%comment%" %source%
TOC извлечённого CD
Трек | Старт | Длительность | Начальный сектор | Конечный сектор
---------------------------------------------------------------------
1 | 0:00.00 | 3:37.73 | 0 | 16347
2 | 3:37.73 | 24:51.07 | 16348 | 128179
3 | 28:29.05 | 8:46.18 | 128180 | 167647
4 | 37:15.23 | 2:07.52 | 167648 | 177224
Характеристики диапазона извлечения и сообщения об ошибках
Выбранный диапазон
Имя файла I:\MOI_RAZDACI\James.Brown_Sex.Machine_Volume.Two\James.Brown_Sex.Machine_Volume.Two\CD-2_Volume.Two\James Brown - Volume Two.wav
Пиковый уровень 96.0 %
Скорость извлечения 11.6 X
Качество диапазона 100.0 %
CRC теста B51AE9B2
CRC копии B51AE9B2
Копирование... OK
Ошибок не произошло
AccurateRip: сводка
Трек 1 отсутствует в базе данных
Трек 2 отсутствует в базе данных
Трек 3 отсутствует в базе данных
Трек 4 отсутствует в базе данных
Ни одного трека нет в базе AccurateRip
Конец отчёта
---- CUETools DB Plugin V2.1.6
[CTDB TOCID: 0yqAc3e7_HbMvj0Z_Y4U3c2dikc-] found
Submit result: 0yqAc3e7_HbMvj0Z_Y4U3c2dikc- has been confirmed
Track | CTDB Status
1 | (4/4) Accurately ripped
2 | (4/4) Accurately ripped
3 | (4/4) Accurately ripped
4 | (4/4) Accurately ripped
==== Контрольная сумма отчёта A26ACC2F83CC281CA3ACD52D12FCFB20C5DC7AF7A450CC9671BA79D479EA6288 ====
 
Содержание индексной карты (.CUE)
REM GENRE Soul
REM DISCID 26093B04
REM COMMENT "ExactAudioCopy v1.1"
PERFORMER "James Brown"
TITLE "Volume Two"
FILE "James Brown - Volume Two.flac" WAVE
TRACK 01 AUDIO
TITLE "I Got the Feeling"
PERFORMER "James Brown"
INDEX 01 00:00:00
TRACK 02 AUDIO
TITLE "Its a Mans Mans World / Super Bad / DiscoRap"
PERFORMER "James Brown"
INDEX 00 03:36:13
INDEX 01 03:37:73
TRACK 03 AUDIO
TITLE "Cold Sweat / When You Touch Me / Papa’s Got a Brand New Bag / I Got You, I Fe..."
PERFORMER "James Brown"
INDEX 00 28:27:35
INDEX 01 28:29:05
TRACK 04 AUDIO
TITLE "Please, Please, Please"
PERFORMER "James Brown"
INDEX 00 37:12:71
INDEX 01 37:15:23
 
Лог проверки качества / Скриншот спектра частот
-----------------------
DON'T MODIFY THIS FILE
-----------------------
PERFORMER: auCDtect Task Manager, ver. 1.5.1RC6 build 1.5.1.7
Copyright (c) 2008-2010 y-soft. All rights reserved
http://y-soft.org
ANALYZER: auCDtect: CD records authenticity detector, version 0.8.2
Copyright (c) 2004 Oleg Berngardt. All rights reserved.
Copyright (c) 2004 Alexander Djourik. All rights reserved.
FILE: James Brown - Volume Two.flac
Size: 197508087 Hash: 54985FAADD944AE856C36D20D7698FCE Accuracy: -m0
Conclusion: CDDA 100%
Signature: B86DC15AA97D84E6BEF8168EE6F37064D3196AA7
 
Скриншот спектра частот
Приватный:
Нет (DHT включён)
Размер:
419.05 Мб (439,409,008 байт) » файлов: 18
Участники:
0 раздают, 0 качают (0 участников всего)
Внешние участники:
2 раздают, 1 качают (3 участников всего) [ Обновить ]
No seeders - write a personal message to user M0p94ok. Нет сидеров - пишите личное сообщение пользователю M0p94ok.
11:27
95
Нет комментариев. Ваш будет первым!