Поиск

(Soul, Funk) [CD] Eddie Kendricks - People... Hold On (Original Recording Remastered) - 2016 (1972), FLAC (tracks+.cue), lossless

(Soul, Funk) [CD] Eddie Kendricks - People... Hold On (Original Recording Remastered) - 2016 (1972), FLAC (tracks+.cue), lossless
Треклист:
Eddie Kendricks / People... Hold On (Original Recording Remastered)
Жанр: Soul, Funk
Носитель: CD
Страна-производитель диска (релиза): USA
Год издания: 2016 (1972)
Издатель (лейбл): Elemental
Аудиокодек: FLAC (*.flac)
Тип рипа: tracks+.cue
Битрейт аудио: lossless
Продолжительность: 00:42:36
Источник (релизер): what.cd (AHappyPancake)
Наличие сканов в содержимом раздачи: да
Треклист:

01. If You Let Me
02. Let Me Run into Your Lonely Heart
03. Day by Day
04. Girl You Need a Change of Mind
05. Someday We'll Have a Better World
06. My People...Hold On
07. Date with the Rain
08. Eddie's Love
09. I'm on the Sideline
10. Just Memories
 
Лог создания рипа
Exact Audio Copy V1.1 from 23. June 2015
EAC extraction logfile from 16. August 2016, 15:51
Eddie Kendricks / People...Hold On
Used drive : HL-DT-STDVDRAM GSA-T50L Adapter: 1 ID: 0
Read mode : Secure
Utilize accurate stream : Yes
Defeat audio cache : Yes
Make use of C2 pointers : No
Read offset correction : 667
Overread into Lead-In and Lead-Out : No
Fill up missing offset samples with silence : Yes
Delete leading and trailing silent blocks : No
Null samples used in CRC calculations : Yes
Used interface : Native Win32 interface for Win NT & 2000
Gap handling : Appended to previous track
Used output format : User Defined Encoder
Selected bitrate : 1024 kBit/s
Quality : High
Add ID3 tag : No
Command line compressor : C:\Program Files (x86)\Exact Audio Copy\Flac\flac.exe
Additional command line options : -8 -e -V -T "ARTIST=%artist%" -T "TITLE=%title%" -T "ALBUM=%albumtitle%" -T "DATE=%year%" -T "TRACKNUMBER=%tracknr%" -T "GENRE=%genre%" -T "PERFORMER=%albuminterpret%" -T "COMPOSER=%composer%" %haslyrics%--tag-from-file=LYRICS="%lyricsfile%"%haslyrics% -T "ALBUMARTIST=%albumartist%" -T "DISCNUMBER=%cdnumber%" -T "TOTALDISCS=%totalcds%" -T "TOTALTRACKS=%numtracks%" -T "COMMENT=%comment%" %source% -o %dest%
TOC of the extracted CD
Track | Start | Length | Start sector | End sector
---------------------------------------------------------
1 | 0:00.00 | 3:28.00 | 0 | 15599
2 | 3:28.00 | 3:15.65 | 15600 | 30289
3 | 6:43.65 | 3:21.53 | 30290 | 45417
4 | 10:05.43 | 7:47.31 | 45418 | 80473
5 | 17:52.74 | 3:47.61 | 80474 | 97559
6 | 21:40.60 | 5:42.48 | 97560 | 123257
7 | 27:23.33 | 2:46.01 | 123258 | 135708
8 | 30:09.34 | 3:34.73 | 135709 | 151831
9 | 33:44.32 | 3:00.07 | 151832 | 165338
10 | 36:44.39 | 5:51.27 | 165339 | 191690
Track 1
Filename C:\EAC Rips\Eddie Kendricks - People... Hold On (1972) [FLAC]\01 - If You Let Me.wav
Pre-gap length 0:00:02.00
Peak level 100.0 %
Extraction speed 2.3 X
Track quality 100.0 %
Test CRC 53FCD180
Copy CRC 53FCD180
Track not present in AccurateRip database
Copy OK
Track 2
Filename C:\EAC Rips\Eddie Kendricks - People... Hold On (1972) [FLAC]\02 - Let Me Run Into Your Lonely Heart.wav
Pre-gap length 0:00:01.98
Peak level 100.0 %
Extraction speed 2.1 X
Track quality 99.9 %
Test CRC A9C13DEA
Copy CRC A9C13DEA
Track not present in AccurateRip database
Copy OK
Track 3
Filename C:\EAC Rips\Eddie Kendricks - People... Hold On (1972) [FLAC]\03 - Day By Day.wav
Pre-gap length 0:00:01.98
Peak level 100.0 %
Extraction speed 2.7 X
Track quality 100.0 %
Test CRC 808736A9
Copy CRC 808736A9
Track not present in AccurateRip database
Copy OK
Track 4
Filename C:\EAC Rips\Eddie Kendricks - People... Hold On (1972) [FLAC]\04 - Girl You Need A Change Of Mind.wav
Pre-gap length 0:00:01.98
Peak level 100.0 %
Extraction speed 3.1 X
Track quality 99.9 %
Test CRC D22B55D7
Copy CRC D22B55D7
Track not present in AccurateRip database
Copy OK
Track 5
Filename C:\EAC Rips\Eddie Kendricks - People... Hold On (1972) [FLAC]\05 - Someday We'll have A Better World.wav
Pre-gap length 0:00:01.98
Peak level 100.0 %
Extraction speed 3.3 X
Track quality 100.0 %
Test CRC 7FD63845
Copy CRC 7FD63845
Track not present in AccurateRip database
Copy OK
Track 6
Filename C:\EAC Rips\Eddie Kendricks - People... Hold On (1972) [FLAC]\06 - My People...Hold On.wav
Pre-gap length 0:00:01.98
Peak level 100.0 %
Extraction speed 3.3 X
Track quality 99.9 %
Test CRC E8C3D9C8
Copy CRC E8C3D9C8
Track not present in AccurateRip database
Copy OK
Track 7
Filename C:\EAC Rips\Eddie Kendricks - People... Hold On (1972) [FLAC]\07 - Date With The Rain.wav
Pre-gap length 0:00:01.98
Peak level 100.0 %
Extraction speed 2.9 X
Track quality 99.9 %
Test CRC 520C9FC6
Copy CRC 520C9FC6
Track not present in AccurateRip database
Copy OK
Track 8
Filename C:\EAC Rips\Eddie Kendricks - People... Hold On (1972) [FLAC]\08 - Eddie's Love.wav
Pre-gap length 0:00:01.98
Peak level 100.0 %
Extraction speed 3.7 X
Track quality 100.0 %
Test CRC 9D67313C
Copy CRC 9D67313C
Track not present in AccurateRip database
Copy OK
Track 9
Filename C:\EAC Rips\Eddie Kendricks - People... Hold On (1972) [FLAC]\09 - I'm On The Sideline.wav
Pre-gap length 0:00:01.98
Peak level 100.0 %
Extraction speed 3.8 X
Track quality 100.0 %
Test CRC 80E1970C
Copy CRC 80E1970C
Track not present in AccurateRip database
Copy OK
Track 10
Filename C:\EAC Rips\Eddie Kendricks - People... Hold On (1972) [FLAC]\10 - Just Memories.wav
Pre-gap length 0:00:01.98
Peak level 100.0 %
Extraction speed 4.3 X
Track quality 100.0 %
Test CRC E1C811EC
Copy CRC E1C811EC
Track not present in AccurateRip database
Copy OK
None of the tracks are present in the AccurateRip database
No errors occurred
End of status report
---- CUETools DB Plugin V2.1.6
[CTDB TOCID: IyO7du0LgqJDw0tNlTh5AZpo29E-] found
Submit result: already submitted
Track | CTDB Status
1 | (2/2) Accurately ripped
2 | (2/2) Accurately ripped
3 | (2/2) Accurately ripped
4 | (2/2) Accurately ripped
5 | (2/2) Accurately ripped
6 | (2/2) Accurately ripped
7 | (2/2) Accurately ripped
8 | (2/2) Accurately ripped
9 | (2/2) Accurately ripped
10 | (2/2) Accurately ripped
==== Log checksum 6E4FAA4ED9C64063A8283C5DB8FDEDC19C7D6D0F699A670D0C3FFB45F713E701 ====
 
Содержание индексной карты (.CUE)
REM GENRE Soul
REM DATE 1972
REM DISCID 5C09FB0A
REM COMMENT "ExactAudioCopy v1.1"
PERFORMER "Eddie Kendricks"
TITLE "People...Hold On"
FILE "01 - If You Let Me.wav" WAVE
TRACK 01 AUDIO
TITLE "If You Let Me"
PERFORMER "Eddie Kendricks"
INDEX 01 00:00:00
TRACK 02 AUDIO
TITLE "Let Me Run Into Your Lonely Heart"
PERFORMER "Eddie Kendricks"
INDEX 00 03:26:01
FILE "02 - Let Me Run Into Your Lonely Heart.wav" WAVE
INDEX 01 00:00:00
TRACK 03 AUDIO
TITLE "Day By Day"
PERFORMER "Eddie Kendricks"
INDEX 00 03:13:66
FILE "03 - Day By Day.wav" WAVE
INDEX 01 00:00:00
TRACK 04 AUDIO
TITLE "Girl You Need A Change Of Mind"
PERFORMER "Eddie Kendricks"
INDEX 00 03:19:54
FILE "04 - Girl You Need A Change Of Mind.wav" WAVE
INDEX 01 00:00:00
TRACK 05 AUDIO
TITLE "Someday We'll have A Better World"
PERFORMER "Eddie Kendricks"
INDEX 00 07:45:32
FILE "05 - Someday We'll have A Better World.wav" WAVE
INDEX 01 00:00:00
TRACK 06 AUDIO
TITLE "My People...Hold On"
PERFORMER "Eddie Kendricks"
INDEX 00 03:45:62
FILE "06 - My People...Hold On.wav" WAVE
INDEX 01 00:00:00
TRACK 07 AUDIO
TITLE "Date With The Rain"
PERFORMER "Eddie Kendricks"
INDEX 00 05:40:49
FILE "07 - Date With The Rain.wav" WAVE
INDEX 01 00:00:00
TRACK 08 AUDIO
TITLE "Eddie's Love"
PERFORMER "Eddie Kendricks"
INDEX 00 02:44:02
FILE "08 - Eddie's Love.wav" WAVE
INDEX 01 00:00:00
TRACK 09 AUDIO
TITLE "I'm On The Sideline"
PERFORMER "Eddie Kendricks"
INDEX 00 03:32:74
FILE "09 - I'm On The Sideline.wav" WAVE
INDEX 01 00:00:00
TRACK 10 AUDIO
TITLE "Just Memories"
PERFORMER "Eddie Kendricks"
INDEX 00 02:58:08
FILE "10 - Just Memories.wav" WAVE
INDEX 01 00:00:00
Приватный:
Нет (DHT включён)
Размер:
299.84 Мб (314,409,417 байт) » файлов: 18
Участники:
0 раздают, 0 качают (0 участников всего)
Внешние участники:
2 раздают, 1 качают (3 участников всего) [ Обновить ]
No seeders - write a personal message to user M0p94ok. Нет сидеров - пишите личное сообщение пользователю M0p94ok.
11:27
96
Нет комментариев. Ваш будет первым!