Поиск

(Funk, Soul, R&B) [CD] Carmel - The Drum Is Everything - 1986, FLAC (image+.cue), lossless

(Funk, Soul, R&B) [CD] Carmel - The Drum Is Everything - 1986, FLAC (image+.cue), lossless
Треклист:
Carmel / The Drum Is Everything
Жанр: Funk, Soul, R&B
Носитель: CD
Страна-производитель диска (релиза): Germany
Год издания: 1986
Издатель (лейбл): Metronome Musik GmbH
Номер по каталогу: 820 221-2
Страна исполнителя (группы): UK
Аудиокодек: FLAC (*.flac)
Тип рипа: image+.cue
Битрейт аудио: lossless
Продолжительность: 00:40:14
Источник (релизер): рип с собственного CD
Наличие сканов в содержимом раздачи: да (*.jpg,300dpi)
Треклист:
01. More, more, more             [0:06:25.60]
02. Stormy weather [0:03:42.35]
03. The drum is everything [0:01:59.67]
04. I thought I was going mad [0:01:46.35]
05. The prayer [0:06:43.00]
06. Rockin' on suicide [0:02:00.15]
07. Rue St. Denis (version) [0:04:19.38]
08. Willow weep for me [0:02:44.62]
09. Tracks of my tears [0:03:55.70]
10. Bad day [0:06:36.30]
 
Лог создания рипа
Exact Audio Copy V1.0 beta 3 from 29. August 2011
EAC extraction logfile from 6. September 2016, 21:41
Carmel / The drum is everything
Used drive : Optiarc DVD RW AD-7593A Adapter: 3 ID: 0
Read mode : Secure
Utilize accurate stream : Yes
Defeat audio cache : Yes
Make use of C2 pointers : No
Read offset correction : 48
Overread into Lead-In and Lead-Out : No
Fill up missing offset samples with silence : Yes
Delete leading and trailing silent blocks : No
Null samples used in CRC calculations : Yes
Used interface : Native Win32 interface for Win NT & 2000
Used output format : User Defined Encoder
Selected bitrate : 896 kBit/s
Quality : High
Add ID3 tag : No
Command line compressor : H:\PORTABL-ALT\Exact Audio Copy 1_0 beta 3 Portable\Exact Audio Copy
1.0 beta 3 Portable\EAC_1.0_beta_3_Portable_Multilingual\App\EAC\FLAC\flac.exe
Additional command line options : -6 -V -T "ARTIST=%artist%" -T "TITLE=%title%" -T "ALBUM=%albumtitle%"
-T "DATE=%year%" -T "TRACKNUMBER=%tracknr%" -T "GENRE=%genre%" -T "COMMENT=%comment%"
%hascover%--picture="%coverfile%"%hascover% %source% -o %dest%
TOC of the extracted CD
Track | Start | Length | Start sector | End sector
---------------------------------------------------------
1 | 0:00.33 | 6:25.60 | 33 | 28967
2 | 6:26.18 | 3:42.35 | 28968 | 45652
3 | 10:08.53 | 1:59.67 | 45653 | 54644
4 | 12:08.45 | 1:46.35 | 54645 | 62629
5 | 13:55.05 | 6:43.00 | 62630 | 92854
6 | 20:38.05 | 2:00.15 | 92855 | 101869
7 | 22:38.20 | 4:19.38 | 101870 | 121332
8 | 26:57.58 | 2:44.62 | 121333 | 133694
9 | 29:42.45 | 3:55.70 | 133695 | 151389
10 | 33:38.40 | 6:36.30 | 151390 | 181119
Range status and errors
Selected range
Filename I:\Carmel - The Drum Is Everything\Carmel - The drum is everything.wav
Peak level 77.6 %
Extraction speed 3.9 X
Range quality 100.0 %
Test CRC 9C2ED8DC
Copy CRC 9C2ED8DC
Copy OK
No errors occurred
AccurateRip summary
Track 1 accurately ripped (confidence 33) [6CF12C33] (AR v2)
Track 2 accurately ripped (confidence 33) [E0D49ECD] (AR v2)
Track 3 accurately ripped (confidence 33) [9C157F00] (AR v2)
Track 4 accurately ripped (confidence 33) [9DF8D204] (AR v2)
Track 5 accurately ripped (confidence 32) [94CF5A83] (AR v2)
Track 6 accurately ripped (confidence 33) [C34B493A] (AR v2)
Track 7 accurately ripped (confidence 33) [F2D483F7] (AR v2)
Track 8 accurately ripped (confidence 33) [BB648DB5] (AR v2)
Track 9 accurately ripped (confidence 33) [476212E3] (AR v2)
Track 10 accurately ripped (confidence 33) [5096EC9A] (AR v2)
All tracks accurately ripped
End of status report
==== Log checksum 993BEF8D0CEB6BE1DE5F61902B25BC8B2434C3E380BAF5D03357454DBC46E182 ====
 
Содержание индексной карты (.CUE)
REM GENRE Jazz
REM DATE 1987
REM DISCID 72096E0A
REM COMMENT "ExactAudioCopy v1.0b3"
PERFORMER "Carmel"
TITLE "The drum is everything"
FILE "Carmel - The drum is everything.flac" WAVE
TRACK 01 AUDIO
TITLE "More, more, more"
PERFORMER "Carmel"
INDEX 00 00:00:00
INDEX 01 00:00:33
TRACK 02 AUDIO
TITLE "Stormy weather"
PERFORMER "Carmel"
INDEX 00 06:25:25
INDEX 01 06:26:18
TRACK 03 AUDIO
TITLE "The drum is everything"
PERFORMER "Carmel"
INDEX 01 10:08:53
TRACK 04 AUDIO
TITLE "I thought I was going mad"
PERFORMER "Carmel"
INDEX 01 12:08:45
TRACK 05 AUDIO
TITLE "The prayer"
PERFORMER "Carmel"
INDEX 00 13:53:70
INDEX 01 13:55:05
TRACK 06 AUDIO
TITLE "Rockin' on suicide"
PERFORMER "Carmel"
INDEX 00 20:36:63
INDEX 01 20:38:05
TRACK 07 AUDIO
TITLE "Rue St. Denis (version)"
PERFORMER "Carmel"
INDEX 01 22:38:20
TRACK 08 AUDIO
TITLE "Willow weep for me"
PERFORMER "Carmel"
INDEX 00 26:57:13
INDEX 01 26:57:58
TRACK 09 AUDIO
TITLE "Tracks of my tears"
PERFORMER "Carmel"
INDEX 00 29:40:33
INDEX 01 29:42:45
TRACK 10 AUDIO
TITLE "Bad day"
PERFORMER "Carmel"
INDEX 01 33:38:40
 
АЧХ и СПЕКТР (превью - увеличение по клику)

срезанные частоты выше 20 кГц можно объяснить только аналоговым редактированием для последующей записи (SPARS code - AAD: A - аналоговый магнитофон во время первоначальной записи, A - аналоговое смешивание и редактирование, D - цифровой мастеринг). Тогда звукоинженеры так избавлялись от вредных гармоник. Кто ж знал, что впоследствии заведутся люди, которые могут общаться с летучими мышами...
 
Состав:
Vocals – Carmel
Double Bass – Jimmy Paris
Drums – Gerry Darby
Приглашённые музыканты:
Backing Vocals – Helen Watson (1, 4, 10), Rush Winters (10), Shirley Laidley (1, 4)
Drums [Master Drummer] – Isaac "Kofi" Osapanin (5, 7), Johnny Folarin (5, 7)
Horns – Sounds 18 (tracks: 1, 6)
Organ [Hammond] – Peter Saunders (1, 8, 9), Steve Nieve (10)
 
Сканы (300 px, 72 dpi)


 
Отдельно сканы самого диска (превью - увеличение по клику)
 
Доп. информация
Barcode: 0 42282 02212 7
Matrix / Runout: 820 221-2 04 #
Rights Society: GEMA
Label Code: LC 0270 (Metronome Universal Music Entertainment GmbH)
SPARS code: AAD
Made in W.-Germany by PDO (Philips and Du Pont Optical GmbH, 1986-1991)
 
Об альбоме
На обложке не указан год выпуска. Предположительно - 1986.
Такие же релизы выходили в 1986-1987 годах. Ссылка
 
Подробнее под спойлером:
PDO, Germany - Philips and Du Pont Optical GmbH
German record company with two vinyl, a CD and a cassette manufacturing plant. Operating under this name from January 1986 until September 1991.
....
How to identify CDs (1986-1991):
This plant is directly credited in the CD matrix string as either "Made in West Germany by PDO" or "Manufactured by PDO Hanover, West Germany" or "Made in Germany by PDO" after the German reunification.Important note: PDO was often repressing CDs but left the old artwork of the preceeding plant. In those cases, please only add PDO, Germany with Reissue as format.
CDs credited with "Made by Polygram, Hanover (or Hannover)" or simply "Made by PolyGram" belong to Polygram, Hanover, West Germany plant. Ссылка
Label Code: LC 0270 - Metronome Universal Music Entertainment GmbH
The German company, then named Metronome Musik GmbH, became part of Polygram in the mid-1970s. Ссылка
... и маленький шедевр - "Bad Day". Всего лишь контрабас, хаммонд, барабаны и вокал Кармель Маккорт. И получилось чудо на границе блюза и госпела.
Кроме основных участников группы, вокалистки Carmel McCourt, басиста Jim Parris и его двоюродного брата, барабанщика Gerry Darby, в записи композиции участвовали приглашённый клавишник Steve Nieve и беквокалистки Helen Watson и Rush Winters. (и никаких гитарастов-джобанамастов, этих набивших оскомину генераторов блюзовых банальностей).
Жаль, что забыли эту группу 80-ых. Талантливые музыканты успешно экспериментировали, смешивая соул, блюз, госпел, регги, джаз. Из наших в похожем стиле выступали разве что "Квартал".
P.s: здесь расширенная версия "Плохого Дня". Оригинальная (трёхминутная) - на этом сборнике
P.p.s: ну и, конечно, какая-то курица прекрасная фемина, Antonella, увековечила своё имя на CD несмываемым маркером, а потом не менее "умный", неизвестно какой по счёту, владелец(владелица) попытался стереть эту надпись растворителем (наверное для лака для ногтей). В результате на наружней стороне диска имеем то, что имеем. На звуке это никак не сказалось.
Внимание! Торрент перезалит - из раздачи удалены скрины спектрограмм.
Приватный:
Нет (DHT включён)
Размер:
229.87 Мб (241,039,933 байт) » файлов: 9
Участники:
0 раздают, 0 качают (0 участников всего)
Внешние участники:
5 раздают, 1 качают (6 участников всего) [ Обновить ]
No seeders - write a personal message to user M0p94ok. Нет сидеров - пишите личное сообщение пользователю M0p94ok.
11:56
66
Нет комментариев. Ваш будет первым!