Поиск

(Soul-Jazz, Jazz-Funk, Avant-Garde Jazz) [CD] Pharoah Sanders & Norman Connors - Beyond a Dream - 1978 (2016 Japan Edition), FLAC (tracks+.cue), lossless

(Soul-Jazz, Jazz-Funk, Avant-Garde Jazz) [CD] Pharoah Sanders & Norman Connors - Beyond a Dream - 1978 (2016 Japan Edition), FLAC (tracks+.cue), lossless
Треклист:
Pharoah Sanders & Norman Connors - Beyond a Dream
Жанр: Soul-Jazz, Jazz-Funk, Avant-Garde Jazz
Носитель: CD
Страна-производитель диска (релиза): Япония
Год издания: 2016
Издатель (лейбл): Arista Novus/Sony Music Entertainment
Номер по каталогу: SICJ-157
Аудиокодек: FLAC (*.flac)
Тип рипа: tracks+.cue
Битрейт аудио: lossless
Продолжительность: 44:30
Источник (релизер): stoichie (what)
Наличие сканов в содержимом раздачи: нет
Треклист:
01. Babylon (McCoy) - 8:48
02. Beyond a Dream (Cox) - 10:34
03. Montreux Overture (Sanders) - 4:40
04. The End of the Beginning (Lyle) - 4:59
05. Casino Latino (Sanders) - 15:29
 
Лог создания рипа
Exact Audio Copy V1.0 beta 6 from 9. April 2015
EAC extraction logfile from 10. August 2016, 22:49
Pharoah Sanders & Norman Connors / Beyond A Dream
Used drive : MATSHITADVD+-RW UJ8FB Adapter: 1 ID: 0
Read mode : Secure
Utilize accurate stream : Yes
Defeat audio cache : Yes
Make use of C2 pointers : No
Read offset correction : 6
Overread into Lead-In and Lead-Out : No
Fill up missing offset samples with silence : Yes
Delete leading and trailing silent blocks : No
Null samples used in CRC calculations : Yes
Used interface : Native Win32 interface for Win NT & 2000
Gap handling : Appended to previous track
Used output format : User Defined Encoder
Selected bitrate : 1024 kBit/s
Quality : High
Add ID3 tag : No
Command line compressor : C:\Program Files\Flac\flac.exe
Additional command line options : -8 -V -T "ARTIST=%artist%" -T "TITLE=%title%" -T "ALBUM=%albumtitle%" -T "DATE=%year%" -T "TRACKNUMBER=%tracknr%" -T "GENRE=%genre%" -T "PERFORMER=%albuminterpret%" -T "COMPOSER=%composer%" %haslyrics%--tag-from-file=LYRICS="%lyricsfile%"%haslyrics% -T "ALBUMARTIST=%albumartist%" -T "DISCNUMBER=%cdnumber%" -T "TOTALDISCS=%totalcds%" -T "TOTALTRACKS=%numtracks%" -T "COMMENT=%comment%" %source% -o %dest%
TOC of the extracted CD
Track | Start | Length | Start sector | End sector
---------------------------------------------------------
1 | 0:00.00 | 8:47.54 | 0 | 39578
2 | 8:47.54 | 10:33.71 | 39579 | 87124
3 | 19:21.50 | 4:40.22 | 87125 | 108146
4 | 24:01.72 | 4:58.57 | 108147 | 130553
5 | 29:00.54 | 15:29.28 | 130554 | 200256
Track 1
Filename C:\EAC Rips\Pharoah Sanders & Norman Connors - Beyond A Dream (1981)\01 - Babylon.wav
Pre-gap length 0:00:02.00
Peak level 100.0 %
Extraction speed 3.0 X
Track quality 100.0 %
Test CRC 327A5410
Copy CRC 327A5410
Accurately ripped (confidence 4) [38F3951F] (AR v2)
Copy OK
Track 2
Filename C:\EAC Rips\Pharoah Sanders & Norman Connors - Beyond A Dream (1981)\02 - Beyond A Dream.wav
Peak level 100.0 %
Extraction speed 2.8 X
Track quality 99.9 %
Test CRC 5CD18770
Copy CRC 5CD18770
Accurately ripped (confidence 4) [037EB27C] (AR v2)
Copy OK
Track 3
Filename C:\EAC Rips\Pharoah Sanders & Norman Connors - Beyond A Dream (1981)\03 - Montreux Overture.wav
Peak level 96.8 %
Extraction speed 3.9 X
Track quality 100.0 %
Test CRC 8DA4BDEA
Copy CRC 8DA4BDEA
Accurately ripped (confidence 4) [B41B1F8B] (AR v2)
Copy OK
Track 4
Filename C:\EAC Rips\Pharoah Sanders & Norman Connors - Beyond A Dream (1981)\04 - The The Of The Beginning.wav
Peak level 94.7 %
Extraction speed 4.1 X
Track quality 100.0 %
Test CRC 8E62247B
Copy CRC 8E62247B
Accurately ripped (confidence 4) [EC464127] (AR v2)
Copy OK
Track 5
Filename C:\EAC Rips\Pharoah Sanders & Norman Connors - Beyond A Dream (1981)\05 - Casino Latino.wav
Peak level 100.0 %
Extraction speed 5.0 X
Track quality 100.0 %
Test CRC F7BDED9E
Copy CRC F7BDED9E
Accurately ripped (confidence 4) [F95C1025] (AR v2)
Copy OK
All tracks accurately ripped
No errors occurred
End of status report
---- CUETools DB Plugin V2.1.6
[CTDB TOCID: 7hhr1ah3DunaLi5B5Qm.BGWy1Ac-] found
Submit result: 7hhr1ah3DunaLi5B5Qm.BGWy1Ac- has been confirmed
Track | CTDB Status
1 | (5/5) Accurately ripped
2 | (5/5) Accurately ripped
3 | (5/5) Accurately ripped
4 | (5/5) Accurately ripped
5 | (5/5) Accurately ripped
==== Log checksum ED883755FF6AB604FFB1C6F2B58A4F0C70E5DF2F1778CF9BF6E6E36A6DEBAC7F ====
 
Содержание индексной карты (.CUE)
REM GENRE Jazz
REM DATE 1978
REM DISCID 370A6E05
REM COMMENT "ExactAudioCopy v1.0b6"
PERFORMER "Pharoah Sanders & Norman Connors"
TITLE "Beyond a Dream"
FILE "01 - Babylon.wav" WAVE
TRACK 01 AUDIO
TITLE "Babylon"
PERFORMER "Pharoah Sanders & Norman Connors"
ISRC USAR10500410
INDEX 01 00:00:00
FILE "02 - Beyond a Dream.wav" WAVE
TRACK 02 AUDIO
TITLE "Beyond a Dream"
PERFORMER "Pharoah Sanders & Norman Connors"
ISRC USAR10500411
INDEX 01 00:00:00
FILE "03 - Montreux Overture.wav" WAVE
TRACK 03 AUDIO
TITLE "Montreux Overture"
PERFORMER "Pharoah Sanders & Norman Connors"
ISRC USAR10500412
INDEX 01 00:00:00
FILE "04 - The End of the Beginning.wav" WAVE
TRACK 04 AUDIO
TITLE "The End of the Beginning"
PERFORMER "Pharoah Sanders & Norman Connors"
ISRC USAR10500413
INDEX 01 00:00:00
FILE "05 - Casino Latino.wav" WAVE
TRACK 05 AUDIO
TITLE "Casino Latino"
PERFORMER "Pharoah Sanders & Norman Connors"
ISRC USAR10500414
INDEX 01 00:00:00
 
Отчет CUETools
[CUETools log; Date: 11.09.2016 2:35:52; Version: 2.1.5]
[CTDB TOCID: 7hhr1ah3DunaLi5B5Qm.BGWy1Ac-] found.
Track | CTDB Status
1 | (7/7) Accurately ripped
2 | (7/7) Accurately ripped
3 | (7/7) Accurately ripped
4 | (7/7) Accurately ripped
5 | (7/7) Accurately ripped
[AccurateRip ID: 0008a19e-0028176a-370a6e05] found.
Track [ CRC | V2 ] Status
01 [cf9c5b08|38f3951f] (0+4/4) Accurately ripped
02 [70b1da27|037eb27c] (0+4/4) Accurately ripped
03 [7ee882c8|b41b1f8b] (0+4/4) Accurately ripped
04 [103f63f9|ec464127] (0+4/4) Accurately ripped
05 [38878b20|f95c1025] (0+4/4) Accurately ripped
Track Peak [ CRC32 ] [W/O NULL] [ LOG ]
-- 100,0 [06F84163] [471D1CE0]
01 100,0 [327A5410] [A1DED4E4] CRC32
02 100,0 [5CD18770] [C988A2A0] CRC32
03 96,8 [8DA4BDEA] [2632948D] CRC32
04 94,7 [8E62247B] [4BC13D2C] CRC32
05 100,0 [F7BDED9E] [662CC4F9] CRC32
 
Об альбоме (сборнике)
A dream of a record from this legendary spiritual jazz duo – drummer Norman Connors and reedman Pharoah Sanders – coming together in a freewheeling spiritual jazz style that's a lot more like Connors' earlier albums than the soulful fusion he was mostly recording in the late 70s! The album was recorded live at the Montreux Jazz Festival, and features long-spinning tracks that step out nicely in a way that takes us back to Norman's Cobblestone Records years – no vocals at all, and instead some nicely expressive work from Pharoah Sanders on tenor, Bobby Lyle on acoustic piano, and Buzzy Jones on tenor, soprano sax, and flute. Lyle and Sanders drop out for two of the album's five tracks, but there's still a very unified, jazzy vibe to the record throughout.
 
Состав
Norman Connors - drums, tympani, percussion
Pharoah Sanders - tenor saxophone (#3-5)
Bobby Lyle - piano (#3-5)
Buzzy Jones - tenor saxophone, soprano saxophone, flute
Duke Jones - trumpet
Greg Hill - guitar
Billy McCoy - piano, electric keyboards
Jacques Burvick - electric keyboards
Alex Blake - electric bass
Lawrence Killian, Petro Bass - congas, percussion
Recorded live at Montreux Jazz Festival on July 22, 1978.
Приватный:
Нет (DHT включён)
Размер:
289.49 Мб (303,552,159 байт) » файлов: 13
Участники:
0 раздают, 0 качают (0 участников всего)
Внешние участники:
5 раздают, 1 качают (6 участников всего) [ Обновить ]
Скорость:
1006.59 Кб/c 0/c
Есть вопросы - пишите личное сообщение пользователю M0p94ok.
11:57
57
Нет комментариев. Ваш будет первым!