Поиск

(R&B) [CD] Smokey Robinson & The Miracles - Smokey Robinson & The Miracles - The 35th Anniversary Collection - 1994 (1957-1986), FLAC (image+.cue), lossless

(R&B) [CD] Smokey Robinson & The Miracles - Smokey Robinson & The Miracles - The 35th Anniversary Collection - 1994 (1957-1986), FLAC (image+.cue), lossless
Треклист:
Smokey Robinson & The Miracles / The 35th Anniversary Collection Box set Edition 4 CD
Жанр: R&B
Носитель: CD
Страна-производитель диска (релиза): USA
Год издания: 1994 (1957-1986)
Издатель (лейбл): Motown
Номер по каталогу: EAN 737463633420
Страна исполнителя (группы): USA
Аудиокодек: FLAC (*.flac)
Тип рипа: image+.cue
Битрейт аудио: lossless
Продолжительность: 04:49:56
Источник (релизер): свой рип
Наличие сканов в содержимом раздачи: нет
 
CD 1
 
Треклист
1. Got a Job
2. I Cry
3. Bad Girl
4. All I Want (Is You)
5. It - (previously unreleased)
6. Original Version) Way Over There - (previously unreleased
7. The - (previously unreleased) Feeling Is So Fine
8. (You Can) Depend on Me
9. original Detroit version) Shop Around - (previously unreleased
10. Who's Lovin' You
11. Shop Around - (National Hit version)
12. After All
13. Ain't It Baby
14. Mighty Good Lovin' - (previously unreleased)
15. Broken Hearted
16. Everybody's Gotta Pay Some Dues
17. That's the Way I Feel
18. Determination
19. I Had to Cry - (previously unreleased)
20. What's So Good About Goodbye
21. I've Been So Good to You
22. I'll Try Something New
23. You Never Miss a Good Thing
24. If Your Mother Only Knew
25. He Don't Care About Me
26. A Love That Can Never Be
Продолжительность:01:11:54
 
Лог создания рипа
Exact Audio Copy V1.1 from 23. June 2015
Отчёт EAC об извлечении, выполненном 18. сентября 2016, 17:10
Smokey Robinson & The Miracles / The 35th Anniversary Collection
Дисковод: TSSTcorpCDDVDW TS-L633F Adapter: 1 ID: 0
Режим чтения : Достоверность
Использование точного потока : Да
Отключение кэша аудио : Да
Использование указателей C2 : Нет
Коррекция смещения при чтении : 6
Способность читать области Lead-in и Lead-out : Нет
Заполнение пропущенных сэмплов тишиной : Да
Удаление блоков с тишиной в начале и конце : Нет
При вычислениях CRC использовались нулевые сэмплы : Да
Интерфейс : Встроенный Win32-интерфейс для Win NT/2000
Выходной формат : Пользовательский кодировщик
Выбранный битрейт : 768 kBit/s
Качество : Высокий
Добавление ID3-тега : Нет
Утилита сжатия : C:\Program Files (x86)\Exact Audio Copy\FLAC\FLAC.EXE
Дополнительные параметры : -6 -V -T "ARTIST=%artist%" -T "TITLE=%title%" -T "ALBUM=%albumtitle%" -T "DATE=%year%" -T "TRACKNUMBER=%tracknr%" -T "GENRE=%genre%" -T "COMMENT=%comment%" -T "BAND=%albuminterpret%" -T "ALBUMARTIST=%albuminterpret%" -T "COMPOSER=%composer%" %haslyrics%--tag-from-file=LYRICS="%lyricsfile%"%haslyrics% -T "DISCNUMBER=%cdnumber%" -T "TOTALDISCS=%totalcds%" -T "TOTALTRACKS=%numtracks%" %hascover%--picture="%coverfile%"%hascover% %source% -o %dest%
TOC извлечённого CD
Трек | Старт | Длительность | Начальный сектор | Конечный сектор
---------------------------------------------------------------------
1 | 0:00.32 | 2:43.73 | 32 | 12329
2 | 2:44.30 | 2:37.60 | 12330 | 24164
3 | 5:22.15 | 2:44.37 | 24165 | 36501
4 | 8:06.52 | 2:45.23 | 36502 | 48899
5 | 10:52.00 | 2:45.12 | 48900 | 61286
6 | 13:37.12 | 3:02.73 | 61287 | 75009
7 | 16:40.10 | 2:44.42 | 75010 | 87351
8 | 19:24.52 | 3:10.68 | 87352 | 101669
9 | 22:35.45 | 3:04.52 | 101670 | 115521
10 | 25:40.22 | 3:06.13 | 115522 | 129484
11 | 28:46.35 | 2:52.12 | 129485 | 142396
12 | 31:38.47 | 2:48.08 | 142397 | 155004
13 | 34:26.55 | 2:35.52 | 155005 | 166681
14 | 37:02.32 | 2:39.73 | 166682 | 178679
15 | 39:42.30 | 3:04.20 | 178680 | 192499
16 | 42:46.50 | 2:57.55 | 192500 | 205829
17 | 45:44.30 | 2:40.42 | 205830 | 217871
18 | 48:24.72 | 2:20.45 | 217872 | 228416
19 | 50:45.42 | 2:47.28 | 228417 | 240969
20 | 53:32.70 | 2:24.32 | 240970 | 251801
21 | 55:57.27 | 2:42.60 | 251802 | 264011
22 | 58:40.12 | 2:39.55 | 264012 | 275991
23 | 61:19.67 | 2:44.58 | 275992 | 288349
24 | 64:04.50 | 2:43.57 | 288350 | 300631
25 | 66:48.32 | 2:17.68 | 300632 | 310974
26 | 69:06.25 | 2:47.65 | 310975 | 323564
Характеристики диапазона извлечения и сообщения об ошибках
Выбранный диапазон
Имя файла D:\Раздачи\Smokey Robinson & The Miracles - The 35th Anniversary Collection\CD 1\Smokey Robinson & The Miracles - The 35th Anniversary Collection CD 1.wav
Пиковый уровень 100.0 %
Скорость извлечения 3.4 X
Качество диапазона 100.0 %
CRC теста DD16DF5C
CRC копии DD16DF5C
Копирование... OK
Ошибок не произошло
AccurateRip: сводка
Трек 1 : извлечено точно (доверие 3) [1FB1FEF2] (AR v2)
Трек 2 : извлечено точно (доверие 3) [EC436176] (AR v2)
Трек 3 : извлечено точно (доверие 3) [6F87AC50] (AR v2)
Трек 4 : извлечено точно (доверие 3) [01789553] (AR v2)
Трек 5 : извлечено точно (доверие 3) [AAD1952E] (AR v2)
Трек 6 : извлечено точно (доверие 3) [0B9E8206] (AR v2)
Трек 7 : извлечено точно (доверие 3) [04BB9DFC] (AR v2)
Трек 8 : извлечено точно (доверие 3) [2B0B401B] (AR v2)
Трек 9 : извлечено точно (доверие 3) [8657C1C9] (AR v2)
Трек 10 : извлечено точно (доверие 3) [ED17B850] (AR v2)
Трек 11 : извлечено точно (доверие 3) [744A6407] (AR v2)
Трек 12 точность не определена (достоверность 18) [E44F7B8C], AccurateRip вернул [75A6272F] (AR v2)
Трек 13 точность не определена (достоверность 17) [F866DC1E], AccurateRip вернул [2F5362DC] (AR v2)
Трек 14 : извлечено точно (доверие 3) [22527502] (AR v2)
Трек 15 : извлечено точно (доверие 3) [5452F2BD] (AR v2)
Трек 16 : извлечено точно (доверие 3) [06A8BD9A] (AR v2)
Трек 17 : извлечено точно (доверие 3) [7FCC0647] (AR v2)
Трек 18 : извлечено точно (доверие 3) [C3A3222B] (AR v2)
Трек 19 : извлечено точно (доверие 3) [143B7C30] (AR v2)
Трек 20 : извлечено точно (доверие 3) [9EBCA2AD] (AR v2)
Трек 21 : извлечено точно (доверие 3) [38C206D5] (AR v2)
Трек 22 : извлечено точно (доверие 3) [D5A87D73] (AR v2)
Трек 23 : извлечено точно (доверие 3) [F6CFB508] (AR v2)
Трек 24 : извлечено точно (доверие 3) [C9AB9768] (AR v2)
Трек 25 : извлечено точно (доверие 2) [352B8AF2] (AR v2)
Трек 26 : извлечено точно (доверие 2) [6ADE4649] (AR v2)
24 трек(и) скопированы точно
2 трек(и) не удалось проверить на точность
Некоторые треки не прошли проверку на точность
Конец отчёта
==== Контрольная сумма отчёта 45677012C2CFBFDC9B239418C9F7158FD141FB8130622E6D88A897EA99A32078 ====
 
CD 2
 
Треклист
1. You've Really Got a Hold on Me
2. Happy Landing
3. Father Dear - (previously unreleased)
4. A Love She Can Count On
5. Mickey's Monkey
6. Whatever Makes You Happy
7. The (You Have to Take the Other) - (previously unreleased) Day You Take One
8. I Gotta Dance to Keep From Crying
9. (You Can't Let the Boy Overpower) The - (previously unreleased) Man in You
10. Heartbreak Road
11. Show Me You Can Dance-(Previously Unreleased) - (previously unreleased)
12. I Like It Like That
13. You're So Fine and Sweet - (previously unreleased)
14. That's What Love Is Made Of
15. Baby Don't You Go - (previously unreleased)
16. OOO Baby Baby
17. All That's Good
18. The Tracks of My Tears
19. A Fork in the Road
20. My Girl Has Gone
21. Going to a Go-Go
22. Choosey Beggar
23. I'm Stuck on You
24. Whole Lot of Shakin' in My Heart (Since I Met You)
25. Oh Be My Love
Продолжительность:01:09:38
 
Лог создания рипа
Exact Audio Copy V1.1 from 23. June 2015
Отчёт EAC об извлечении, выполненном 18. сентября 2016, 17:55
Smokey Robinson & The Miracles / The 35th Anniversary Collection CD 2
Дисковод: TSSTcorpCDDVDW TS-L633F Adapter: 1 ID: 0
Режим чтения : Достоверность
Использование точного потока : Да
Отключение кэша аудио : Да
Использование указателей C2 : Нет
Коррекция смещения при чтении : 6
Способность читать области Lead-in и Lead-out : Нет
Заполнение пропущенных сэмплов тишиной : Да
Удаление блоков с тишиной в начале и конце : Нет
При вычислениях CRC использовались нулевые сэмплы : Да
Интерфейс : Встроенный Win32-интерфейс для Win NT/2000
Выходной формат : Пользовательский кодировщик
Выбранный битрейт : 768 kBit/s
Качество : Высокий
Добавление ID3-тега : Нет
Утилита сжатия : C:\Program Files (x86)\Exact Audio Copy\FLAC\FLAC.EXE
Дополнительные параметры : -6 -V -T "ARTIST=%artist%" -T "TITLE=%title%" -T "ALBUM=%albumtitle%" -T "DATE=%year%" -T "TRACKNUMBER=%tracknr%" -T "GENRE=%genre%" -T "COMMENT=%comment%" -T "BAND=%albuminterpret%" -T "ALBUMARTIST=%albuminterpret%" -T "COMPOSER=%composer%" %haslyrics%--tag-from-file=LYRICS="%lyricsfile%"%haslyrics% -T "DISCNUMBER=%cdnumber%" -T "TOTALDISCS=%totalcds%" -T "TOTALTRACKS=%numtracks%" %hascover%--picture="%coverfile%"%hascover% %source% -o %dest%
TOC извлечённого CD
Трек | Старт | Длительность | Начальный сектор | Конечный сектор
---------------------------------------------------------------------
1 | 0:00.32 | 2:59.68 | 32 | 13524
2 | 3:00.25 | 2:48.30 | 13525 | 26154
3 | 5:48.55 | 2:34.40 | 26155 | 37744
4 | 8:23.20 | 2:52.30 | 37745 | 50674
5 | 11:15.50 | 2:47.37 | 50675 | 63236
6 | 14:03.12 | 2:33.45 | 63237 | 74756
7 | 16:36.57 | 2:36.25 | 74757 | 86481
8 | 19:13.07 | 2:39.73 | 86482 | 98479
9 | 21:53.05 | 2:55.67 | 98480 | 111671
10 | 24:48.72 | 2:46.55 | 111672 | 124176
11 | 27:35.52 | 2:23.53 | 124177 | 134954
12 | 29:59.30 | 2:36.60 | 134955 | 146714
13 | 32:36.15 | 2:20.50 | 146715 | 157264
14 | 34:56.65 | 2:58.30 | 157265 | 170644
15 | 37:55.20 | 2:59.17 | 170645 | 184086
16 | 40:54.37 | 2:44.65 | 184087 | 196451
17 | 43:39.27 | 2:54.38 | 196452 | 209539
18 | 46:33.65 | 3:02.67 | 209540 | 223256
19 | 49:36.57 | 3:22.23 | 223257 | 238429
20 | 52:59.05 | 2:54.60 | 238430 | 251539
21 | 55:53.65 | 2:51.45 | 251540 | 264409
22 | 58:45.35 | 2:33.72 | 264410 | 275956
23 | 61:19.32 | 2:44.65 | 275957 | 288321
24 | 64:04.22 | 2:43.58 | 288322 | 300604
25 | 66:48.05 | 2:50.42 | 300605 | 313396
Характеристики диапазона извлечения и сообщения об ошибках
Выбранный диапазон
Имя файла D:\Раздачи\Smokey Robinson & The Miracles - The 35th Anniversary Collection\CD 2\Smokey Robinson & The Miracles - The 35th Anniversary Collection CD 2.wav
Пиковый уровень 100.0 %
Скорость извлечения 3.4 X
Качество диапазона 100.0 %
CRC теста 36B76443
CRC копии 36B76443
Копирование... OK
Ошибок не произошло
AccurateRip: сводка
Трек 1 : извлечено точно (доверие 7) [4809559A] (AR v2)
Трек 2 : извлечено точно (доверие 7) [ABEDAAB9] (AR v2)
Трек 3 : извлечено точно (доверие 7) [EFDF3C74] (AR v2)
Трек 4 : извлечено точно (доверие 7) [DC4AE885] (AR v2)
Трек 5 : извлечено точно (доверие 7) [3AA50BF0] (AR v2)
Трек 6 : извлечено точно (доверие 7) [DB684CB4] (AR v2)
Трек 7 : извлечено точно (доверие 7) [EBFB68D2] (AR v2)
Трек 8 : извлечено точно (доверие 7) [70559135] (AR v2)
Трек 9 : извлечено точно (доверие 7) [CC0D8588] (AR v2)
Трек 10 : извлечено точно (доверие 7) [E370AEA9] (AR v2)
Трек 11 : извлечено точно (доверие 7) [7A351F2E] (AR v2)
Трек 12 : извлечено точно (доверие 7) [25F59DB3] (AR v2)
Трек 13 : извлечено точно (доверие 7) [7364FCF6] (AR v2)
Трек 14 : извлечено точно (доверие 6) [0D9CD5CD] (AR v2)
Трек 15 : извлечено точно (доверие 7) [C1F7B9E5] (AR v2)
Трек 16 : извлечено точно (доверие 6) [E96AEB9C] (AR v2)
Трек 17 : извлечено точно (доверие 6) [484E78C2] (AR v2)
Трек 18 : извлечено точно (доверие 6) [14668DF3] (AR v2)
Трек 19 : извлечено точно (доверие 6) [FB98DAFE] (AR v2)
Трек 20 : извлечено точно (доверие 6) [4B41AC32] (AR v2)
Трек 21 : извлечено точно (доверие 5) [5550D700] (AR v2)
Трек 22 : извлечено точно (доверие 5) [C3213E1D] (AR v2)
Трек 23 : извлечено точно (доверие 6) [16361702] (AR v2)
Трек 24 : извлечено точно (доверие 6) [22D2B8E4] (AR v2)
Трек 25 : извлечено точно (доверие 6) [6756BFAF] (AR v2)
Все треки извлечены точно
Конец отчёта
==== Контрольная сумма отчёта 72501A9D26FE296E789AEB9B0CFBFF49C5FB82441F1A198E2AE66E98553F45B6 ====
 
CD 3
 
Треклист
1. (Come 'Round Here) I'm the One You Need
2. Your Pleasure - (previously unreleased) My Business
3. Save Me
4. It's a Good Feeling
5. The Love I Saw in You Was Just a Mirage
6. Come Spy With Me - (previously unreleased)
7. My Love For You
8. More Love
9. After You Put Back the Pieces (I'll Still Have a Broken Heart)
10. I Second That Emotion
11. You Must Be Love
12. I Care About Detroit
13. If You Can Want
14. When the Words From Your Heart Get Caught up in Your Throat - (previously unreleased)
15. Yester Love
16. You Only Build Me up to Tear Me Down
17. Special Occasion
18. Baby Don't Cry Baby
19. Doggone Right
20. The Composer
21. Here I Go Again
22. Once I Got to Know You (I Couldn't Help But Love You)
23. Martin and John Abraham
24. What Love Has Joined Together
Продолжительность:01:11:34
 
Лог создания рипа
Exact Audio Copy V1.1 from 23. June 2015
Отчёт EAC об извлечении, выполненном 18. сентября 2016, 18:30
Smokey Robinson & The Miracles / The 35th Anniversary Collection CD 3
Дисковод: TSSTcorpCDDVDW TS-L633F Adapter: 1 ID: 0
Режим чтения : Достоверность
Использование точного потока : Да
Отключение кэша аудио : Да
Использование указателей C2 : Нет
Коррекция смещения при чтении : 6
Способность читать области Lead-in и Lead-out : Нет
Заполнение пропущенных сэмплов тишиной : Да
Удаление блоков с тишиной в начале и конце : Нет
При вычислениях CRC использовались нулевые сэмплы : Да
Интерфейс : Встроенный Win32-интерфейс для Win NT/2000
Выходной формат : Пользовательский кодировщик
Выбранный битрейт : 768 kBit/s
Качество : Высокий
Добавление ID3-тега : Нет
Утилита сжатия : C:\Program Files (x86)\Exact Audio Copy\FLAC\FLAC.EXE
Дополнительные параметры : -6 -V -T "ARTIST=%artist%" -T "TITLE=%title%" -T "ALBUM=%albumtitle%" -T "DATE=%year%" -T "TRACKNUMBER=%tracknr%" -T "GENRE=%genre%" -T "COMMENT=%comment%" -T "BAND=%albuminterpret%" -T "ALBUMARTIST=%albuminterpret%" -T "COMPOSER=%composer%" %haslyrics%--tag-from-file=LYRICS="%lyricsfile%"%haslyrics% -T "DISCNUMBER=%cdnumber%" -T "TOTALDISCS=%totalcds%" -T "TOTALTRACKS=%numtracks%" %hascover%--picture="%coverfile%"%hascover% %source% -o %dest%
TOC извлечённого CD
Трек | Старт | Длительность | Начальный сектор | Конечный сектор
---------------------------------------------------------------------
1 | 0:00.00 | 2:32.18 | 0 | 11417
2 | 2:32.18 | 2:43.54 | 11418 | 23696
3 | 5:15.72 | 2:26.40 | 23697 | 34686
4 | 7:42.37 | 3:08.58 | 34687 | 48844
5 | 10:51.20 | 3:02.22 | 48845 | 62516
6 | 13:53.42 | 2:59.46 | 62517 | 75987
7 | 16:53.13 | 2:42.55 | 75988 | 88192
8 | 19:35.68 | 2:50.50 | 88193 | 100992
9 | 22:26.43 | 2:42.70 | 100993 | 113212
10 | 25:09.38 | 2:43.12 | 113213 | 125449
11 | 27:52.50 | 2:36.23 | 125450 | 137172
12 | 30:28.73 | 3:09.62 | 137173 | 151409
13 | 33:38.60 | 2:28.00 | 151410 | 162509
14 | 36:06.60 | 2:51.68 | 162510 | 175402
15 | 38:58.53 | 2:20.52 | 175403 | 185954
16 | 41:19.30 | 3:25.25 | 185955 | 201354
17 | 44:44.55 | 2:20.68 | 201355 | 211922
18 | 47:05.48 | 3:59.00 | 211923 | 229847
19 | 51:04.48 | 2:59.27 | 229848 | 243299
20 | 54:04.00 | 2:27.60 | 243300 | 254384
21 | 56:31.60 | 2:59.38 | 254385 | 267847
22 | 59:31.23 | 3:07.40 | 267848 | 281912
23 | 62:38.63 | 3:03.22 | 281913 | 295659
24 | 65:42.10 | 5:52.48 | 295660 | 322107
Характеристики диапазона извлечения и сообщения об ошибках
Выбранный диапазон
Имя файла D:\Раздачи\Smokey Robinson & The Miracles - The 35th Anniversary Collection\CD 3\Smokey Robinson & The Miracles - The 35th Anniversary Collection CD 3.wav
Пиковый уровень 100.0 %
Скорость извлечения 5.1 X
Качество диапазона 99.9 %
CRC теста 7DF35881
CRC копии 7DF35881
Копирование... OK
Ошибок не произошло
AccurateRip: сводка
Трек 1 : извлечено точно (доверие 7) [448EF8BD] (AR v2)
Трек 2 : извлечено точно (доверие 7) [24BF1F1B] (AR v2)
Трек 3 : извлечено точно (доверие 7) [6E7F8B25] (AR v2)
Трек 4 : извлечено точно (доверие 7) [9CCCAB9E] (AR v2)
Трек 5 : извлечено точно (доверие 7) [C0B09FB7] (AR v2)
Трек 6 : извлечено точно (доверие 7) [58F11106] (AR v2)
Трек 7 : извлечено точно (доверие 7) [97132EDC] (AR v2)
Трек 8 : извлечено точно (доверие 7) [2A8F4838] (AR v2)
Трек 9 : извлечено точно (доверие 7) [BF8B65BD] (AR v2)
Трек 10 : извлечено точно (доверие 7) [A1C9802B] (AR v2)
Трек 11 : извлечено точно (доверие 7) [A40108E8] (AR v2)
Трек 12 : извлечено точно (доверие 7) [5AA54ABF] (AR v2)
Трек 13 : извлечено точно (доверие 7) [72D2CF02] (AR v2)
Трек 14 : извлечено точно (доверие 7) [DD6C0256] (AR v2)
Трек 15 : извлечено точно (доверие 7) [8EEDEE55] (AR v2)
Трек 16 : извлечено точно (доверие 7) [2E155DD9] (AR v2)
Трек 17 : извлечено точно (доверие 7) [B84B53AA] (AR v2)
Трек 18 : извлечено точно (доверие 7) [269AE4E1] (AR v2)
Трек 19 : извлечено точно (доверие 7) [4784E7E7] (AR v2)
Трек 20 : извлечено точно (доверие 7) [009DFFC8] (AR v2)
Трек 21 : извлечено точно (доверие 7) [91C3A82F] (AR v2)
Трек 22 : извлечено точно (доверие 7) [2619A4DA] (AR v2)
Трек 23 : извлечено точно (доверие 7) [11A196B9] (AR v2)
Трек 24 : извлечено точно (доверие 7) [D89C72B6] (AR v2)
Все треки извлечены точно
Конец отчёта
==== Контрольная сумма отчёта C617EA3E3D1635EDEEA8B1F10CC59AA819D2094DEF8D247DB831F32C64B26F92 ====
 
CD 4
 
Треклист
1. Point It Out
2. Who's Gonna Take the Blame
3. I Gotta Thing For You - (previously unreleased)
4. The Tears of a Clown
5. Promise Me
6. I Don't Blame You at All
7. There's a Sad Story Here - (previously unreleased)
8. Crazy About the la la La
9. Satisfaction
10. We've Come Too Far to End It Now
11. I Can't Stand to See You Cry
12. Here I Go Again
13. Sweet Harmony
14. Don't Let It End ('Til You Let It Begin)
15. Do It Baby
16. Don't Cha Love It
17. Quiet Storm
18. Love Machine (Pt. 1)
19. Cruisin'
20. Being With You
21. Just to See Her
22. One Heartbeat
Продолжительность:01:17:42
 
Лог создания рипа
Exact Audio Copy V1.1 from 23. June 2015
Отчёт EAC об извлечении, выполненном 18. сентября 2016, 19:05
Smokey Robinson & The Miracles / The 35th Anniversary Collection CD 4
Дисковод: TSSTcorpCDDVDW TS-L633F Adapter: 1 ID: 0
Режим чтения : Достоверность
Использование точного потока : Да
Отключение кэша аудио : Да
Использование указателей C2 : Нет
Коррекция смещения при чтении : 6
Способность читать области Lead-in и Lead-out : Нет
Заполнение пропущенных сэмплов тишиной : Да
Удаление блоков с тишиной в начале и конце : Нет
При вычислениях CRC использовались нулевые сэмплы : Да
Интерфейс : Встроенный Win32-интерфейс для Win NT/2000
Выходной формат : Пользовательский кодировщик
Выбранный битрейт : 768 kBit/s
Качество : Высокий
Добавление ID3-тега : Нет
Утилита сжатия : C:\Program Files (x86)\Exact Audio Copy\FLAC\FLAC.EXE
Дополнительные параметры : -6 -V -T "ARTIST=%artist%" -T "TITLE=%title%" -T "ALBUM=%albumtitle%" -T "DATE=%year%" -T "TRACKNUMBER=%tracknr%" -T "GENRE=%genre%" -T "COMMENT=%comment%" -T "BAND=%albuminterpret%" -T "ALBUMARTIST=%albuminterpret%" -T "COMPOSER=%composer%" %haslyrics%--tag-from-file=LYRICS="%lyricsfile%"%haslyrics% -T "DISCNUMBER=%cdnumber%" -T "TOTALDISCS=%totalcds%" -T "TOTALTRACKS=%numtracks%" %hascover%--picture="%coverfile%"%hascover% %source% -o %dest%
TOC извлечённого CD
Трек | Старт | Длительность | Начальный сектор | Конечный сектор
---------------------------------------------------------------------
1 | 0:00.00 | 2:42.05 | 0 | 12154
2 | 2:42.05 | 3:31.60 | 12155 | 28039
3 | 6:13.65 | 3:20.72 | 28040 | 43111
4 | 9:34.62 | 3:07.18 | 43112 | 57154
5 | 12:42.05 | 3:09.02 | 57155 | 71331
6 | 15:51.07 | 3:09.45 | 71332 | 85551
7 | 19:00.52 | 3:23.30 | 85552 | 100806
8 | 22:24.07 | 2:56.68 | 100807 | 114074
9 | 25:21.00 | 3:18.40 | 114075 | 128964
10 | 28:39.40 | 3:51.30 | 128965 | 146319
11 | 32:30.70 | 3:41.42 | 146320 | 162936
12 | 36:12.37 | 3:51.55 | 162937 | 180316
13 | 40:04.17 | 4:11.70 | 180317 | 199211
14 | 44:16.12 | 3:09.00 | 199212 | 213386
15 | 47:25.12 | 3:05.58 | 213387 | 227319
16 | 50:30.70 | 3:21.42 | 227320 | 242436
17 | 53:52.37 | 4:05.45 | 242437 | 260856
18 | 57:58.07 | 3:01.33 | 260857 | 274464
19 | 60:59.40 | 4:31.47 | 274465 | 294836
20 | 65:31.12 | 4:02.15 | 294837 | 313001
21 | 69:33.27 | 4:04.63 | 313002 | 331364
22 | 73:38.15 | 4:04.40 | 331365 | 349704
Характеристики диапазона извлечения и сообщения об ошибках
Выбранный диапазон
Имя файла D:\Раздачи\Smokey Robinson & The Miracles - The 35th Anniversary Collection\CD 4\Smokey Robinson & The Miracles - The 35th Anniversary Collection CD 4.wav
Пиковый уровень 100.0 %
Скорость извлечения 5.2 X
Качество диапазона 100.0 %
CRC теста 3CE78EB6
CRC копии 3CE78EB6
Копирование... OK
Ошибок не произошло
AccurateRip: сводка
Трек 1 : извлечено точно (доверие 7) [FABB6ED9] (AR v2)
Трек 2 : извлечено точно (доверие 7) [2EEDD8AF] (AR v2)
Трек 3 : извлечено точно (доверие 7) [7FACA471] (AR v2)
Трек 4 : извлечено точно (доверие 7) [8FF605FF] (AR v2)
Трек 5 : извлечено точно (доверие 7) [72195FE9] (AR v2)
Трек 6 : извлечено точно (доверие 7) [FC97EDA5] (AR v2)
Трек 7 : извлечено точно (доверие 7) [C27B9C1D] (AR v2)
Трек 8 : извлечено точно (доверие 7) [59549D86] (AR v2)
Трек 9 : извлечено точно (доверие 7) [BCB45767] (AR v2)
Трек 10 : извлечено точно (доверие 7) [C9145E76] (AR v2)
Трек 11 : извлечено точно (доверие 7) [1D51B1C3] (AR v2)
Трек 12 : извлечено точно (доверие 7) [08E8F1C3] (AR v2)
Трек 13 : извлечено точно (доверие 7) [770527DD] (AR v2)
Трек 14 : извлечено точно (доверие 7) [F493708E] (AR v2)
Трек 15 : извлечено точно (доверие 7) [0775D07B] (AR v2)
Трек 16 : извлечено точно (доверие 7) [82EAB034] (AR v2)
Трек 17 : извлечено точно (доверие 7) [6BFFEAEA] (AR v2)
Трек 18 : извлечено точно (доверие 7) [4789B77E] (AR v2)
Трек 19 : извлечено точно (доверие 7) [2E6DEA9B] (AR v2)
Трек 20 : извлечено точно (доверие 7) [19AAD94F] (AR v2)
Трек 21 : извлечено точно (доверие 7) [1A86C683] (AR v2)
Трек 22 : извлечено точно (доверие 7) [66E50387] (AR v2)
Все треки извлечены точно
Конец отчёта
==== Контрольная сумма отчёта 054C056446EBCFFB971E7B54867EEFABBEEA0848AE4FD9535E0BE1088716C1C7 ====
 
Об альбоме (сборнике)
This four-CD boxed set covers every essential track that Smokey Robinson and the Miracles ever recorded, and then some -- at least a dozen never previously anthologized tracks are included here, among them the original single versions of "Way Over There" (unavailable elsewhere) and "Shop Around" (which had already been released locally in Detriot when Berry Gordy decided one night to get a session together, punch up the rhythm, and lay down a new version, which became the hit). Even better is the remastering, which runs circles around any previous edition of the Miracles' work, and the annotation -- including an essay by Claudette Robinson -- that gives credit to all of the participants, including the backup musicians who were seldom if ever mentioned during Motown's heyday. The Smokey Robinson & the Miracles Anthology is a fine collection, but this set is the definitive history, and irreplaceable for anyone who genuinely loves the group.
Приватный:
Нет (DHT включён)
Размер:
1.34 Гб (1,440,754,599 байт) » файлов: 12
Участники:
0 раздают, 0 качают (0 участников всего)
Внешние участники:
2 раздают, 1 качают (3 участников всего) [ Обновить ]
Есть вопросы - пишите личное сообщение пользователю M0p94ok.
11:57
62
Нет комментариев. Ваш будет первым!