Поиск

(Funk, soul, R&B) [CD] Charles "Packy" Axton - Late Late Party (compilation) - 2011 (1965-67), FLAC (image+.cue), lossless

(Funk, soul, R&B) [CD] Charles "Packy" Axton - Late Late Party (compilation) - 2011 (1965-67), FLAC (image+.cue), lossless
Треклист:
Charles "Packy" Axton / Late Late Party (compilation)
Жанр: Funk, soul, R&B
Носитель: CD
Страна-производитель диска (релиза): USA
Год издания: 2011 (1965-67)
Издатель (лейбл): Light In The Attic
Номер по каталогу: LITA 067 / EAN 826853006729
Страна исполнителя (группы): USA
Аудиокодек: FLAC (*.flac)
Тип рипа: image+.cue
Битрейт аудио: lossless
Продолжительность: 00:40:34
Источник (релизер): Я
Наличие сканов в содержимом раздачи: нет
Треклист:
Track Listing
1. Holiday Cheer
2. Bullseye
3. Hung Over
4. No Ending
5. House Full of Rooms
6. Stone Fox
7. Hole in the Wall
8. South American Robot - (previously unreleased)
9. Dig In
10. Out of Control
11. Key Chain - (previously unreleased)
12. Hip Pocket
13. I'm a Fool (In Love)
14. No Love Have I
15. Greasy Pumpkin
16. I'll Always Love You - (previously unreleased)
17. Late Late Party
 
Лог создания рипа
Exact Audio Copy V1.1 from 23. June 2015
Отчёт EAC об извлечении, выполненном 21. сентября 2016, 11:37
Charles 'Packy" Axton - Late Night Party - 1965-67 / Charles 'Packy" Axton
Дисковод: TSSTcorpCDDVDW TS-L633F Adapter: 1 ID: 0
Режим чтения : Достоверность
Использование точного потока : Да
Отключение кэша аудио : Да
Использование указателей C2 : Нет
Коррекция смещения при чтении : 6
Способность читать области Lead-in и Lead-out : Нет
Заполнение пропущенных сэмплов тишиной : Да
Удаление блоков с тишиной в начале и конце : Нет
При вычислениях CRC использовались нулевые сэмплы : Да
Интерфейс : Встроенный Win32-интерфейс для Win NT/2000
Выходной формат : Пользовательский кодировщик
Выбранный битрейт : 768 kBit/s
Качество : Высокий
Добавление ID3-тега : Нет
Утилита сжатия : C:\Program Files (x86)\Exact Audio Copy\FLAC\FLAC.EXE
Дополнительные параметры : -6 -V -T "ARTIST=%artist%" -T "TITLE=%title%" -T "ALBUM=%albumtitle%" -T "DATE=%year%" -T "TRACKNUMBER=%tracknr%" -T "GENRE=%genre%" -T "COMMENT=%comment%" -T "BAND=%albuminterpret%" -T "ALBUMARTIST=%albuminterpret%" -T "COMPOSER=%composer%" %haslyrics%--tag-from-file=LYRICS="%lyricsfile%"%haslyrics% -T "DISCNUMBER=%cdnumber%" -T "TOTALDISCS=%totalcds%" -T "TOTALTRACKS=%numtracks%" %hascover%--picture="%coverfile%"%hascover% %source% -o %dest%
TOC извлечённого CD
Трек | Старт | Длительность | Начальный сектор | Конечный сектор
---------------------------------------------------------------------
1 | 0:00.00 | 2:05.29 | 0 | 9403
2 | 2:05.29 | 1:52.71 | 9404 | 17874
3 | 3:58.25 | 2:06.35 | 17875 | 27359
4 | 6:04.60 | 2:23.20 | 27360 | 38104
5 | 8:28.05 | 2:31.43 | 38105 | 49472
6 | 10:59.48 | 2:17.44 | 49473 | 59791
7 | 13:17.17 | 2:50.62 | 59792 | 72603
8 | 16:08.04 | 2:18.08 | 72604 | 82961
9 | 18:26.12 | 1:56.22 | 82962 | 91683
10 | 20:22.34 | 2:59.25 | 91684 | 105133
11 | 23:21.59 | 2:46.72 | 105134 | 117655
12 | 26:08.56 | 2:28.21 | 117656 | 128776
13 | 28:37.02 | 2:56.13 | 128777 | 141989
14 | 31:33.15 | 2:51.04 | 141990 | 154818
15 | 34:24.19 | 2:01.43 | 154819 | 163936
16 | 36:25.62 | 1:59.59 | 163937 | 172920
17 | 38:25.46 | 2:09.19 | 172921 | 182614
Характеристики диапазона извлечения и сообщения об ошибках
Выбранный диапазон
Имя файла D:\Раздачи\Charles 'Packy'' Axton - Late Night Party - 1965-67\Charles 'Packy'' Axton - Late Night Party - 1965-67 - Charles 'Packy'' Axton.wav
Пиковый уровень 99.6 %
Скорость извлечения 2.6 X
Качество диапазона 99.9 %
CRC теста A495AC81
CRC копии A495AC81
Копирование... OK
Ошибок не произошло
AccurateRip: сводка
Трек 1 : извлечено точно (доверие 3) [1DEA285B] (AR v2)
Трек 2 : извлечено точно (доверие 3) [35766290] (AR v2)
Трек 3 : извлечено точно (доверие 3) [718A2AED] (AR v2)
Трек 4 : извлечено точно (доверие 3) [A012925C] (AR v2)
Трек 5 : извлечено точно (доверие 3) [AC05085C] (AR v2)
Трек 6 : извлечено точно (доверие 3) [C717A0DD] (AR v2)
Трек 7 : извлечено точно (доверие 3) [DF840F1C] (AR v2)
Трек 8 : извлечено точно (доверие 3) [D894C744] (AR v2)
Трек 9 : извлечено точно (доверие 3) [18B78341] (AR v2)
Трек 10 : извлечено точно (доверие 3) [205D91A1] (AR v2)
Трек 11 : извлечено точно (доверие 3) [D7EA45BB] (AR v2)
Трек 12 : извлечено точно (доверие 3) [E14FA863] (AR v2)
Трек 13 : извлечено точно (доверие 3) [A51AE748] (AR v2)
Трек 14 : извлечено точно (доверие 3) [F3D1A053] (AR v2)
Трек 15 : извлечено точно (доверие 3) [303DC49C] (AR v2)
Трек 16 : извлечено точно (доверие 3) [105FF41A] (AR v2)
Трек 17 : извлечено точно (доверие 3) [B8EF2236] (AR v2)
Все треки извлечены точно
Конец отчёта
==== Контрольная сумма отчёта B4ECF49536B9AC77A8A780264F9CBF2AB02922FEE1CF578BE63D7E9C0EF21758 ====
 
Об исполнителе (группе)
2011 collection of tracks from the overlooked Soul/Rock/Funk sax player spanning the years 1965-67. In the vast netherworld of Soul, there are countless characters that reside on the fringe, their significant contributions to American music history long forgotten. Born in Memphis, Tennessee, tenor saxophone player and bandleader Charles Packy Axton is yet another of the uncelebrated, despite a deep pedigree and funky catalog of notable grooves. Part of the mighty Stax family through birth, Packy's mother Estelle Axton and uncle Jim Stewart founded the southern R&B dynasty in the early 1960's. Packy picked up the sax at a young age, and after linking with future Booker T. & the M.G.'s Steve Cropper and Donald Duck Dunn, formed the The Mar-Keys. Almost reaching the top of the R&B and pop charts in 1961 with the classic 'Last Night,' friction caused by Packy's party going ways caused a split. It wasn't until 1965 that the wild child had another national instrumental hit on his hands, 'Hole In The Wall' by the Packers.
Приватный:
Нет (DHT включён)
Размер:
199.09 Мб (208,762,057 байт) » файлов: 3
Участники:
0 раздают, 0 качают (0 участников всего)
Внешние участники:
1 раздают, 0 качают (1 участников всего) [ Обновить ]
Есть вопросы - пишите личное сообщение пользователю M0p94ok.
11:58
54
Нет комментариев. Ваш будет первым!