Поиск

(Funk, soul, rock, R&B) Sly & The Family Stone - коллекция 1967-2015 (20CD + Box Set), FLAC,APE (image+.cue), FLAC (Tracks+.cue), lossless

(Funk, soul, rock, R&B) Sly & The Family Stone - коллекция 1967-2015 (20CD + Box Set), FLAC,APE (image+.cue), FLAC (Tracks+.cue), lossless
Треклист:
Sly & The Family Stone - коллекция Sly & The Family Stone - коллекция 1967-2015 (20CD + Box Set)
Жанр: Funk, soul, rock, R&B
Носитель: CD
Год издания: 1967-2015
Страна исполнителя (группы): US
 
 
 
 
 
 
 
 
 
 
 
 
 
 
 
 
Studio Albums
 
1967. Sly & The Family Stone - A Whole New Thing
Страна-производитель диска: US
Год первого выпуска: 1967
Год настоящего издания: 2007
Издатель (лейбл): Epic/Legacy
Номер по каталогу: 82796 90277 2
Format: CD, Album, Limited Edition, Numbered, Remastered
Аудиокодек: FLAC (*.flac)
Тип рипа: tracks+.cue
Битрейт аудио: lossless
Продолжительность: 00:56:36
Источник (релизер): интернет
Наличие сканов в содержимом раздачи: да
Треклист:
01. Underdog (03:59)
02. If This Room Could Talk (03:00)
03. Run, Run, Run (03:14)
04. Turn Me Loose (01:52)
05. Let Me Hear It From You (03:35)
06. Advice (02:22)
07. I Cannot Make It (03:20)
08. Trip To Your Heart (03:43)
09. I Hate To Love Her (03:30)
10. Bad Risk (03:04)
11. That Kind Of Person (04:25)
12. Dog (03:10)
Bonus Tracks:
13. Underdog (mono B-side version) (03:06)
14. Let Me Hear It From You (mono B-side version) (03:30)
15. Only One Way Out Of This Mess (03:53)
16. What Would I Do (04:07)
17. You Better Help Yourself (instrumental version) (02:19)
 
Лог создания рипа
Exact Audio Copy V0.99 prebeta 4 from 23. January 2008
EAC extraction logfile from 22. March 2009, 19:43
Sly & The Family Stone / A Whole New Thing
Used drive : TSSTcorpCD/DVDW TS-L632D Adapter: 0 ID: 1
Read mode : Secure
Utilize accurate stream : Yes
Defeat audio cache : Yes
Make use of C2 pointers : No
Read offset correction : 6
Overread into Lead-In and Lead-Out : No
Fill up missing offset samples with silence : Yes
Delete leading and trailing silent blocks : No
Null samples used in CRC calculations : Yes
Used interface : Native Win32 interface for Win NT &
2000
Gap handling : Appended to previous track
Used output format : User Defined Encoder
Selected bitrate : 128 kBit/s
Quality : High
Add ID3 tag : Yes
Command line compressor : C:\Program Files\FLAC\flac.exe
Additional command line options : -8 -V -T "ARTIST=%a" -T "TITLE=%t" -T "ALBUM=%g" -T"DATE=%y" -T "TRACKNUMBER=%n" -T "GENRE=%m" -T "COMMENT=%e" %s -o %d
TOC of the extracted CD
Track | Start | Length | Start sector | End sector
---------------------------------------------------------
1 | 0:00.00 | 3:59.25 | 0 | 17949
2 | 3:59.25 | 3:14.02 | 17950 | 32501
3 | 7:13.27 | 3:07.43 | 32502 | 46569
4 | 10:20.70 | 1:57.60 | 46570 | 55404
5 | 12:18.55 | 3:36.42 | 55405 | 71646
6 | 15:55.22 | 2:23.38 | 71647 | 82409
7 | 18:18.60 | 3:21.10 | 82410 | 97494
8 | 21:39.70 | 3:44.05 | 97495 | 114299
9 | 25:24.00 | 3:33.67 | 114300 | 130341
10 | 28:57.67 | 3:06.60 | 130342 | 144351
11 | 32:04.52 | 4:28.08 | 144352 | 164459
12 | 36:32.60 | 3:07.35 | 164460 | 178519
13 | 39:40.20 | 3:06.32 | 178520 | 192501
14 | 42:46.52 | 3:30.13 | 192502 | 208264
15 | 46:16.65 | 3:53.35 | 208265 | 225774
16 | 50:10.25 | 4:07.10 | 225775 | 244309
17 | 54:17.35 | 2:19.00 | 244310 | 254734
Track 1
Filename D:\EAC\01 - Underdog.wav
Pre-gap length 0:00:02.00
Peak level 92.5 %
Track quality 100.0 %
Test CRC BBB0D50C
Copy CRC BBB0D50C
Accurately ripped (confidence 11) [38839E3D]
Copy OK
Track 2
Filename D:\EAC\02 - If This Room Could Talk.wav
Pre-gap length 0:00:01.40
Peak level 89.4 %
Track quality 100.0 %
Test CRC 6038850E
Copy CRC 6038850E
Accurately ripped (confidence 11) [E957679B]
Copy OK
Track 3
Filename D:\EAC\03 - Run, Run, Run.wav
Pre-gap length 0:00:03.57
Peak level 89.0 %
Track quality 100.0 %
Test CRC CA83C6AB
Copy CRC CA83C6AB
Accurately ripped (confidence 11) [87233515]
Copy OK
Track 4
Filename D:\EAC\04 - Turn Me Loose.wav
Pre-gap length 0:00:02.50
Peak level 80.7 %
Track quality 100.0 %
Test CRC 2C9E1117
Copy CRC 2C9E1117
Accurately ripped (confidence 11) [FC7E9CAA]
Copy OK
Track 5
Filename D:\EAC\05 - Let Me Hear It From You.wav
Pre-gap length 0:00:02.05
Peak level 90.6 %
Track quality 100.0 %
Test CRC 595E4DF1
Copy CRC 595E4DF1
Accurately ripped (confidence 11) [23C0BAFD]
Copy OK
Track 6
Filename D:\EAC\06 - Advice.wav
Pre-gap length 0:00:03.27
Peak level 85.0 %
Track quality 99.9 %
Test CRC 54428FC9
Copy CRC 54428FC9
Accurately ripped (confidence 11) [4BBA70A2]
Copy OK
Track 7
Filename D:\EAC\07 - I Cannot Make It.wav
Pre-gap length 0:00:02.55
Peak level 90.5 %
Track quality 100.0 %
Test CRC DDE53793
Copy CRC DDE53793
Accurately ripped (confidence 12) [92773683]
Copy OK
Track 8
Filename D:\EAC\08 - Trip To Your Heart.wav
Pre-gap length 0:00:02.15
Peak level 95.9 %
Track quality 100.0 %
Test CRC B5D77509
Copy CRC B5D77509
Accurately ripped (confidence 11) [2CB25E18]
Copy OK
Track 9
Filename D:\EAC\09 - I Hate To Love Her.wav
Pre-gap length 0:00:02.48
Peak level 81.2 %
Track quality 100.0 %
Test CRC 021753D7
Copy CRC 021753D7
Accurately ripped (confidence 11) [EE7D0769]
Copy OK
Track 10
Filename D:\EAC\10 - Bad Risk.wav
Pre-gap length 0:00:03.22
Peak level 91.0 %
Track quality 100.0 %
Test CRC 31343CA5
Copy CRC 31343CA5
Accurately ripped (confidence 11) [E0B1756D]
Copy OK
Track 11
Filename D:\EAC\11 - That Kind Of Person.wav
Pre-gap length 0:00:03.00
Peak level 94.6 %
Track quality 100.0 %
Test CRC B3BF1548
Copy CRC B3BF1548
Accurately ripped (confidence 11) [8D326830]
Copy OK
Track 12
Filename D:\EAC\12 - Dog.wav
Pre-gap length 0:00:02.38
Peak level 85.5 %
Track quality 100.0 %
Test CRC 5B69C1D4
Copy CRC 5B69C1D4
Accurately ripped (confidence 11) [21EE1E5D]
Copy OK
Track 13
Filename D:\EAC\13 - Underdog (Mono Single Version).wav
Pre-gap length 0:00:04.55
Peak level 79.1 %
Track quality 100.0 %
Test CRC 3B66BADE
Copy CRC 3B66BADE
Accurately ripped (confidence 10) [3C14DBB0]
Copy OK
Track 14
Filename D:\EAC\14 - Let Me Hear It From You (Mono Single Version).wav
Pre-gap length 0:00:01.55
Peak level 100.0 %
Track quality 99.9 %
Test CRC 024F733D
Copy CRC 024F733D
Accurately ripped (confidence 10) [D9AAA2A0]
Copy OK
Track 15
Filename D:\EAC\15 - Only One Way Out Of This Mess (BonusTrack).wav
Pre-gap length 0:00:01.55
Peak level 99.8 %
Track quality 100.0 %
Test CRC 2D915CFE
Copy CRC 2D915CFE
Accurately ripped (confidence 10) [FA96D784]
Copy OK
Track 16
Filename D:\EAC\16 - What Would I Do (Bonus Track).wav
Pre-gap length 0:00:01.55
Peak level 99.8 %
Track quality 100.0 %
Test CRC EFEFD521
Copy CRC EFEFD521
Accurately ripped (confidence 10) [4BCC47DD]
Copy OK
Track 17
Filename D:\EAC\17 - You Better Help Yourself (Instrumental - Previously
Unissued).wav
Pre-gap length 0:00:01.55
Peak level 97.9 %
Track quality 100.0 %
Test CRC 4D132AF1
Copy CRC 4D132AF1
Accurately ripped (confidence 10) [DB283337]
Copy OK
All tracks accurately ripped
No errors occurred
End of status report
 
Содержание индексной карты (.CUE)
REM GENRE Funk
REM DATE 1967
REM DISCID DF0D4411
REM COMMENT "ExactAudioCopy v0.99pb4"
PERFORMER "Sly & The Family Stone"
TITLE "A Whole New Thing "
FILE "01 - Underdog.wav" WAVE
TRACK 01 AUDIO
TITLE "Underdog"
PERFORMER "Sly & The Family Stone"
ISRC H2KM10024909
INDEX 01 00:00:00
TRACK 02 AUDIO
TITLE "If This Room Could Talk"
PERFORMER "Sly & The Family Stone"
ISRC H2KM10022092
INDEX 00 03:57:60
FILE "02 - If This Room Could Talk.wav" WAVE
INDEX 01 00:00:00
TRACK 03 AUDIO
TITLE "Run, Run, Run"
PERFORMER "Sly & The Family Stone"
ISRC H2KM10025373
INDEX 00 03:10:20
FILE "03 - Run, Run, Run.wav" WAVE
INDEX 01 00:00:00
TRACK 04 AUDIO
TITLE "Turn Me Loose"
PERFORMER "Sly & The Family Stone"
ISRC H2KM10024536
INDEX 00 03:04:68
FILE "04 - Turn Me Loose.wav" WAVE
INDEX 01 00:00:00
TRACK 05 AUDIO
TITLE "Let Me Hear It From You"
PERFORMER "Sly & The Family Stone"
ISRC H2KM10022093
INDEX 00 01:55:55
FILE "05 - Let Me Hear It From You.wav" WAVE
INDEX 01 00:00:00
TRACK 06 AUDIO
TITLE "Advice"
PERFORMER "Sly & The Family Stone"
ISRC H2KM16701411
INDEX 00 03:33:15
FILE "06 - Advice.wav" WAVE
INDEX 01 00:00:00
TRACK 07 AUDIO
TITLE "I Cannot Make It"
PERFORMER "Sly & The Family Stone"
ISRC H2KM10022089
INDEX 00 02:20:58
FILE "07 - I Cannot Make It.wav" WAVE
INDEX 01 00:00:00
TRACK 08 AUDIO
TITLE "Trip To Your Heart"
PERFORMER "Sly & The Family Stone"
ISRC H2KM10101599
INDEX 00 03:18:70
FILE "08 - Trip To Your Heart.wav" WAVE
INDEX 01 00:00:00
TRACK 09 AUDIO
TITLE "I Hate To Love Her"
PERFORMER "Sly & The Family Stone"
ISRC H2KM10025372
INDEX 00 03:41:32
FILE "09 - I Hate To Love Her.wav" WAVE
INDEX 01 00:00:00
TRACK 10 AUDIO
TITLE "Bad Risk"
PERFORMER "Sly & The Family Stone"
ISRC H2KM10022087
INDEX 00 03:30:45
FILE "10 - Bad Risk.wav" WAVE
INDEX 01 00:00:00
TRACK 11 AUDIO
TITLE "That Kind Of Person"
PERFORMER "Sly & The Family Stone"
ISRC H2KM10024457
INDEX 00 03:03:60
FILE "11 - That Kind Of Person.wav" WAVE
INDEX 01 00:00:00
TRACK 12 AUDIO
TITLE "Dog"
PERFORMER "Sly & The Family Stone"
ISRC H2KM10024908
INDEX 00 04:25:45
FILE "12 - Dog.wav" WAVE
INDEX 01 00:00:00
TRACK 13 AUDIO
TITLE "Underdog (Mono Single Version)"
PERFORMER "Sly & The Family Stone"
ISRC H2KM10602027
INDEX 00 03:02:55
FILE "13 - Underdog (Mono Single Version).wav" WAVE
INDEX 01 00:00:00
TRACK 14 AUDIO
TITLE "Let Me Hear It From You (Mono Single Version)"
PERFORMER "Sly & The Family Stone"
ISRC H2KM10602028
INDEX 00 03:04:52
FILE "14 - Let Me Hear It From You (Mono Single Version).wav" WAVE
INDEX 01 00:00:00
TRACK 15 AUDIO
TITLE "Only One Way Out Of This Mess (BonusTrack)"
PERFORMER "Sly & The Family Stone"
ISRC H2KM10602029
INDEX 00 03:28:33
FILE "15 - Only One Way Out Of This Mess (BonusTrack).wav" WAVE
INDEX 01 00:00:00
TRACK 16 AUDIO
TITLE "What Would I Do (Bonus Track)"
PERFORMER "Sly & The Family Stone"
ISRC H2KM10602030
INDEX 00 03:51:55
FILE "16 - What Would I Do (Bonus Track).wav" WAVE
INDEX 01 00:00:00
TRACK 17 AUDIO
TITLE "You Better Help Yourself (Instrumental - Previously Unissued)"
PERFORMER "Sly & The Family Stone"
ISRC H2KM10602031
INDEX 00 04:05:30
FILE "17 - You Better Help Yourself (Instrumental).wav" WAVE
INDEX 01 00:00:00
 
1968. Sly & The Family Stone - Dance To The Music
Страна-производитель диска: EU
Год первого выпуска: 1968
Год настоящего издания: 1995
Издатель (лейбл): Epic/Legacy
Номер по каталогу: 480906 2
Format: CD, Album, Reissue
Аудиокодек: FLAC (*.flac)
Тип рипа: tracks+.cue
Битрейт аудио: lossless
Продолжительность: 00:40:36
Источник (релизер): What.CD
Наличие сканов в содержимом раздачи: да
Треклист:
01. Dance To The Music (03:00)
02. Higher (02:50)
03. I Ain't Got Nobody (For Real) (04:24)
04. Dance To The Medley (12:14)
-a) Music Is Alive
-b) Dance In
-c) Music Lover
05. Ride The Rhythm (02:47)
06. Color Me True (03:10)
07. Are You Ready (02:51)
08. Don't Burn Baby (03:13)
09. I'll Never Fall In Love Again (03:26)
10. Soul Clappin' (02:38)
 
Лог создания рипа
EAC extraction logfile from 19. January 2006, 6:33 for CD
Sly & The Family Stone / Dance To The Music
Used drive : LITE-ON DVDRW SOHW-1633S Adapter: 0 ID: 0
Read mode : Secure with NO C2, accurate stream, disable cache
Read offset correction : 12
Overread into Lead-In and Lead-Out : No
Used output format : Internal WAV Routines
44.100 Hz; 16 Bit; Stereo
Other options :
Fill up missing offset samples with silence : Yes
Delete leading and trailing silent blocks : No
Installed external ASPI interface
Track 1
Filename D:\FLAC\Sly & The Family Stone - Dance To The Music (1967) [FLAC]\01 -Dance To The Music.wav
Pre-gap length 0:00:02.00
Peak level 100.0 %
Track quality 100.0 %
Test CRC 38266DFA
Copy CRC 38266DFA
Copy OK
Track 2
Filename D:\FLAC\Sly & The Family Stone - Dance To The Music (1967) [FLAC]\02 -Higher.wav
Peak level 100.0 %
Track quality 99.9 %
Test CRC AC3694C0
Copy CRC AC3694C0
Copy OK
Track 3
Filename D:\FLAC\Sly & The Family Stone - Dance To The Music (1967) [FLAC]\03 -I Ain't Got Nobody (For Real).wav
Peak level 100.0 %
Track quality 99.9 %
Test CRC 7A18D6E2
Copy CRC 7A18D6E2
Copy OK
Track 4
Filename D:\FLAC\Sly & The Family Stone - Dance To The Music (1967) [FLAC]\04 -Dance To The Medley.wav
Peak level 100.0 %
Track quality 100.0 %
Test CRC 96183102
Copy CRC 96183102
Copy OK
Track 5
Filename D:\FLAC\Sly & The Family Stone - Dance To The Music (1967) [FLAC]\05 -Ride The Rhythm.wav
Peak level 96.7 %
Track quality 100.0 %
Test CRC A3C3C603
Copy CRC A3C3C603
Copy OK
Track 6
Filename D:\FLAC\Sly & The Family Stone - Dance To The Music (1967) [FLAC]\06 -Color Me True.wav
Peak level 99.2 %
Track quality 100.0 %
Test CRC 91B818B6
Copy CRC 91B818B6
Copy OK
Track 7
Filename D:\FLAC\Sly & The Family Stone - Dance To The Music (1967) [FLAC]\07 -Are You Ready.wav
Peak level 95.5 %
Track quality 100.0 %
Test CRC 2B713BA0
Copy CRC 2B713BA0
Copy OK
Track 8
Filename D:\FLAC\Sly & The Family Stone - Dance To The Music (1967) [FLAC]\08 -Don't Burn Baby.wav
Peak level 92.7 %
Track quality 99.9 %
Test CRC E741FF59
Copy CRC E741FF59
Copy OK
Track 9
Filename D:\FLAC\Sly & The Family Stone - Dance To The Music (1967) [FLAC]\09 -I'll Never Fall In Love Again.wav
Peak level 92.7 %
Track quality 100.0 %
Test CRC C4051C3D
Copy CRC C4051C3D
Copy OK
Track 10
Filename D:\FLAC\Sly & The Family Stone - Dance To The Music (1967) [FLAC]\10 -Soul Clappin'.wav
Peak level 100.0 %
Track quality 100.0 %
Test CRC 8EE55E0F
Copy CRC 8EE55E0F
Copy OK
No errors occured
End of status report
 
Содержание индексной карты (.CUE)
PERFORMER "Sly & The Family Stone"
TITLE "Dance To The Music"
FILE "01 - Dance To The Music.wav" WAVE
TRACK 01 AUDIO
TITLE "Dance To The Music"
PERFORMER "Sly & The Family Stone"
INDEX 01 00:00:00
FILE "02 - Higher.wav" WAVE
TRACK 02 AUDIO
TITLE "Higher"
PERFORMER "Sly & The Family Stone"
INDEX 01 00:00:00
FILE "03 - I Ain't Got Nobody (For Real).wav" WAVE
TRACK 03 AUDIO
TITLE "I Ain't Got Nobody (For Real)"
PERFORMER "Sly & The Family Stone"
INDEX 01 00:00:00
FILE "04 - Dance To The Medley.wav" WAVE
TRACK 04 AUDIO
TITLE "Dance To The Medley"
PERFORMER "Sly & The Family Stone"
INDEX 01 00:00:00
FILE "05 - Ride The Rhythm.wav" WAVE
TRACK 05 AUDIO
TITLE "Ride The Rhythm"
PERFORMER "Sly & The Family Stone"
INDEX 01 00:00:00
FILE "06 - Color Me True.wav" WAVE
TRACK 06 AUDIO
TITLE "Color Me True"
PERFORMER "Sly & The Family Stone"
INDEX 01 00:00:00
FILE "07 - Are You Ready.wav" WAVE
TRACK 07 AUDIO
TITLE "Are You Ready"
PERFORMER "Sly & The Family Stone"
INDEX 01 00:00:00
FILE "08 - Don't Burn Baby.wav" WAVE
TRACK 08 AUDIO
TITLE "Don't Burn Baby"
PERFORMER "Sly & The Family Stone"
INDEX 01 00:00:00
FILE "09 - I'll Never Fall In Love Again.wav" WAVE
TRACK 09 AUDIO
TITLE "I'll Never Fall In Love Again"
PERFORMER "Sly & The Family Stone"
INDEX 01 00:00:00
FILE "10 - Soul Clappin'.wav" WAVE
TRACK 10 AUDIO
TITLE "Soul Clappin'"
PERFORMER "Sly & The Family Stone"
INDEX 01 00:00:00
 
1968. Sly & The Family Stone - Life
Страна-производитель диска: US
Год первого выпуска: 1968
Год настоящего издания: 1995
Издатель (лейбл): Sony/Legacy/Epic
Номер по каталогу: EK 66423
Format: CD, Album, Reissue
Аудиокодек: FLAC (*.flac)
Тип рипа: tracks+.cue
Битрейт аудио: lossless
Продолжительность: 00:34:42
Источник (релизер): интернет
Наличие сканов в содержимом раздачи: да
Треклист:
01. Dynamite! (02:44)
02. Chicken (02:14)
03. Plastic Jim (03:31)
04. Fun (02:25)
05. Into My Own Thing (02:14)
06. Harmony (02:54)
07. Life (03:02)
08. Love City (02:44)
09. Im An Animal (03:23)
10. Mlady (02:48)
11. Jane Is A Groupee (02:50)
12. Only One Way Out Of This Mess (03:52)
 
Лог создания рипа
EAC extraction logfile from 14. April 2008, 6:53 for CD
Sly & The Family Stone / Life
Used drive : TSSTcorpCD/DVDW SH-S182D Adapter: 5 ID: 0
Read mode : Secure with NO C2, accurate stream, disable cache
Read offset correction : 6
Overread into Lead-In and Lead-Out : No
Used output format : C:\Program Files\Exact Audio Copy\flac.exe (User Defined
Encoder)
320 kBit/s
Additional command line options : -8 -V -T "ARTIST=%a" -T"TITLE=%t" -T "ALBUM=%g" -T "DATE=%y" -T "TRACKNUMBER=%n" -T "GENRE=%m" -T"COMMENT=EAC FLAC -8" %s
Other options :
Fill up missing offset samples with silence : Yes
Delete leading and trailing silent blocks : No
Installed external ASPI interface
Track 1
Filename F:\FLAC P\Sly & The Family Stone - Life (1968) [FLAC] (1995 reissue)\01 - Dynamite!.wav
Pre-gap length 0:00:02.00
Peak level 100.0 %
Track quality 99.9 %
Test CRC F2046368
Copy CRC F2046368
Copy OK
Track 2
Filename F:\FLAC P\Sly & The Family Stone - Life (1968) [FLAC] (1995 reissue)\02 - Chicken.wav
Pre-gap length 0:00:02.09
Peak level 97.8 %
Track quality 100.0 %
Test CRC F91934BC
Copy CRC F91934BC
Copy OK
Track 3
Filename F:\FLAC P\Sly & The Family Stone - Life (1968) [FLAC] (1995 reissue)\03 - Plastic Jim.wav
Pre-gap length 0:00:02.04
Peak level 94.9 %
Track quality 100.0 %
Test CRC E6CCC17D
Copy CRC E6CCC17D
Copy OK
Track 4
Filename F:\FLAC P\Sly & The Family Stone - Life (1968) [FLAC] (1995 reissue)\04 - Fun.wav
Pre-gap length 0:00:02.10
Peak level 100.0 %
Track quality 100.0 %
Test CRC 7DE4D1E2
Copy CRC 7DE4D1E2
Copy OK
Track 5
Filename F:\FLAC P\Sly & The Family Stone - Life (1968) [FLAC] (1995 reissue)\05 - Into My Own Thing.wav
Pre-gap length 0:00:02.10
Peak level 95.6 %
Track quality 100.0 %
Test CRC 979628FB
Copy CRC 979628FB
Copy OK
Track 6
Filename F:\FLAC P\Sly & The Family Stone - Life (1968) [FLAC] (1995 reissue)\06 - Harmony.wav
Pre-gap length 0:00:02.09
Peak level 100.0 %
Track quality 100.0 %
Test CRC 95994E9A
Copy CRC 95994E9A
Copy OK
Track 7
Filename F:\FLAC P\Sly & The Family Stone - Life (1968) [FLAC] (1995 reissue)\07 - Life.wav
Pre-gap length 0:00:02.10
Peak level 100.0 %
Track quality 100.0 %
Test CRC 9227FD03
Copy CRC 9227FD03
Copy OK
Track 8
Filename F:\FLAC P\Sly & The Family Stone - Life (1968) [FLAC] (1995 reissue)\08 - Love City.wav
Pre-gap length 0:00:02.09
Peak level 100.0 %
Track quality 100.0 %
Test CRC ED2841A8
Copy CRC ED2841A8
Copy OK
Track 9
Filename F:\FLAC P\Sly & The Family Stone - Life (1968) [FLAC] (1995 reissue)\09 - I'm An Animal.wav
Pre-gap length 0:00:02.09
Peak level 88.6 %
Track quality 100.0 %
Test CRC F0CF15C2
Copy CRC F0CF15C2
Copy OK
Track 10
Filename F:\FLAC P\Sly & The Family Stone - Life (1968) [FLAC] (1995 reissue)\10 - M'Lady.wav
Pre-gap length 0:00:02.09
Peak level 89.6 %
Track quality 100.0 %
Test CRC AC49E71A
Copy CRC AC49E71A
Copy OK
Track 11
Filename F:\FLAC P\Sly & The Family Stone - Life (1968) [FLAC] (1995 reissue)\11 - Jane Is A Groupee.wav
Pre-gap length 0:00:02.10
Peak level 100.0 %
Track quality 100.0 %
Test CRC 77520A65
Copy CRC 77520A65
Copy OK
Track 12
Filename F:\FLAC P\Sly & The Family Stone - Life (1968) [FLAC] (1995 reissue)\12 - Only One Way Out Of This Mess.wav
Pre-gap length 0:00:01.97
Peak level 97.7 %
Track quality 100.0 %
Test CRC 5C9EF07F
Copy CRC 5C9EF07F
Copy OK
No errors occured
End of status report
 
Содержание индексной карты (.CUE)
REM GENRE R&B
REM DATE 1968
REM DISCID 9C08220C
REM COMMENT "ExactAudioCopy v0.95b4"
PERFORMER "Sly & The Family Stone"
TITLE "Life"
FILE "01 - Dynamite!.wav" WAVE
TRACK 01 AUDIO
TITLE "Dynamite!"
PERFORMER "Sly & The Family Stone"
INDEX 01 00:00:00
TRACK 02 AUDIO
TITLE "Chicken"
PERFORMER "Sly & The Family Stone"
INDEX 00 02:44:20
FILE "02 - Chicken.wav" WAVE
INDEX 01 00:00:00
TRACK 03 AUDIO
TITLE "Plastic Jim"
PERFORMER "Sly & The Family Stone"
INDEX 00 02:12:65
FILE "03 - Plastic Jim.wav" WAVE
INDEX 01 00:00:00
TRACK 04 AUDIO
TITLE "Fun"
PERFORMER "Sly & The Family Stone"
INDEX 00 03:28:67
FILE "04 - Fun.wav" WAVE
INDEX 01 00:00:00
TRACK 05 AUDIO
TITLE "Into My Own Thing"
PERFORMER "Sly & The Family Stone"
INDEX 00 02:21:17
FILE "05 - Into My Own Thing.wav" WAVE
INDEX 01 00:00:00
TRACK 06 AUDIO
TITLE "Harmony"
PERFORMER "Sly & The Family Stone"
INDEX 00 02:13:20
FILE "06 - Harmony.wav" WAVE
INDEX 01 00:00:00
TRACK 07 AUDIO
TITLE "Life"
PERFORMER "Sly & The Family Stone"
INDEX 00 02:50:45
FILE "07 - Life.wav" WAVE
INDEX 01 00:00:00
TRACK 08 AUDIO
TITLE "Love City"
PERFORMER "Sly & The Family Stone"
INDEX 00 03:00:60
FILE "08 - Love City.wav" WAVE
INDEX 01 00:00:00
TRACK 09 AUDIO
TITLE "I'm An Animal"
PERFORMER "Sly & The Family Stone"
INDEX 00 02:42:38
FILE "09 - I'm An Animal.wav" WAVE
INDEX 01 00:00:00
TRACK 10 AUDIO
TITLE "M'Lady"
PERFORMER "Sly & The Family Stone"
INDEX 00 03:20:13
FILE "10 - M'Lady.wav" WAVE
INDEX 01 00:00:00
TRACK 11 AUDIO
TITLE "Jane Is A Groupee"
PERFORMER "Sly & The Family Stone"
INDEX 00 02:44:50
FILE "11 - Jane Is A Groupee.wav" WAVE
INDEX 01 00:00:00
TRACK 12 AUDIO
TITLE "Only One Way Out Of This Mess"
PERFORMER "Sly & The Family Stone"
INDEX 00 02:48:57
FILE "12 - Only One Way Out Of This Mess.wav" WAVE
INDEX 01 00:00:00
 
1969. Sly & The Family Stone - Stand! {2 издания}
 
1969. Sly & The Family Stone - Stand! (1993, Japan)
Страна-производитель диска: Japan
Год первого выпуска: 1969
Год настоящего издания: 1993
Издатель (лейбл): Epic/Legacy
Номер по каталогу: EK 53410
Format: CD, Album, Reissue, Remastered, Limited Edition, Gold Disc
Аудиокодек: FLAC (*.flac)
Тип рипа: tracks+.cue
Битрейт аудио: lossless
Продолжительность: 00:41:42
Источник (релизер): What.CD
Наличие сканов в содержимом раздачи: да, ознакомительные
Треклист:
01. Stand! (03:10)
02. Don't Call Me Nigger, Whitey (05:59)
03. I Want To Take You Higher (05:24)
04. Somebody's Watching You (03:21)
05. Sing A Simple Song (03:57)
06. Everyday People (02:22)
07. Sex Machine (13:48)
08. You Can Make It If You Try (03:43)
 
Лог создания рипа
X Lossless Decoder version 20100918 (122.1)
XLD extraction logfile from 2010-09-25 12:01:29 -0700
Sly & The Family Stone / Stand!
Used drive : MATSHITA DVD-R UJ-835E (revision GAND)
Use cdparanoia mode : YES (CDParanoia III 10.2 engine)
Disable audio cache : OK for the drive with cache less than 2750KB
Make use of C2 pointers : NO
Read offset correction : 102
Max retry count : 100
Gap status : Analyzed, Appended (except HTOA)
TOC of the extracted CD
Track | Start | Length | Start sector | End sector
---------------------------------------------------------
1 | 00:00:00 | 03:09:65 | 0 | 14239
2 | 03:09:65 | 05:59:55 | 14240 | 41219
3 | 09:09:45 | 05:24:50 | 41220 | 65569
4 | 14:34:20 | 03:21:42 | 65570 | 80686
5 | 17:55:62 | 03:57:43 | 80687 | 98504
6 | 21:53:30 | 02:22:35 | 98505 | 109189
7 | 24:15:65 | 13:48:42 | 109190 | 171331
8 | 38:04:32 | 03:38:13 | 171332 | 187694
List of alternate offset correction values
# | Absolute | Relative | Confidence
------------------------------------------
1 | 195 | 93 | 3
2 | -755 | -857 | 2
All Tracks
Album gain : -0.70 dB
Peak : 0.914154
Track 01
Filename : /XLD Rips/01 Stand!.flac
Pre-gap length : 00:02:00
Track gain : 0.35 dB
Peak : 0.484283
CRC32 hash (test run) : 7FC74028
CRC32 hash : 7FC74028
CRC32 hash (skip zero) : 9E236B0F
AccurateRip signature : B84FD206
->Accurately ripped! (confidence 3)
Statistics
Read error : 0
Skipped (treated as error) : 0
Edge jitter error (maybe fixed) : 1
Atom jitter error (maybe fixed) : 0
Drift error (maybe fixed) : 0
Dropped bytes error (maybe fixed) : 0
Duplicated bytes error (maybe fixed) : 1
Inconsistency in error sectors : 0
Track 02
Filename : /XLD Rips/02 Don't Call Me Nigger, Whitey.flac
Pre-gap length : 00:01:65
Track gain : -1.02 dB
Peak : 0.896423
CRC32 hash (test run) : E6E867E7
CRC32 hash : E6E867E7
CRC32 hash (skip zero) : F3B0B6DB
AccurateRip signature : AF7308A7
->Accurately ripped! (confidence 3)
Statistics
Read error : 0
Skipped (treated as error) : 0
Edge jitter error (maybe fixed) : 2
Atom jitter error (maybe fixed) : 0
Drift error (maybe fixed) : 0
Dropped bytes error (maybe fixed) : 1
Duplicated bytes error (maybe fixed) : 2
Inconsistency in error sectors : 0
Track 03
Filename : /XLD Rips/03 I Want to Take You Higher.flac
Pre-gap length : 00:02:28
Track gain : 0.56 dB
Peak : 0.678955
CRC32 hash (test run) : 9568F437
CRC32 hash : 9568F437
CRC32 hash (skip zero) : 0402A2EE
AccurateRip signature : 5F8A9243
->Accurately ripped! (confidence 3)
Statistics
Read error : 0
Skipped (treated as error) : 0
Edge jitter error (maybe fixed) : 2
Atom jitter error (maybe fixed) : 0
Drift error (maybe fixed) : 0
Dropped bytes error (maybe fixed) : 1
Duplicated bytes error (maybe fixed) : 1
Inconsistency in error sectors : 0
Track 04
Filename : /XLD Rips/04 Somebody's Watching You.flac
Pre-gap length : 00:02:65
Track gain : 1.94 dB
Peak : 0.521332
CRC32 hash (test run) : DE255E8A
CRC32 hash : DE255E8A
CRC32 hash (skip zero) : E7832BC5
AccurateRip signature : 89DED576
->Accurately ripped! (confidence 3)
Statistics
Read error : 0
Skipped (treated as error) : 0
Edge jitter error (maybe fixed) : 1
Atom jitter error (maybe fixed) : 0
Drift error (maybe fixed) : 0
Dropped bytes error (maybe fixed) : 1
Duplicated bytes error (maybe fixed) : 1
Inconsistency in error sectors : 0
Track 05
Filename : /XLD Rips/05 Sing a Simple Song.flac
Pre-gap length : 00:02:42
Track gain : 0.57 dB
Peak : 0.547455
CRC32 hash (test run) : D770F05A
CRC32 hash : D770F05A
CRC32 hash (skip zero) : 152BA275
AccurateRip signature : CDA187D1
->Accurately ripped! (confidence 3)
Statistics
Read error : 0
Skipped (treated as error) : 0
Edge jitter error (maybe fixed) : 0
Atom jitter error (maybe fixed) : 0
Drift error (maybe fixed) : 0
Dropped bytes error (maybe fixed) : 0
Duplicated bytes error (maybe fixed) : 0
Inconsistency in error sectors : 0
Track 06
Filename : /XLD Rips/06 Everyday People.flac
Pre-gap length : 00:02:68
Track gain : 0.77 dB
Peak : 0.538910
CRC32 hash (test run) : A3CC86DA
CRC32 hash : A3CC86DA
CRC32 hash (skip zero) : A726FE38
AccurateRip signature : 8C6FF25D
->Accurately ripped! (confidence 3)
Statistics
Read error : 0
Skipped (treated as error) : 0
Edge jitter error (maybe fixed) : 1
Atom jitter error (maybe fixed) : 1
Drift error (maybe fixed) : 0
Dropped bytes error (maybe fixed) : 0
Duplicated bytes error (maybe fixed) : 0
Inconsistency in error sectors : 0
Track 07
Filename : /XLD Rips/07 Sex Machine.flac
Pre-gap length : 00:01:70
Track gain : -1.38 dB
Peak : 0.914154
CRC32 hash (test run) : A350EB26
CRC32 hash : A350EB26
CRC32 hash (skip zero) : 46E0BB3C
AccurateRip signature : 61DEF2CE
->Accurately ripped! (confidence 3)
Statistics
Read error : 0
Skipped (treated as error) : 0
Edge jitter error (maybe fixed) : 1
Atom jitter error (maybe fixed) : 0
Drift error (maybe fixed) : 0
Dropped bytes error (maybe fixed) : 1
Duplicated bytes error (maybe fixed) : 1
Inconsistency in error sectors : 0
Track 08
Filename : /XLD Rips/08 You Can Make It If You Try.flac
Pre-gap length : 00:03:00
Track gain : -1.38 dB
Peak : 0.702087
CRC32 hash (test run) : 012E8A29
CRC32 hash : 012E8A29
CRC32 hash (skip zero) : 044B5414
AccurateRip signature : 367C7BDE
->Accurately ripped! (confidence 3)
Statistics
Read error : 0
Skipped (treated as error) : 0
Edge jitter error (maybe fixed) : 1
Atom jitter error (maybe fixed) : 0
Drift error (maybe fixed) : 0
Dropped bytes error (maybe fixed) : 1
Duplicated bytes error (maybe fixed) : 1
Inconsistency in error sectors : 0
No errors occurred
End of status report
 
Содержание индексной карты (.CUE)
TITLE "Stand!"
PERFORMER "Sly & The Family Stone"
REM GENRE "Funk"
REM DATE "1969-05-03"
REM DISCID 6909C608
REM REPLAYGAIN_ALBUM_GAIN -0.70 dB
REM REPLAYGAIN_ALBUM_PEAK 0.914154
FILE "01 Stand!.wav" WAVE
TRACK 01 AUDIO
TITLE "Stand!"
PERFORMER "Sly & The Family Stone"
REM REPLAYGAIN_TRACK_GAIN 0.35 dB
REM REPLAYGAIN_TRACK_PEAK 0.484283
INDEX 01 00:00:00
TRACK 02 AUDIO
TITLE "Don't Call Me Nigger, Whitey"
PERFORMER "Sly & The Family Stone"
REM REPLAYGAIN_TRACK_GAIN -1.02 dB
REM REPLAYGAIN_TRACK_PEAK 0.896423
INDEX 00 03:08:00
FILE "02 Don't Call Me Nigger, Whitey.wav" WAVE
INDEX 01 00:00:00
TRACK 03 AUDIO
TITLE "I Want to Take You Higher"
PERFORMER "Sly & The Family Stone"
REM REPLAYGAIN_TRACK_GAIN 0.56 dB
REM REPLAYGAIN_TRACK_PEAK 0.678955
INDEX 00 05:57:27
FILE "03 I Want to Take You Higher.wav" WAVE
INDEX 01 00:00:00
TRACK 04 AUDIO
TITLE "Somebody's Watching You"
PERFORMER "Sly & The Family Stone"
REM REPLAYGAIN_TRACK_GAIN 1.94 dB
REM REPLAYGAIN_TRACK_PEAK 0.521332
INDEX 00 05:21:60
FILE "04 Somebody's Watching You.wav" WAVE
INDEX 01 00:00:00
TRACK 05 AUDIO
TITLE "Sing a Simple Song"
PERFORMER "Sly & The Family Stone"
REM REPLAYGAIN_TRACK_GAIN 0.57 dB
REM REPLAYGAIN_TRACK_PEAK 0.547455
INDEX 00 03:19:00
FILE "05 Sing a Simple Song.wav" WAVE
INDEX 01 00:00:00
TRACK 06 AUDIO
TITLE "Everyday People"
PERFORMER "Sly & The Family Stone"
REM REPLAYGAIN_TRACK_GAIN 0.77 dB
REM REPLAYGAIN_TRACK_PEAK 0.538910
INDEX 00 03:54:50
FILE "06 Everyday People.wav" WAVE
INDEX 01 00:00:00
TRACK 07 AUDIO
TITLE "Sex Machine"
PERFORMER "Sly & The Family Stone"
REM REPLAYGAIN_TRACK_GAIN -1.38 dB
REM REPLAYGAIN_TRACK_PEAK 0.914154
INDEX 00 02:20:40
FILE "07 Sex Machine.wav" WAVE
INDEX 01 00:00:00
TRACK 08 AUDIO
TITLE "You Can Make It If You Try"
PERFORMER "Sly & The Family Stone"
REM REPLAYGAIN_TRACK_GAIN -1.38 dB
REM REPLAYGAIN_TRACK_PEAK 0.702087
INDEX 00 13:45:42
FILE "08 You Can Make It If You Try.wav" WAVE
INDEX 01 00:00:00
 
1969. Sly & The Family Stone - Stand! (2007, US)
Страна-производитель диска: US
Год первого выпуска: 1969
Год настоящего издания: 24 Apr 2007
Издатель (лейбл): Epic/Legacy
Номер по каталогу: 82876 75912 2
Format: CD, Album, Reissue, Remastered
Аудиокодек: FLAC (*.flac)
Тип рипа: tracks+.cue
Битрейт аудио: lossless
Продолжительность: 00:58:26
Источник (релизер): What.CD
Наличие сканов в содержимом раздачи: да
Треклист:
01. Stand! (03:10)
02. Don't Call Me Nigger, Whitey (05:59)
03. I Want To Take You Higher (05:24)
04. Somebody's Watching You (03:21)
05. Sing A Simple Song (03:57)
06. Everyday People (02:22)
07. Sex Machine (13:48)
08. You Can Make It If You Try (03:43)
Bonus Tracks:
09. Stand! (Single Version In Mono) (03:09)
10. I Want To Take You Higher (Single Version In Mono) (03:02)
11. You Can Make It If You Try (Unissued Single Version In Mono) (03:40)
12. Soul Clappin' II (03:27)
13. My Brain (Zig-Zag) (03:18)
 
Лог создания рипа
Exact Audio Copy V0.99 prebeta 4 from 23. January 2008
EAC extraction logfile from 28. November 2008, 3:36
Sly and the Family Stone / Stand!
Used drive : HL-DT-STDVD-RAM GH22NP20 Adapter: 1 ID: 0
Read mode : Secure
Utilize accurate stream : Yes
Defeat audio cache : Yes
Make use of C2 pointers : No
Read offset correction : 102
Overread into Lead-In and Lead-Out : No
Fill up missing offset samples with silence : Yes
Delete leading and trailing silent blocks : No
Null samples used in CRC calculations : Yes
Used interface : Native Win32 interface for Win NT &
2000
Gap handling : Appended to previous track
Used output format : User Defined Encoder
Selected bitrate : 320 kBit/s
Quality : High
Add ID3 tag : No
Command line compressor : C:\Program Files\Exact Audio Copy\Flac\flac.exe
Additional command line options : -V -8 -T "artist=%a" -T "title=%t" -T "album=%g" -T"date=%y" -T "tracknumber=%n" -T "genre=%m" %s
TOC of the extracted CD
Track | Start | Length | Start sector | End sector
---------------------------------------------------------
1 | 0:00.00 | 3:10.07 | 0 | 14256
2 | 3:10.07 | 5:59.63 | 14257 | 41244
3 | 9:09.70 | 5:24.52 | 41245 | 65596
4 | 14:34.47 | 3:21.58 | 65597 | 80729
5 | 17:56.30 | 3:57.67 | 80730 | 98571
6 | 21:54.22 | 2:22.43 | 98572 | 109264
7 | 24:16.65 | 13:48.22 | 109265 | 171386
8 | 38:05.12 | 3:43.03 | 171387 | 188114
9 | 41:48.15 | 3:09.45 | 188115 | 202334
10 | 44:57.60 | 3:02.47 | 202335 | 216031
11 | 48:00.32 | 3:40.05 | 216032 | 232536
12 | 51:40.37 | 3:27.63 | 232537 | 248124
13 | 55:08.25 | 3:18.42 | 248125 | 263016
Track 1
Filename C:\EACrips\Sly and the Family Stone - 1969 - Stand! - FLAC\01 - Stand!.wav
Pre-gap length 0:00:02.00
Peak level 94.7 %
Track quality 100.0 %
Test CRC A07E6F72
Copy CRC A07E6F72
Accurately ripped (confidence 4) [8C1DD2F9]
Copy OK
Track 2
Filename C:\EACrips\Sly and the Family Stone - 1969 - Stand! - FLAC\02 - Don't Call Me Nigger, Whitey.wav
Pre-gap length 0:00:02.42
Peak level 99.8 %
Track quality 100.0 %
Test CRC 206382CE
Copy CRC 206382CE
Accurately ripped (confidence 4) [93255D5F]
Copy OK
Track 3
Filename C:\EACrips\Sly and the Family Stone - 1969 - Stand! - FLAC\03 - I Want To Take You Higher.wav
Pre-gap length 0:00:02.08
Peak level 99.8 %
Track quality 100.0 %
Test CRC F5CBEA60
Copy CRC F5CBEA60
Accurately ripped (confidence 4) [44A46EC7]
Copy OK
Track 4
Filename C:\EACrips\Sly and the Family Stone - 1969 - Stand! - FLAC\04 - Somebody's Watching You.wav
Pre-gap length 0:00:02.25
Peak level 84.4 %
Track quality 100.0 %
Test CRC 800D2701
Copy CRC 800D2701
Accurately ripped (confidence 4) [137B235D]
Copy OK
Track 5
Filename C:\EACrips\Sly and the Family Stone - 1969 - Stand! - FLAC\05 - Sing A Simple Song.wav
Pre-gap length 0:00:01.33
Peak level 94.3 %
Track quality 100.0 %
Test CRC 9D7A9D6D
Copy CRC 9D7A9D6D
Accurately ripped (confidence 4) [751ADDA6]
Copy OK
Track 6
Filename C:\EACrips\Sly and the Family Stone - 1969 - Stand! - FLAC\06 - Everyday People.wav
Pre-gap length 0:00:02.05
Peak level 91.1 %
Track quality 100.0 %
Test CRC 1EE5BFFE
Copy CRC 1EE5BFFE
Accurately ripped (confidence 4) [3035C392]
Copy OK
Track 7
Filename C:\EACrips\Sly and the Family Stone - 1969 - Stand! - FLAC\07 - Sex Machine.wav
Pre-gap length 0:00:01.05
Peak level 99.8 %
Track quality 100.0 %
Test CRC 059AC40D
Copy CRC 059AC40D
Accurately ripped (confidence 4) [983A19C0]
Copy OK
Track 8
Filename C:\EACrips\Sly and the Family Stone - 1969 - Stand! - FLAC\08 - You Can Make It If You Try.wav
Pre-gap length 0:00:01.72
Peak level 93.6 %
Track quality 100.0 %
Test CRC B9ED3FBB
Copy CRC B9ED3FBB
Accurately ripped (confidence 4) [A275B309]
Copy OK
Track 9
Filename C:\EACrips\Sly and the Family Stone - 1969 - Stand! - FLAC\09 - Stand!
(Mono Single Version).wav
Pre-gap length 0:00:04.55
Peak level 92.2 %
Track quality 99.9 %
Test CRC D658476E
Copy CRC D658476E
Accurately ripped (confidence 3) [40CC3441]
Copy OK
Track 10
Filename C:\EACrips\Sly and the Family Stone - 1969 - Stand! - FLAC\10 - I Want To Take You Higher (Mono Single Version).wav
Pre-gap length 0:00:01.55
Peak level 89.8 %
Track quality 99.9 %
Test CRC DC1F4C21
Copy CRC DC1F4C21
Accurately ripped (confidence 3) [A4EFD86F]
Copy OK
Track 11
Filename C:\EACrips\Sly and the Family Stone - 1969 - Stand! - FLAC\11 - You Can Make It If You Try (Previously Unissued Mono Single Version).wav
Pre-gap length 0:00:01.55
Peak level 94.2 %
Track quality 100.0 %
Test CRC 15D9F017
Copy CRC 15D9F017
Accurately ripped (confidence 3) [2EEC3A2A]
Copy OK
Track 12
Filename C:\EACrips\Sly and the Family Stone - 1969 - Stand! - FLAC\12 - Soul Clappin' II (Previously Unissued).wav
Pre-gap length 0:00:01.55
Peak level 96.9 %
Track quality 100.0 %
Test CRC 3EDB90F6
Copy CRC 3EDB90F6
Accurately ripped (confidence 3) [4607C4FC]
Copy OK
Track 13
Filename C:\EACrips\Sly and the Family Stone - 1969 - Stand! - FLAC\13 - My Brain (Zig-Zag) - (Instrumental - Previously Unissued).wav
Pre-gap length 0:00:01.53
Peak level 99.4 %
Track quality 99.9 %
Test CRC D3AEF816
Copy CRC D3AEF816
Accurately ripped (confidence 3) [C1867919]
Copy OK
All tracks accurately ripped
No errors occurred
End of status report
 
Содержание индексной карты (.CUE)
REM GENRE Rock
REM DATE 1969
REM DISCID B10DB20D
REM COMMENT "ExactAudioCopy v0.99pb4"
PERFORMER "Sly and the Family Stone"
TITLE "Stand!"
FILE "01 - Stand!.wav" WAVE
TRACK 01 AUDIO
TITLE "Stand!"
PERFORMER "Sly and the Family Stone"
INDEX 01 00:00:00
TRACK 02 AUDIO
TITLE "Don't Call Me Nigger, Whitey"
PERFORMER "Sly and the Family Stone"
INDEX 00 03:07:40
FILE "02 - Don't Call Me Nigger, Whitey.wav" WAVE
INDEX 01 00:00:00
TRACK 03 AUDIO
TITLE "I Want To Take You Higher"
PERFORMER "Sly and the Family Stone"
INDEX 00 05:57:55
FILE "03 - I Want To Take You Higher.wav" WAVE
INDEX 01 00:00:00
TRACK 04 AUDIO
TITLE "Somebody's Watching You"
PERFORMER "Sly and the Family Stone"
INDEX 00 05:22:27
FILE "04 - Somebody's Watching You.wav" WAVE
INDEX 01 00:00:00
TRACK 05 AUDIO
TITLE "Sing A Simple Song"
PERFORMER "Sly and the Family Stone"
INDEX 00 03:20:25
FILE "05 - Sing A Simple Song.wav" WAVE
INDEX 01 00:00:00
TRACK 06 AUDIO
TITLE "Everyday People"
PERFORMER "Sly and the Family Stone"
INDEX 00 03:55:62
FILE "06 - Everyday People.wav" WAVE
INDEX 01 00:00:00
TRACK 07 AUDIO
TITLE "Sex Machine"
PERFORMER "Sly and the Family Stone"
INDEX 00 02:21:38
FILE "07 - Sex Machine.wav" WAVE
INDEX 01 00:00:00
TRACK 08 AUDIO
TITLE "You Can Make It If You Try"
PERFORMER "Sly and the Family Stone"
INDEX 00 13:46:25
FILE "08 - You Can Make It If You Try.wav" WAVE
INDEX 01 00:00:00
TRACK 09 AUDIO
TITLE "Stand! (Mono Single Version)"
PERFORMER "Sly and the Family Stone"
INDEX 00 03:38:23
FILE "09 - Stand! (Mono Single Version).wav" WAVE
INDEX 01 00:00:00
TRACK 10 AUDIO
TITLE "I Want To Take You Higher (Mono Single Version)"
PERFORMER "Sly and the Family Stone"
INDEX 00 03:07:65
FILE "10 - I Want To Take You Higher (Mono).wav" WAVE
INDEX 01 00:00:00
TRACK 11 AUDIO
TITLE "You Can Make It If You Try (Previously Unissued Mono Single Version)"
PERFORMER "Sly and the Family Stone"
INDEX 00 03:00:67
FILE "11 - You Can Make It If You Try (Mono).wav" WAVE
INDEX 01 00:00:00
TRACK 12 AUDIO
TITLE "Soul Clappin' II (Previously Unissued)"
PERFORMER "Sly and the Family Stone"
INDEX 00 03:38:25
FILE "12 - Soul Clappin' II (Previously Unissued).wav" WAVE
INDEX 01 00:00:00
TRACK 13 AUDIO
TITLE "My Brain (Zig-Zag) - (Instrumental - Previously Unissued)"
PERFORMER "Sly and the Family Stone"
INDEX 00 03:26:10
FILE "13 - My Brain (Zig-Zag) - (Instrumental).wav" WAVE
INDEX 01 00:00:00
 
1971. Sly & The Family Stone - There's A Riot Goin' On {3 издания}
 
1971. Sly & The Family Stone - There's A Riot Goin' On (1990, US)
Страна-производитель диска: US
Год первого выпуска: 1971
Год настоящего издания: 1990
Издатель (лейбл): Epic
Номер по каталогу: EK 30986
Format: CD, Album
Аудиокодек: FLAC (*.flac)
Тип рипа: tracks+.cue
Битрейт аудио: lossless
Продолжительность: 00:47:36
Источник (релизер): ed2k
Наличие сканов в содержимом раздачи: да
Треклист:
01. Luv N' Haight (04:02)
02. Just Like A Baby (05:11)
03. Poet (03:01)
04. Family Affair (03:04)
05. Africa Talks To You "The Asphalt Jungle" (08:45)
06. Brave & Strong (03:29)
07. (You Caught Me) Smilin' (02:54)
08. Time (03:01)
09. Spaced Cowboy (03:59)
10. Runnin' Away (02:56)
11. Thank You For Talkin' To Me Africa (07:13)
 
Лог создания рипа
EAC Auslese-Logdatei vom 15. Januar 2006, 23:14 fьr CD
Sly & The Family Stone / There's A Riot Goin' On
Benutztes Laufwerk : _NEC DVD_RW ND-3500AG Adapter: 0 ID: 0
Lesemodus : Sicher mit KEINEM C2, Accurate Stream, KEIN Puffer abgeschaltet
Leseoffset Korrektur : 48
Ьberlesen in das Lead-In und Lead-Out : Nein
Benutztes Ausgabeformat : Interne WAV Routinen
44.100 Hz; 16 Bit; Stereo
Andere Einstellungen :
Fьlle fehlende Offsetsample mit Stille auf : Ja
Lцsche fьhrende und nachfolgende stille Blцcke : Nein
Installierte externe ASPI Schnittstelle
Bereichsstatus und Fehler
Gewдhlter Bereich
Dateiname F:\__lwc sich\Image.wav
Spitzenpegel 97.6 %
Bereichsqualitдt 100.0 %
CRC 91E3E280
Kopie OK
Keine Fehler aufgetreten
Ende des Statusreports
 
Содержание индексной карты (.CUE)
REM GENRE Funk
REM DATE 1971
REM DISCID 880B280B
REM COMMENT "ExactAudioCopy v0.95b3"
PERFORMER "Sly & The Family Stone"
TITLE "There's A Riot Goin' On"
FILE "There's A Riot Goin' On.flac" WAVE
TRACK 01 AUDIO
TITLE "Luv N' Haight"
PERFORMER "Sly & The Family Stone"
INDEX 01 00:00:00
TRACK 02 AUDIO
TITLE "Just Like A Baby"
PERFORMER "Sly & The Family Stone"
INDEX 00 03:59:72
INDEX 01 04:01:60
TRACK 03 AUDIO
TITLE "Poet"
PERFORMER "Sly & The Family Stone"
INDEX 00 09:11:07
INDEX 01 09:12:70
TRACK 04 AUDIO
TITLE "Family Affair"
PERFORMER "Sly & The Family Stone"
INDEX 00 12:12:10
INDEX 01 12:13:72
TRACK 05 AUDIO
TITLE "Africa Talks To You 'The Asphalt Jungle'"
PERFORMER "Sly & The Family Stone"
INDEX 00 15:17:22
INDEX 01 15:18:70
TRACK 06 AUDIO
TITLE "Brave And Strong"
PERFORMER "Sly & The Family Stone"
INDEX 00 24:02:22
INDEX 01 24:04:00
TRACK 07 AUDIO
TITLE "(You Caught Me) Smilin'"
PERFORMER "Sly & The Family Stone"
INDEX 00 27:31:22
INDEX 01 27:33:00
TRACK 08 AUDIO
TITLE "Time"
PERFORMER "Sly & The Family Stone"
INDEX 00 30:25:37
INDEX 01 30:27:12
TRACK 09 AUDIO
TITLE "Spaced Cowboy"
PERFORMER "Sly & The Family Stone"
INDEX 00 33:27:62
INDEX 01 33:28:30
TRACK 10 AUDIO
TITLE "Runnin' Away"
PERFORMER "Sly & The Family Stone"
INDEX 00 37:24:55
INDEX 01 37:27:42
TRACK 11 AUDIO
TITLE "Thank You For Talkin' To Me Africa"
PERFORMER "Sly & The Family Stone"
INDEX 00 40:22:05
INDEX 01 40:23:50
 
1971. Sly & The Family Stone - There's A Riot Goin' On (1997, Japan)
Страна-производитель диска: Japan
Год первого выпуска: 1971
Год настоящего издания: 1997
Издатель (лейбл): Epic/Sony Records
Номер по каталогу: ESCA 7632
Format: CD, Album
Аудиокодек: FLAC (*.flac)
Тип рипа: tracks+.cue
Битрейт аудио: lossless
Продолжительность: 00:47:47
Источник (релизер): What.CD
Наличие сканов в содержимом раздачи: front, CD
Треклист:
01. Luv N' Haight (04:01)
02. Just Like A Baby (05:11)
03. Poet (03:00)
04. Family Affair (03:05)
05. Africa Talks To You "The Asphalt Jungle" (08:45)
06. There's A Riot Goin' On (00:08)
07. Brave & Strong (03:29)
08. (You Caught Me) Smilin' (02:54)
09. Time (03:01)
10. Spaced Cowboy (03:59)
11. Runnin' Away (02:56)
12. Thank You For Talkin' To Me Africa (07:15)
 
Лог создания рипа
Exact Audio Copy V1.0 beta 1 from 15. November 2010
EAC extraction logfile from 1. June 2014, 2:21
Sly & The Family Stone / There's A Riot Goin' On
Used drive : Optiarc DVD RW AD-7200A Adapter: 0 ID: 0
Read mode : Secure
Utilize accurate stream : Yes
Defeat audio cache : Yes
Make use of C2 pointers : No
Read offset correction : 48
Overread into Lead-In and Lead-Out : No
Fill up missing offset samples with silence : Yes
Delete leading and trailing silent blocks : No
Null samples used in CRC calculations : Yes
Used interface : Native Win32 interface for Win NT & 2000
Gap handling : Appended to previous track
Used output format : User Defined Encoder
Selected bitrate : 768 kBit/s
Quality : High
Add ID3 tag : No
Command line compressor : C:\Program Files\Exact Audio Copy\Flac\flac.exe
Additional command line options : -8 -V -T "ARTIST=%a" -T "TITLE=%t" -T "ALBUM=%g" -T"DATE=%y" -T "TRACKNUMBER=%n" -T "TOTALTRACKS=%x" -T "GENRE=%m" -T "ALBUMARTIST=%v"-T "ALBUM ARTIST=%v" -T "COMMENT=EAC Secure Mode, Test & Copy, AccurateRip, FLAC -8"%s
TOC of the extracted CD
Track | Start | Length | Start sector | End sector
---------------------------------------------------------
1 | 0:00.00 | 4:01.62 | 0 | 18136
2 | 4:01.62 | 5:11.18 | 18137 | 41479
3 | 9:13.05 | 3:00.70 | 41480 | 55049
4 | 12:14.00 | 3:05.02 | 55050 | 68926
5 | 15:19.02 | 8:45.23 | 68927 | 108324
6 | 24:04.25 | 0:08.00 | 108325 | 108924
7 | 24:12.25 | 3:29.10 | 108925 | 124609
8 | 27:41.35 | 2:54.15 | 124610 | 137674
9 | 30:35.50 | 3:01.32 | 137675 | 151281
10 | 33:37.07 | 3:59.00 | 151282 | 169206
11 | 37:36.07 | 2:56.08 | 169207 | 182414
12 | 40:32.15 | 7:15.50 | 182415 | 215089
Track 1
Filename D:\Sly & The Family Stone - There's a Riot Goin' On (1971)[FLAC]\01 - Luv N' Haight.wav
Pre-gap length 0:00:02.00
Peak level 81.2 %
Extraction speed 2.3 X
Track quality 100.0 %
Test CRC AAFD19AA
Copy CRC AAFD19AA
Accurately ripped (confidence 4) [BF95FE77]
Copy OK
Track 2
Filename D:\Sly & The Family Stone - There's a Riot Goin' On (1971)[FLAC]\02 - Just Like A Baby.wav
Peak level 88.1 %
Extraction speed 2.7 X
Track quality 100.0 %
Test CRC 3E31A98C
Copy CRC 3E31A98C
Accurately ripped (confidence 4) [835BAF0B]
Copy OK
Track 3
Filename D:\Sly & The Family Stone - There's a Riot Goin' On (1971)[FLAC]\03 - Poet.wav
Peak level 94.5 %
Extraction speed 2.7 X
Track quality 100.0 %
Test CRC A490D0AA
Copy CRC A490D0AA
Accurately ripped (confidence 4) [0B95DD05]
Copy OK
Track 4
Filename D:\Sly & The Family Stone - There's a Riot Goin' On (1971)[FLAC]\04 - Family Affair.wav
Peak level 95.2 %
Extraction speed 2.9 X
Track quality 100.0 %
Test CRC 80C31062
Copy CRC 80C31062
Accurately ripped (confidence 4) [6A71AC3A]
Copy OK
Track 5
Filename D:\Sly & The Family Stone - There's a Riot Goin' On (1971)[FLAC]\05 - Africa Talks To You ''The Asphalt Jungle''.wav
Peak level 97.6 %
Extraction speed 3.3 X
Track quality 99.9 %
Test CRC 929BD753
Copy CRC 929BD753
Accurately ripped (confidence 4) [F48EE50D]
Copy OK
Track 6
Filename D:\Sly & The Family Stone - There's a Riot Goin' On (1971)[FLAC]\06 - There's A Riot Goin' On.wav
Peak level 0.0 %
Extraction speed 0.6 X
Track quality 100.0 %
Test CRC 96DDFABE
Copy CRC 96DDFABE
Track not present in AccurateRip database
Copy OK
Track 7
Filename D:\Sly & The Family Stone - There's a Riot Goin' On (1971)[FLAC]\07 - Brave And Strong.wav
Peak level 80.9 %
Extraction speed 3.5 X
Track quality 100.0 %
Test CRC B778E685
Copy CRC B778E685
Accurately ripped (confidence 4) [DA9419BE]
Copy OK
Track 8
Filename D:\Sly & The Family Stone - There's a Riot Goin' On (1971)[FLAC]\08 - (You Caught Me) Smilin'.wav
Peak level 91.0 %
Extraction speed 3.5 X
Track quality 100.0 %
Test CRC 0450573E
Copy CRC 0450573E
Accurately ripped (confidence 4) [9AF2CA77]
Copy OK
Track 9
Filename D:\Sly & The Family Stone - There's a Riot Goin' On (1971)[FLAC]\09 - Time.wav
Peak level 65.9 %
Extraction speed 3.7 X
Track quality 100.0 %
Test CRC 4D609C87
Copy CRC 4D609C87
Accurately ripped (confidence 4) [478667FB]
Copy OK
Track 10
Filename D:\Sly & The Family Stone - There's a Riot Goin' On (1971)[FLAC]\10 - Spaced Cowboy.wav
Peak level 89.4 %
Extraction speed 3.9 X
Track quality 100.0 %
Test CRC AA057B62
Copy CRC AA057B62
Accurately ripped (confidence 4) [4EBCB895]
Copy OK
Track 11
Filename D:\Sly & The Family Stone - There's a Riot Goin' On (1971)[FLAC]\11 - Runnin' Away.wav
Pre-gap length 0:00:01.20
Peak level 81.6 %
Extraction speed 3.9 X
Track quality 100.0 %
Test CRC 1ACE9431
Copy CRC 1ACE9431
Accurately ripped (confidence 4) [6AB0B915]
Copy OK
Track 12
Filename D:\Sly & The Family Stone - There's a Riot Goin' On (1971)[FLAC]\12 - Thank You For Talkin' To Me Africa.wav
Peak level 82.2 %
Extraction speed 4.2 X
Track quality 99.9 %
Test CRC FFCDAB89
Copy CRC FFCDAB89
Accurately ripped (confidence 4) [39CC41FD]
Copy OK
11 track(s) accurately ripped
1 track(s) not present in the AccurateRip database
Some tracks could not be verified as accurate
No errors occurred
End of status report
==== Log checksum 5FC5EB2447108F8B4D234C2063A5019A15FC36893C7D54EEABF35E56A2EBC4A4 ====
 
Содержание индексной карты (.CUE)
REM GENRE Funk
REM DATE 1971
REM DISCID A00B330C
REM COMMENT "ExactAudioCopy v1.0b1"
PERFORMER "Sly & The Family Stone"
TITLE "There's A Riot Goin' On"
FILE "01 - Luv N' Haight.wav" WAVE
TRACK 01 AUDIO
TITLE "Luv N' Haight"
PERFORMER "Sly & The Family Stone"
INDEX 01 00:00:00
FILE "02 - Just Like A Baby.wav" WAVE
TRACK 02 AUDIO
TITLE "Just Like A Baby"
PERFORMER "Sly & The Family Stone"
INDEX 01 00:00:00
FILE "03 - Poet.wav" WAVE
TRACK 03 AUDIO
TITLE "Poet"
PERFORMER "Sly & The Family Stone"
INDEX 01 00:00:00
FILE "04 - Family Affair.wav" WAVE
TRACK 04 AUDIO
TITLE "Family Affair"
PERFORMER "Sly & The Family Stone"
INDEX 01 00:00:00
FILE "05 - Africa Talks To You ''The Asphalt Jungle''.wav" WAVE
TRACK 05 AUDIO
TITLE "Africa Talks To You ''The Asphalt Jungle''"
PERFORMER "Sly & The Family Stone"
INDEX 01 00:00:00
FILE "06 - There's A Riot Goin' On.wav" WAVE
TRACK 06 AUDIO
TITLE "There's A Riot Goin' On"
PERFORMER "Sly & The Family Stone"
INDEX 01 00:00:00
FILE "07 - Brave And Strong.wav" WAVE
TRACK 07 AUDIO
TITLE "Brave And Strong"
PERFORMER "Sly & The Family Stone"
INDEX 01 00:00:00
FILE "08 - (You Caught Me) Smilin'.wav" WAVE
TRACK 08 AUDIO
TITLE "(You Caught Me) Smilin'"
PERFORMER "Sly & The Family Stone"
INDEX 01 00:00:00
FILE "09 - Time.wav" WAVE
TRACK 09 AUDIO
TITLE "Time"
PERFORMER "Sly & The Family Stone"
INDEX 01 00:00:00
FILE "10 - Spaced Cowboy.wav" WAVE
TRACK 10 AUDIO
TITLE "Spaced Cowboy"
PERFORMER "Sly & The Family Stone"
INDEX 01 00:00:00
TRACK 11 AUDIO
TITLE "Runnin' Away"
PERFORMER "Sly & The Family Stone"
INDEX 00 03:57:55
FILE "11 - Runnin' Away.wav" WAVE
INDEX 01 00:00:00
FILE "12 - Thank You For Talkin' To Me Africa.wav" WAVE
TRACK 12 AUDIO
TITLE "Thank You For Talkin' To Me Africa"
PERFORMER "Sly & The Family Stone"
INDEX 01 00:00:00
 
Об альбоме (сборнике)
 
1971. Sly & The Family Stone - There's A Riot Goin' On (2013, US)
Страна-производитель диска: US
Год первого выпуска: 1971
Год настоящего издания: 2013
Издатель (лейбл): Get On Down/Epic
Номер по каталогу: GET 9009 CD/88765404332
Format: CD, Album, Reissue
Аудиокодек: FLAC (*.flac)
Тип рипа: image+.cue
Битрейт аудио: lossless
Продолжительность: 00:47:43
Источник (релизер): nnmclub
Наличие сканов в содержимом раздачи: да
Треклист:
01. Luv N' Haight (04:02)
02. Just Like A Baby (05:10)
03. Poet (02:56)
04. Family Affair (03:05)
05. Africa Talks To You "The Asphalt Jungle" (08:44)
06. There's A Riot Goin' On (00:06)
07. Brave & Strong (03:28)
08. (You Caught Me) Smilin' (02:52)
09. Time (03:04)
10. Spaced Cowboy (03:58)
11. Runnin' Away (02:57)
12. Thank You For Talkin' To Me Africa (07:15)
 
Лог создания рипа
Exact Audio Copy V1.0 beta 3 from 29. August 2011
Отчёт EAC об извлечении, выполненном 29. декабря 2015, 14:34
Sly & The Family Stone / There's A Riot Goin' On(24k Gold Djsc)
Дисковод: hp DVD-RAM UJ8B1 Adapter: 0 ID: 0
Режим чтения : Достоверность
Использование точного потока : Да
Отключение кэша аудио : Да
Использование указателей C2 : Нет
Коррекция смещения при чтении : 6
Способность читать области Lead-in и Lead-out : Нет
Заполнение пропущенных сэмплов тишиной : Да
Удаление блоков с тишиной в начале и конце : Нет
При вычислениях CRC использовались нулевые сэмплы : Да
Интерфейс : Встроенный Win32-интерфейс для Win NT/2000
Выходной формат : Пользовательский кодировщик
Выбранный битрейт : 128 kBit/s
Качество : Высокий
Добавление ID3-тега : Нет
Утилита сжатия : C:\Program Files (x86)\Exact Audio Copy\Flac\flac.exe
Дополнительные параметры : -V -8 -T "Date=%year%" -T "Genre=%genre%" %source%
TOC извлечённого CD
Трек | Старт | Длительность | Начальный сектор | Конечный сектор
---------------------------------------------------------------------
1 | 0:00.00 | 4:02.03 | 0 | 18152
2 | 4:02.03 | 5:10.55 | 18153 | 41457
3 | 9:12.58 | 2:56.57 | 41458 | 54714
4 | 12:09.40 | 3:05.17 | 54715 | 68606
5 | 15:14.57 | 8:44.73 | 68607 | 107979
6 | 23:59.55 | 0:06.00 | 107980 | 108429
7 | 24:05.55 | 3:28.74 | 108430 | 124103
8 | 27:34.54 | 2:52.64 | 124104 | 137067
9 | 30:27.43 | 3:04.23 | 137068 | 150890
10 | 33:31.66 | 3:58.19 | 150891 | 168759
11 | 37:30.10 | 2:57.37 | 168760 | 182071
12 | 40:27.47 | 7:15.59 | 182072 | 214755
Характеристики диапазона извлечения и сообщения об ошибках
Выбранный диапазон
Имя файла E:\РАЗДАЧИ\NNM\Sly & The Family Stone - There's A Riot Goin' On\Sly &
The Family Stone - There's A Riot Goin' On(24k Gold Djsc).wav
Пиковый уровень 98.8 %
Скорость извлечения 1.9 X
Качество диапазона 100.0 %
CRC теста B491AEEC
CRC копии B491AEEC
Копирование... OK
Ошибок не произошло
AccurateRip: сводка
Трек 1 отсутствует в базе данных
Трек 2 отсутствует в базе данных
Трек 3 отсутствует в базе данных
Трек 4 отсутствует в базе данных
Трек 5 отсутствует в базе данных
Трек 6 отсутствует в базе данных
Трек 7 отсутствует в базе данных
Трек 8 отсутствует в базе данных
Трек 9 отсутствует в базе данных
Трек 10 отсутствует в базе данных
Трек 11 отсутствует в базе данных
Трек 12 отсутствует в базе данных
Ни одного трека нет в базе AccurateRip
Конец отчёта
==== Контрольная сумма отчёта
1DA1E83ACD431C8D7FFBA8C78F65A5EC02661989F797714E7B1B3A816B802E4B ====
 
Содержание индексной карты (.CUE)
REM GENRE Funk
REM DATE 1971
REM DISCID 970B2F0C
REM COMMENT "ExactAudioCopy v1.0b3"
PERFORMER "Sly & The Family Stone"
TITLE "There's A Riot Goin' On"
FILE "Sly & The Family Stone - There's A Riot Goin' On.flac" WAVE
TRACK 01 AUDIO
TITLE "Luv N' Haight"
PERFORMER "Sly & The Family Stone"
INDEX 01 00:00:00
TRACK 02 AUDIO
TITLE "Just Like A Baby"
PERFORMER "Sly & The Family Stone"
INDEX 01 04:02:03
TRACK 03 AUDIO
TITLE "Poet"
PERFORMER "Sly & The Family Stone"
INDEX 01 09:12:58
TRACK 04 AUDIO
TITLE "Family Affair"
PERFORMER "Sly & The Family Stone"
INDEX 01 12:09:40
TRACK 05 AUDIO
TITLE "Africa Talks To You 'The Asphalt Jungle'"
PERFORMER "Sly & The Family Stone"
INDEX 01 15:14:57
TRACK 06 AUDIO
TITLE "There's A Riot Goin' On"
PERFORMER "Sly & The Family Stone"
INDEX 01 23:59:55
TRACK 07 AUDIO
TITLE "Brave & Strong"
PERFORMER "Sly & The Family Stone"
INDEX 01 24:05:55
TRACK 08 AUDIO
TITLE "(You Caught Me) Smilin'"
PERFORMER "Sly & The Family Stone"
INDEX 01 27:34:54
TRACK 09 AUDIO
TITLE "Time"
PERFORMER "Sly & The Family Stone"
INDEX 01 30:27:43
TRACK 10 AUDIO
TITLE "Spaced Cowboy"
PERFORMER "Sly & The Family Stone"
INDEX 01 33:31:66
TRACK 11 AUDIO
TITLE "Runnin' Away"
PERFORMER "Sly & The Family Stone"
INDEX 01 37:30:10
TRACK 12 AUDIO
TITLE "Thank You For Talkin' To Me Africa"
PERFORMER "Sly & The Family Stone"
INDEX 01 40:27:47
 
1973. Sly & The Family Stone - Fresh {3 издания}
 
1973. Sly & The Family Stone - Fresh (1987, UK)
Страна-производитель диска: UK
Год первого выпуска: 1973
Год настоящего издания: 1987
Издатель (лейбл): Edsel Records
Номер по каталогу: EDCD 232
Format: CD, Album
Аудиокодек: APE (*.ape)
Тип рипа: image+.cue
Битрейт аудио: lossless
Продолжительность: 00:39:50
Источник (релизер): ed2k
Наличие сканов в содержимом раздачи: да
Треклист:
01. In Time (05:48)
02. If You Want Me To Stay (03:01)
03. Let Me Have It All (02:56)
04. Frisky (03:12)
05. Thankful N' Thoughtful (04:41)
06. Skin I'm In (02:55)
07. I Don't Know (Satisfaction) (03:51)
08. Keep On Dancin' (02:23)
09. Que Sera, Sera (Whatever Will Be, Will Be) (05:23)
10. If It Were Left Up To Me (01:56)
11. Babies Makin' Babies (03:38)
 
Лог создания рипа
Exact Audio Copy V0.99 prebeta 5 from 4. May 2009
EAC extraction logfile from 2. February 2010, 16:20
Sly & The Family Stone / Fresh
Used drive : HL-DT-STDVDRAM GSA-T50L Adapter: 2 ID: 0
Read mode : Secure
Utilize accurate stream : Yes
Defeat audio cache : Yes
Make use of C2 pointers : No
Read offset correction : 667
Overread into Lead-In and Lead-Out : No
Fill up missing offset samples with silence : Yes
Delete leading and trailing silent blocks : No
Null samples used in CRC calculations : Yes
Used interface : Native Win32 interface for Win NT & 2000
Used output format : Internal WAV Routines
Sample format : 44.100 Hz; 16 Bit; Stereo
TOC of the extracted CD
Track | Start | Length | Start sector | End sector
---------------------------------------------------------
1 | 0:00.00 | 5:48.62 | 0 | 26161
2 | 5:48.62 | 3:01.08 | 26162 | 39744
3 | 8:49.70 | 2:56.10 | 39745 | 52954
4 | 11:46.05 | 3:12.10 | 52955 | 67364
5 | 14:58.15 | 4:41.35 | 67365 | 88474
6 | 19:39.50 | 2:55.32 | 88475 | 101631
7 | 22:35.07 | 3:51.70 | 101632 | 119026
8 | 26:27.02 | 2:23.60 | 119027 | 129811
9 | 28:50.62 | 5:23.28 | 129812 | 154064
10 | 34:14.15 | 1:56.72 | 154065 | 162836
11 | 36:11.12 | 3:38.63 | 162837 | 179249
Range status and errors
Selected range
Filename C:\Users\minodora\Desktop\Sly & The Family Stone - Fresh.wav
Peak level 99.2 %
Range quality 100.0 %
Copy CRC 0A89F337
Copy OK
No errors occurred
AccurateRip summary
Track 1 accurately ripped (confidence 2) [7DF8A028]
Track 2 accurately ripped (confidence 3) [95B90946]
Track 3 accurately ripped (confidence 3) [8BC5274F]
Track 4 accurately ripped (confidence 3) [DE369D0B]
Track 5 accurately ripped (confidence 3) [C35FCAF0]
Track 6 accurately ripped (confidence 3) [DCE7837C]
Track 7 accurately ripped (confidence 3) [5D00AF8E]
Track 8 accurately ripped (confidence 3) [8807FC72]
Track 9 accurately ripped (confidence 3) [A6FC5860]
Track 10 accurately ripped (confidence 3) [EC0D7E26]
Track 11 accurately ripped (confidence 3) [61A933BD]
All tracks accurately ripped
End of status report
 
Содержание индексной карты (.CUE)
REM GENRE Funk
REM DATE 1973
REM DISCID 8409560B
REM COMMENT "ExactAudioCopy v0.99pb5"
CATALOG 0000000000000
PERFORMER "Sly & The Family Stone"
TITLE "Fresh"
FILE "Sly & The Family Stone - Fresh.wav" WAVE
TRACK 01 AUDIO
TITLE "In Time"
PERFORMER "Sly & The Family Stone"
INDEX 01 00:00:00
TRACK 02 AUDIO
TITLE "If You Want Me To Stay"
PERFORMER "Sly & The Family Stone"
INDEX 00 05:48:25
INDEX 01 05:48:62
TRACK 03 AUDIO
TITLE "Let Me Have It All"
PERFORMER "Sly & The Family Stone"
INDEX 00 08:48:37
INDEX 01 08:49:70
TRACK 04 AUDIO
TITLE "Frisky"
PERFORMER "Sly & The Family Stone"
INDEX 00 11:45:25
INDEX 01 11:46:05
TRACK 05 AUDIO
TITLE "Thankful N' Thoughtful"
PERFORMER "Sly & The Family Stone"
INDEX 00 14:56:70
INDEX 01 14:58:15
TRACK 06 AUDIO
TITLE "Skin I'm In"
PERFORMER "Sly & The Family Stone"
INDEX 00 19:38:37
INDEX 01 19:39:50
TRACK 07 AUDIO
TITLE "I Don't Know (Satisfaction)"
PERFORMER "Sly & The Family Stone"
INDEX 00 22:34:00
INDEX 01 22:35:07
TRACK 08 AUDIO
TITLE "Keep On Dancin'"
PERFORMER "Sly & The Family Stone"
INDEX 00 26:26:25
INDEX 01 26:27:02
TRACK 09 AUDIO
TITLE "Que Sera, Sera (Whatever Will Be, Will Be)"
PERFORMER "Sly & The Family Stone"
INDEX 00 28:49:25
INDEX 01 28:50:62
TRACK 10 AUDIO
TITLE "If It Were Left Up To Me"
PERFORMER "Sly & The Family Stone"
INDEX 00 34:11:70
INDEX 01 34:14:15
TRACK 11 AUDIO
TITLE "Babies Makin' Babies"
PERFORMER "Sly & The Family Stone"
INDEX 01 36:11:12
 
1973. Sly & The Family Stone - Fresh (1991, US)
Страна-производитель диска: US
Год первого выпуска: 1973
Год настоящего издания: 1991
Издатель (лейбл): Epic
Номер по каталогу: EK 32134
Format: CD, Album
Аудиокодек: FLAC (*.flac)
Тип рипа: tracks+.cue
Битрейт аудио: lossless
Продолжительность: 00:39:38
Источник (релизер): What.CD
Наличие сканов в содержимом раздачи: немного
Треклист:
01. In Time (05:45)
02. If You Want Me To Stay (02:39)
03. Let Me Have It All (02:13)
04. Frisky (03:26)
05. Thankful N' Thoughtful (04:49)
06. Skin I'm In (02:45)
07. I Don't Know (Satisfaction) (03:33)
08. Keep On Dancin' (02:42)
09. Que Sera, Sera (Whatever Will Be, Will Be) (05:12)
10. If It Were Left Up To Me (01:55)
11. Babies Makin' Babies (04:19)
 
Лог создания рипа
EAC extraction logfile from 21. November 2006, 11:21 for CD
Sly And The Family Stone / Fresh
Used drive : BENQ DVD DD DW1640 Adapter: 0 ID: 2
Read mode : Secure with NO C2, accurate stream, disable cache
Read offset correction : 618
Overread into Lead-In and Lead-Out : No
Used output format : C:\Programfiler\FLAC\flac.exe (User Defined Encoder)
192 kBit/s
Additional command line options : -V -8 -T "artist=%a" -T"title=%t" -T "album=%g" -T "date=%y" -T "tracknumber=%n" -T "genre=%m" %s
Other options :
Fill up missing offset samples with silence : Yes
Delete leading and trailing silent blocks : No
Native Win32 interface for Win NT & 2000
Track 1
Filename F:\UP\Sly and the Family Stone - Fresh [1973][FLAC]\01 - Sly And The Family Stone - In Time.wav
Pre-gap length 0:00:02.00
Peak level 98.2 %
Track quality 100.0 %
Test CRC B50FAA7D
Copy CRC B50FAA7D
Copy OK
Track 2
Filename F:\UP\Sly and the Family Stone - Fresh [1973][FLAC]\02 - Sly And The Family Stone - If You Want Me To Stay.wav
Pre-gap length 0:00:02.33
Peak level 96.5 %
Track quality 100.0 %
Test CRC AE14FA0A
Copy CRC AE14FA0A
Copy OK
Track 3
Filename F:\UP\Sly and the Family Stone - Fresh [1973][FLAC]\03 - Sly And The Family Stone - Let Me Have It All.wav
Pre-gap length 0:00:01.69
Peak level 92.9 %
Track quality 100.0 %
Test CRC 975DD075
Copy CRC 975DD075
Copy OK
Track 4
Filename F:\UP\Sly and the Family Stone - Fresh [1973][FLAC]\04 - Sly And The Family Stone - Frisky.wav
Pre-gap length 0:00:02.22
Peak level 99.8 %
Track quality 100.0 %
Test CRC 71321E3D
Copy CRC 71321E3D
Copy OK
Track 5
Filename F:\UP\Sly and the Family Stone - Fresh [1973][FLAC]\05 - Sly And The Family Stone - Thankful N' Thoughtful.wav
Peak level 99.9 %
Track quality 100.0 %
Test CRC AC895222
Copy CRC AC895222
Copy OK
Track 6
Filename F:\UP\Sly and the Family Stone - Fresh [1973][FLAC]\06 - Sly And The Family Stone - Skin I'm In.wav
Pre-gap length 0:00:01.89
Peak level 97.7 %
Track quality 100.0 %
Test CRC 85048FD2
Copy CRC 85048FD2
Copy OK
Track 7
Filename F:\UP\Sly and the Family Stone - Fresh [1973][FLAC]\07 - Sly And The Family Stone - I Don't Know (Satisfaction).wav
Pre-gap length 0:00:01.73
Peak level 87.0 %
Track quality 100.0 %
Test CRC 23A895A6
Copy CRC 23A895A6
Copy OK
Track 8
Filename F:\UP\Sly and the Family Stone - Fresh [1973][FLAC]\08 - Sly And The Family Stone - Keep On Dancin'.wav
Pre-gap length 0:00:01.53
Peak level 83.4 %
Track quality 100.0 %
Test CRC 1EC4637A
Copy CRC 1EC4637A
Copy OK
Track 9
Filename F:\UP\Sly and the Family Stone - Fresh [1973][FLAC]\09 - Sly And The Family Stone - Que Sera Sera (Whatever Will Be, Will Be).wav
Pre-gap length 0:00:01.89
Peak level 81.1 %
Track quality 100.0 %
Test CRC B707A624
Copy CRC B707A624
Copy OK
Track 10
Filename F:\UP\Sly and the Family Stone - Fresh [1973][FLAC]\10 - Sly And The Family Stone - If It Were Left Up To Me.wav
Pre-gap length 0:00:02.17
Peak level 96.5 %
Track quality 100.0 %
Test CRC 0760DAB9
Copy CRC 0760DAB9
Copy OK
Track 11
Filename F:\UP\Sly and the Family Stone - Fresh [1973][FLAC]\11 - Sly And The Family Stone - Babies Makin' Babies.wav
Pre-gap length 0:00:01.50
Peak level 94.3 %
Track quality 100.0 %
Test CRC 9363F99B
Copy CRC 9363F99B
Copy OK
No errors occured
End of status report
 
Содержание индексной карты (.CUE)
REM GENRE Jazz+Funk
REM DATE 1973
REM DISCID 70094A0B
REM COMMENT "ExactAudioCopy v0.95b4"
PERFORMER "Sly And The Family Stone"
TITLE "Fresh"
FILE "01 - In Time.wav" WAVE
TRACK 01 AUDIO
TITLE "In Time"
PERFORMER "Sly And The Family Stone"
INDEX 01 00:00:00
TRACK 02 AUDIO
TITLE "If You Want Me To Stay"
PERFORMER "Sly And The Family Stone"
FLAGS DCP
INDEX 00 05:45:55
FILE "02 - If You Want Me To Stay.wav" WAVE
INDEX 01 00:00:00
TRACK 03 AUDIO
TITLE "Let Me Have It All"
PERFORMER "Sly And The Family Stone"
FLAGS DCP
INDEX 00 02:38:65
FILE "03 - Let Me Have It All.wav" WAVE
INDEX 01 00:00:00
TRACK 04 AUDIO
TITLE "Frisky"
PERFORMER "Sly And The Family Stone"
FLAGS DCP
INDEX 00 02:13:33
FILE "04 - Frisky.wav" WAVE
INDEX 01 00:00:00
FILE "05 - Thankful N' Thoughtful.wav" WAVE
TRACK 05 AUDIO
TITLE "Thankful N' Thoughtful"
PERFORMER "Sly And The Family Stone"
FLAGS DCP
INDEX 01 00:00:00
TRACK 06 AUDIO
TITLE "Skin I'm In"
PERFORMER "Sly And The Family Stone"
FLAGS DCP
INDEX 00 04:49:15
FILE "06 - Skin I'm In.wav" WAVE
INDEX 01 00:00:00
TRACK 07 AUDIO
TITLE "I Don't Know (Satisfaction)"
PERFORMER "Sly And The Family Stone"
FLAGS DCP
INDEX 00 02:45:03
FILE "07 - I Don't Know (Satisfaction).wav" WAVE
INDEX 01 00:00:00
TRACK 08 AUDIO
TITLE "Keep On Dancin'"
PERFORMER "Sly And The Family Stone"
FLAGS DCP
INDEX 00 03:33:52
FILE "08 - Keep On Dancin'.wav" WAVE
INDEX 01 00:00:00
TRACK 09 AUDIO
TITLE "Que Sera Sera (Whatever Will Be, Will Be)"
PERFORMER "Sly And The Family Stone"
FLAGS DCP
INDEX 00 02:42:13
FILE "09 - Que Sera Sera (Whatever Will Be, Will Be).wav" WAVE
INDEX 01 00:00:00
TRACK 10 AUDIO
TITLE "If It Were Left Up To Me"
PERFORMER "Sly And The Family Stone"
FLAGS DCP
INDEX 00 05:12:60
FILE "10 - If It Were Left Up To Me.wav" WAVE
INDEX 01 00:00:00
TRACK 11 AUDIO
TITLE "Babies Makin' Babies"
PERFORMER "Sly And The Family Stone"
FLAGS DCP
INDEX 00 01:55:47
FILE "11 - Babies Makin' Babies.wav" WAVE
INDEX 01 00:00:00
 
1973. Sly & The Family Stone - Fresh (1991, Japan)
Страна-производитель диска: Japan
Год первого выпуска: 1973
Год настоящего издания: 1991
Издатель (лейбл): Epic/Sony Records
Номер по каталогу: ESCA 5385
Format: CD, Album, Reissue
Аудиокодек: FLAC (*.flac)
Тип рипа: tracks+.cue
Битрейт аудио: lossless
Продолжительность: 00:39:38
Источник (релизер): What.CD
Наличие сканов в содержимом раздачи: да
Треклист:
01. In Time (05:47)
02. If You Want Me To Stay (02:40)
03. Let Me Have It All (02:15)
04. Frisky (03:25)
05. Thankful N' Thoughtful (04:51)
06. Skin I'm In (02:46)
07. I Don't Know (Satisfaction) (03:35)
08. Keep On Dancin' (02:44)
09. Que Sera, Sera (Whatever Will Be, Will Be) (05:15)
10. If It Were Left Up To Me (01:57)
11. Babies Makin' Babies (04:20)
 
Лог создания рипа
Exact Audio Copy V0.99 prebeta 5 from 4. May 2009
EAC extraction logfile from 25. February 2010, 19:56
Sly & The Family Stone / Fresh
Used drive : TEAC CD-W224E Adapter: 1 ID: 0
Read mode : Secure
Utilize accurate stream : Yes
Defeat audio cache : Yes
Make use of C2 pointers : No
Read offset correction : 685
Overread into Lead-In and Lead-Out : No
Fill up missing offset samples with silence : Yes
Delete leading and trailing silent blocks : No
Null samples used in CRC calculations : Yes
Used interface : Native Win32 interface for Win NT & 2000
Gap handling : Appended to previous track
Used output format : User Defined Encoder
Selected bitrate : 128 kBit/s
Quality : High
Add ID3 tag : No
Command line compressor : C:\Program Files\FLAC\flac.exe
Additional command line options : -8 -V -T "ARTIST=%a" -T "TITLE=%t" -T "ALBUM=%g" -T"DATE=%y" -T "TRACKNUMBER=%n" -T "GENRE=%m" -T "COMMENT=EAC FLAC -8" %s
TOC of the extracted CD
Track | Start | Length | Start sector | End sector
---------------------------------------------------------
1 | 0:00.00 | 5:47.55 | 0 | 26079
2 | 5:47.55 | 2:40.42 | 26080 | 38121
3 | 8:28.22 | 2:15.50 | 38122 | 48296
4 | 10:43.72 | 3:25.10 | 48297 | 63681
5 | 14:09.07 | 4:51.25 | 63682 | 85531
6 | 19:00.32 | 2:46.55 | 85532 | 98036
7 | 21:47.12 | 3:35.20 | 98037 | 114181
8 | 25:22.32 | 2:44.05 | 114182 | 126486
9 | 28:06.37 | 5:15.00 | 126487 | 150111
10 | 33:21.37 | 1:57.10 | 150112 | 158896
11 | 35:18.47 | 4:20.15 | 158897 | 178411
Track 1
Filename C:\konwersja\Sly and The Family Stone - Fresh (1973) [FLAC] {Epic-Sony
Japan ESCA-5385 alternate}\01 - In Time.wav
Pre-gap length 0:00:02.00
Peak level 95.9 %
Track quality 100.0 %
Test CRC 51DBD6A1
Copy CRC 51DBD6A1
Cannot be verified as accurate (confidence 1) [C8163A4F], AccurateRip returned
[5F19529D]
Copy OK
Track 2
Filename C:\konwersja\Sly and The Family Stone - Fresh (1973) [FLAC] {Epic-Sony Japan ESCA-5385 alternate}\02 - If You Want Me To Stay.wav
Pre-gap length 0:00:01.60
Peak level 94.3 %
Track quality 100.0 %
Test CRC 1A5298BA
Copy CRC 1A5298BA
Cannot be verified as accurate (confidence 1) [BB81C566], AccurateRip returned
[A8ED77AC]
Copy OK
Track 3
Filename C:\konwersja\Sly and The Family Stone - Fresh (1973) [FLAC] {Epic-Sony Japan ESCA-5385 alternate}\03 - Let Me Have It All.wav
Pre-gap length 0:00:01.00
Peak level 90.8 %
Track quality 100.0 %
Test CRC 442895D3
Copy CRC 442895D3
Cannot be verified as accurate (confidence 1) [A2E511B1], AccurateRip returned
[F57DFEB7]
Copy OK
Track 4
Filename C:\konwersja\Sly and The Family Stone - Fresh (1973) [FLAC] {Epic-Sony Japan ESCA-5385 alternate}\04 - Frisky.wav
Pre-gap length 0:00:01.22
Peak level 97.5 %
Track quality 100.0 %
Test CRC 700F2388
Copy CRC 700F2388
Cannot be verified as accurate (confidence 1) [0B9433FC], AccurateRip returned
[0215CBA2]
Copy OK
Track 5
Filename C:\konwersja\Sly and The Family Stone - Fresh (1973) [FLAC] {Epic-Sony Japan ESCA-5385 alternate}\05 - Thankful N' Thoughtful.wav
Peak level 97.6 %
Track quality 100.0 %
Test CRC 6B30264B
Copy CRC 6B30264B
Cannot be verified as accurate (confidence 1) [BEFECA11], AccurateRip returned
[4478A7E3]
Copy OK
Track 6
Filename C:\konwersja\Sly and The Family Stone - Fresh (1973) [FLAC] {Epic-Sony Japan ESCA-5385 alternate}\06 - Skin I'm In.wav
Pre-gap length 0:00:01.00
Peak level 95.5 %
Track quality 100.0 %
Test CRC AB009C04
Copy CRC AB009C04
Cannot be verified as accurate (confidence 1) [5CE2DB45], AccurateRip returned
[67ECEFB7]
Copy OK
Track 7
Filename C:\konwersja\Sly and The Family Stone - Fresh (1973) [FLAC] {Epic-Sony Japan ESCA-5385 alternate}\07 - I Don't Know (Satisfaction).wav
Pre-gap length 0:00:01.00
Peak level 85.0 %
Track quality 100.0 %
Test CRC 11D02AFB
Copy CRC 11D02AFB
Cannot be verified as accurate (confidence 1) [EC2FD8E9], AccurateRip returned
[03ACA621]
Copy OK
Track 8
Filename C:\konwersja\Sly and The Family Stone - Fresh (1973) [FLAC] {Epic-Sony Japan ESCA-5385 alternate}\08 - Keep On Dancin'.wav
Pre-gap length 0:00:01.00
Peak level 81.5 %
Track quality 100.0 %
Test CRC D1821783
Copy CRC D1821783
Cannot be verified as accurate (confidence 1) [2E2CF110], AccurateRip returned
[C76077B6]
Copy OK
Track 9
Filename C:\konwersja\Sly and The Family Stone - Fresh (1973) [FLAC] {Epic-Sony Japan ESCA-5385 alternate}\09 - Que Sera, Sera (Whatever Will Be, Will Be).wav
Peak level 79.3 %
Track quality 100.0 %
Test CRC DD3F5E6A
Copy CRC DD3F5E6A
Cannot be verified as accurate (confidence 1) [826FB837], AccurateRip returned
[A6272DC9]
Copy OK
Track 10
Filename C:\konwersja\Sly and The Family Stone - Fresh (1973) [FLAC] {Epic-Sony Japan ESCA-5385 alternate}\10 - If It Were Left Up To Me.wav
Pre-gap length 0:00:01.46
Peak level 94.3 %
Track quality 100.0 %
Test CRC FBF6152E
Copy CRC FBF6152E
Cannot be verified as accurate (confidence 1) [D7A1AD22], AccurateRip returned
[BB1FB6C4]
Copy OK
Track 11
Filename C:\konwersja\Sly and The Family Stone - Fresh (1973) [FLAC] {Epic-Sony Japan ESCA-5385 alternate}\11 - Babies Makin' Babies.wav
Peak level 92.2 %
Track quality 100.0 %
Test CRC EFD92829
Copy CRC EFD92829
Cannot be verified as accurate (confidence 1) [0DF463BD], AccurateRip returned
[0A8FDEE5]
Copy OK
No tracks could be verified as accurate
You may have a different pressing from the one(s) in the database
No errors occurred
End of status report
 
Содержание индексной карты (.CUE)
REM GENRE Funk
REM DATE 1973
REM DISCID 77094A0B
REM COMMENT "ExactAudioCopy v0.99pb5"
PERFORMER "Sly & The Family Stone"
TITLE "Fresh"
FILE "01 - In Time.wav" WAVE
TRACK 01 AUDIO
TITLE "In Time"
PERFORMER "Sly & The Family Stone"
INDEX 01 00:00:00
TRACK 02 AUDIO
TITLE "If You Want Me To Stay"
PERFORMER "Sly & The Family Stone"
INDEX 00 05:46:10
FILE "02 - If You Want Me To Stay.wav" WAVE
INDEX 01 00:00:00
TRACK 03 AUDIO
TITLE "Let Me Have It All"
PERFORMER "Sly & The Family Stone"
INDEX 00 02:39:42
FILE "03 - Let Me Have It All.wav" WAVE
INDEX 01 00:00:00
TRACK 04 AUDIO
TITLE "Frisky"
PERFORMER "Sly & The Family Stone"
INDEX 00 02:14:33
FILE "04 - Frisky.wav" WAVE
INDEX 01 00:00:00
FILE "05 - Thankful N' Thoughtful.wav" WAVE
TRACK 05 AUDIO
TITLE "Thankful N' Thoughtful"
PERFORMER "Sly & The Family Stone"
INDEX 01 00:00:00
TRACK 06 AUDIO
TITLE "Skin I'm In"
PERFORMER "Sly & The Family Stone"
INDEX 00 04:50:25
FILE "06 - Skin I'm In.wav" WAVE
INDEX 01 00:00:00
TRACK 07 AUDIO
TITLE "I Don't Know (Satisfaction)"
PERFORMER "Sly & The Family Stone"
INDEX 00 02:45:55
FILE "07 - I Don't Know (Satisfaction).wav" WAVE
INDEX 01 00:00:00
TRACK 08 AUDIO
TITLE "Keep On Dancin'"
PERFORMER "Sly & The Family Stone"
INDEX 00 03:34:20
FILE "08 - Keep On Dancin'.wav" WAVE
INDEX 01 00:00:00
FILE "09 - Que Sera, Sera (Whatever Will Be, Will Be).wav" WAVE
TRACK 09 AUDIO
TITLE "Que Sera, Sera (Whatever Will Be, Will Be)"
PERFORMER "Sly & The Family Stone"
INDEX 01 00:00:00
TRACK 10 AUDIO
TITLE "If It Were Left Up To Me"
PERFORMER "Sly & The Family Stone"
INDEX 00 05:13:40
FILE "10 - If It Were Left Up To Me.wav" WAVE
INDEX 01 00:00:00
FILE "11 - Babies Makin' Babies.wav" WAVE
TRACK 11 AUDIO
TITLE "Babies Makin' Babies"
PERFORMER "Sly & The Family Stone"
INDEX 01 00:00:00
 
1974. Sly & The Family Stone - Small Talk
Страна-производитель диска: US
Год первого выпуска: 1974
Год настоящего издания: 2007
Издатель (лейбл): Epic/Legacy
Номер по каталогу: 88697 04540 2
Format: CD, Album
Аудиокодек: FLAC (*.flac)
Тип рипа: tracks+.cue
Битрейт аудио: lossless
Продолжительность: 00:49:42
Источник (релизер): What.CD
Наличие сканов в содержимом раздачи: да
Треклист:
01. Small Talk (03:22)
02. Say You Will (03:18)
03. Mother Beautiful (02:01)
04. Time For Livin' (03:17)
05. Can't Strain My Brain (04:09)
06. Loose Booty (03:47)
07. Holdin' On (03:39)
08. Wishful Thinkin' (04:26)
09. Better Thee Than Me (03:35)
10. Livin' While I'm Livin' (02:58)
11. This Is Love (02:54)
Bonus Tracks:
12. Crossword Puzzle (Early Version) (03:47)
13. Time For Livin' (Alternate Version) (03:59)
14. Loose Booty (Alternate Version) (02:05)
15. Positive (Instrumental) (02:14)
 
Лог создания рипа
Exact Audio Copy V1.0 beta 2 from 29. April 2011
EAC extraction logfile from 8. June 2011, 16:46
Sly & The Family Stone / Small Talk
Used drive : HP DVD Writer 1140d Adapter: 2 ID: 0
Read mode : Secure
Utilize accurate stream : Yes
Defeat audio cache : Yes
Make use of C2 pointers : No
Read offset correction : 6
Overread into Lead-In and Lead-Out : No
Fill up missing offset samples with silence : Yes
Delete leading and trailing silent blocks : No
Null samples used in CRC calculations : Yes
Used interface : Native Win32 interface for Win NT & 2000
Gap handling : Appended to previous track
Used output format : User Defined Encoder
Selected bitrate : 1024 kBit/s
Quality : High
Add ID3 tag : No
Command line compressor : C:\Program Files (x86)\Exact Audio Copy\Flac\flac.exe
Additional command line options : -8 -V -T "ARTIST=%artist%" -T "TITLE=%title%" -T"ALBUM=%albumtitle%" -T "DATE=%year%" -T "TRACKNUMBER=%tracknr%" -T "GENRE=%genre%"-T "PERFORMER=%albuminterpret%" -T COMPOSER=%composer%" %haslyrics%--tag-from-
file=LYRICS
TOC of the extracted CD
Track | Start | Length | Start sector | End sector
---------------------------------------------------------
1 | 0:00.00 | 3:22.51 | 0 | 15200
2 | 3:22.51 | 3:18.56 | 15201 | 30106
3 | 6:41.32 | 2:01.12 | 30107 | 39193
4 | 8:42.44 | 3:17.13 | 39194 | 53981
5 | 11:59.57 | 4:09.03 | 53982 | 72659
6 | 16:08.60 | 3:46.49 | 72660 | 89658
7 | 19:55.34 | 3:39.01 | 89659 | 106084
8 | 23:34.35 | 4:25.57 | 106085 | 126016
9 | 28:00.17 | 3:34.63 | 126017 | 142129
10 | 31:35.05 | 2:57.40 | 142130 | 155444
11 | 34:32.45 | 2:58.42 | 155445 | 168836
12 | 37:31.12 | 3:48.53 | 168837 | 185989
13 | 41:19.65 | 4:01.13 | 185990 | 204077
14 | 45:21.03 | 2:06.65 | 204078 | 213592
15 | 47:27.68 | 2:14.66 | 213593 | 223708
Track 1
Filename C:\EAC\Sly & The Family Stone - Small Talk (2007)\01 - Small Talk.wav
Pre-gap length 0:00:02.00
Peak level 88.3 %
Extraction speed 4.7 X
Track quality 100.0 %
Test CRC 9BEB38AC
Copy CRC 9BEB38AC
Accurately ripped (confidence 2) [5A5F6A4F] (AR v2)
Copy OK
Track 2
Filename C:\EAC\Sly & The Family Stone - Small Talk (2007)\02 - Say You Will.wav
Peak level 92.3 %
Extraction speed 5.1 X
Track quality 100.0 %
Test CRC 0AB39AC0
Copy CRC 0AB39AC0
Accurately ripped (confidence 2) [95742B24] (AR v2)
Copy OK
Track 3
Filename C:\EAC\Sly & The Family Stone - Small Talk (2007)\03 - Mother Beautiful.wav
Pre-gap length 0:00:00.22
Peak level 83.7 %
Extraction speed 3.5 X
Track quality 99.9 %
Test CRC 1BD536DF
Copy CRC 1BD536DF
Accurately ripped (confidence 2) [64202C1A] (AR v2)
Copy OK
Track 4
Filename C:\EAC\Sly & The Family Stone - Small Talk (2007)\04 - Time For Livin'.wav
Pre-gap length 0:00:01.22
Peak level 95.4 %
Extraction speed 4.4 X
Track quality 99.9 %
Test CRC 0E43B197
Copy CRC 0E43B197
Accurately ripped (confidence 2) [DE1B0E8B] (AR v2)
Copy OK
Track 5
Filename C:\EAC\Sly & The Family Stone - Small Talk (2007)\05 - Can't Strain My
Brain.wav
Peak level 91.1 %
Extraction speed 6.1 X
Track quality 100.0 %
Test CRC F3548B8B
Copy CRC F3548B8B
Accurately ripped (confidence 2) [7BFC9AAB] (AR v2)
Copy OK
Track 6
Filename C:\EAC\Sly & The Family Stone - Small Talk (2007)\06 - Loose Booty.wav
Pre-gap length 0:00:00.42
Peak level 97.5 %
Extraction speed 6.3 X
Track quality 100.0 %
Test CRC F0C46462
Copy CRC F0C46462
Accurately ripped (confidence 2) [9F9EAFD7] (AR v2)
Copy OK
Track 7
Filename C:\EAC\Sly & The Family Stone - Small Talk (2007)\07 - Holdin' On.wav
Pre-gap length 0:00:00.50
Peak level 100.0 %
Extraction speed 6.7 X
Track quality 100.0 %
Test CRC ED0706A8
Copy CRC ED0706A8
Accurately ripped (confidence 2) [F00B2CC6] (AR v2)
Copy OK
Track 8
Filename C:\EAC\Sly & The Family Stone - Small Talk (2007)\08 - Wishful Thinkin'.wav
Peak level 83.5 %
Extraction speed 7.2 X
Track quality 100.0 %
Test CRC 360185D6
Copy CRC 360185D6
Accurately ripped (confidence 2) [854E5B69] (AR v2)
Copy OK
Track 9
Filename C:\EAC\Sly & The Family Stone - Small Talk (2007)\09 - Better Thee Than Me.wav
Pre-gap length 0:00:01.01
Peak level 86.7 %
Extraction speed 7.2 X
Track quality 100.0 %
Test CRC 305A6622
Copy CRC 305A6622
Accurately ripped (confidence 2) [897219E8] (AR v2)
Copy OK
Track 10
Filename C:\EAC\Sly & The Family Stone - Small Talk (2007)\10 - Living' While I'm Livin'.wav
Peak level 98.1 %
Extraction speed 7.2 X
Track quality 100.0 %
Test CRC 3EE94A9D
Copy CRC 3EE94A9D
Accurately ripped (confidence 2) [77123690] (AR v2)
Copy OK
Track 11
Filename C:\EAC\Sly & The Family Stone - Small Talk (2007)\11 - This Is Love.wav
Peak level 89.0 %
Extraction speed 7.5 X
Track quality 100.0 %
Test CRC 5C9DBC6B
Copy CRC 5C9DBC6B
Accurately ripped (confidence 2) [6BF85E1E] (AR v2)
Copy OK
Track 12
Filename C:\EAC\Sly & The Family Stone - Small Talk (2007)\12 - Crossword Puzzle.wav
Pre-gap length 0:00:04.82
Peak level 100.0 %
Extraction speed 6.4 X
Track quality 99.9 %
Test CRC D355CC52
Copy CRC D355CC52
Accurately ripped (confidence 2) [1F8BE038] (AR v2)
Copy OK
Track 13
Filename C:\EAC\Sly & The Family Stone - Small Talk (2007)\13 - Time For Livin' (alt).wav
Pre-gap length 0:00:01.29
Peak level 96.1 %
Extraction speed 8.2 X
Track quality 100.0 %
Test CRC E657F761
Copy CRC E657F761
Accurately ripped (confidence 2) [A55BC41E] (AR v2)
Copy OK
Track 14
Filename C:\EAC\Sly & The Family Stone - Small Talk (2007)\14 - Loose Booty (alt).wav
Pre-gap length 0:00:01.37
Peak level 86.8 %
Extraction speed 7.1 X
Track quality 100.0 %
Test CRC BE6950C0
Copy CRC BE6950C0
Accurately ripped (confidence 2) [CBBA025B] (AR v2)
Copy OK
Track 15
Filename C:\EAC\Sly & The Family Stone - Small Talk (2007)\15 - Positive (inst).wav
Pre-gap length 0:00:01.57
Peak level 70.2 %
Extraction speed 7.6 X
Track quality 100.0 %
Test CRC 1339B29D
Copy CRC 1339B29D
Accurately ripped (confidence 2) [4D45D7FF] (AR v2)
Copy OK
All tracks accurately ripped
No errors occurred
End of status report
==== Log checksum 091AE5786BFE47EF932D976D9D893C3DAE3ABE3ED60E3CEB60388671A65DD315 ====
 
Содержание индексной карты (.CUE)
REM GENRE R&B
REM DATE 2007
REM DISCID C90BA60F
REM COMMENT "ExactAudioCopy v1.0b2"
PERFORMER "Sly & The Family Stone"
TITLE "Small Talk"
FILE "01 - Small Talk.wav" WAVE
TRACK 01 AUDIO
TITLE "Small Talk"
PERFORMER "Sly & The Family Stone"
ISRC H2KM10107739
INDEX 01 00:00:00
FILE "02 - Say You Will.wav" WAVE
TRACK 02 AUDIO
TITLE "Say You Will"
PERFORMER "Sly & The Family Stone"
ISRC H2KM10107740
INDEX 01 00:00:00
TRACK 03 AUDIO
TITLE "Mother Beautiful"
PERFORMER "Sly & The Family Stone"
ISRC H2KM10107741
INDEX 00 03:18:39
FILE "03 - Mother Beautiful.wav" WAVE
INDEX 01 00:00:00
TRACK 04 AUDIO
TITLE "Time For Livin'"
PERFORMER "Sly & The Family Stone"
ISRC H2KM10107742
INDEX 00 01:59:70
FILE "04 - Time For Livin'.wav" WAVE
INDEX 01 00:00:00
FILE "05 - Can't Strain My Brain.wav" WAVE
TRACK 05 AUDIO
TITLE "Can't Strain My Brain"
PERFORMER "Sly & The Family Stone"
ISRC H2KM10107743
INDEX 01 00:00:00
TRACK 06 AUDIO
TITLE "Loose Booty"
PERFORMER "Sly & The Family Stone"
ISRC H2KM10107744
INDEX 00 04:08:46
FILE "06 - Loose Booty.wav" WAVE
INDEX 01 00:00:00
TRACK 07 AUDIO
TITLE "Holdin' On"
PERFORMER "Sly & The Family Stone"
ISRC H2KM10107745
INDEX 00 03:46:11
FILE "07 - Holdin' On.wav" WAVE
INDEX 01 00:00:00
FILE "08 - Wishful Thinkin'.wav" WAVE
TRACK 08 AUDIO
TITLE "Wishful Thinkin'"
PERFORMER "Sly & The Family Stone"
ISRC H2KM10107746
INDEX 01 00:00:00
TRACK 09 AUDIO
TITLE "Better Thee Than Me"
PERFORMER "Sly & The Family Stone"
ISRC H2KM10107747
INDEX 00 04:24:56
FILE "09 - Better Thee Than Me.wav" WAVE
INDEX 01 00:00:00
FILE "10 - Living' While I'm Livin'.wav" WAVE
TRACK 10 AUDIO
TITLE "Living' While I'm Livin'"
PERFORMER "Sly & The Family Stone"
ISRC H2KM10107748
INDEX 01 00:00:00
FILE "11 - This Is Love.wav" WAVE
TRACK 11 AUDIO
TITLE "This Is Love"
PERFORMER "Sly & The Family Stone"
ISRC H2KM10107749
INDEX 01 00:00:00
TRACK 12 AUDIO
TITLE "Crossword Puzzle"
PERFORMER "Sly & The Family Stone"
ISRC H2KM10607479
INDEX 00 02:53:55
FILE "12 - Crossword Puzzle.wav" WAVE
INDEX 01 00:00:00
TRACK 13 AUDIO
TITLE "Time For Livin' (alt)"
PERFORMER "Sly & The Family Stone"
ISRC H2KM10607480
INDEX 00 03:47:31
FILE "13 - Time For Livin' (alt).wav" WAVE
INDEX 01 00:00:00
TRACK 14 AUDIO
TITLE "Loose Booty (alt)"
PERFORMER "Sly & The Family Stone"
ISRC H2KM10607481
INDEX 00 03:59:60
FILE "14 - Loose Booty (alt).wav" WAVE
INDEX 01 00:00:00
TRACK 15 AUDIO
TITLE "Positive (inst)"
PERFORMER "Sly & The Family Stone"
ISRC H2KM10607482
INDEX 00 02:05:22
FILE "15 - Positive (inst).wav" WAVE
INDEX 01 00:00:00
 
1975. Sly Stone - High On You
Страна-производитель диска: Japan
Год первого выпуска: 1975
Год настоящего издания: April 13, 1995
Издатель (лейбл): Epic/Sony
Номер по каталогу: ESCA 7581
Format: CD, Album
Аудиокодек: FLAC (*.flac)
Тип рипа: tracks+.cue
Битрейт аудио: lossless
Продолжительность: 00:34:47
Источник (релизер): What.CD
Наличие сканов в содержимом раздачи: да
Треклист:
01. I Get High On You (03:15)
02. Crossword Puzzle (02:57)
03. That's Lovin' You (02:58)
04. Who Do You Love? (03:42)
05. Green Eyed Monster Girl (03:55)
06. Organize (03:22)
07. Le Lo Li (03:20)
08. My World (03:36)
09. So Good To Me (03:24)
10. Greed (04:13)
 
Лог создания рипа
Exact Audio Copy V0.99 prebeta 5 from 4. May 2009
EAC extraction logfile from 19. February 2010, 2:51
Sly Stone / High On You
Used drive : Optiarc DVD RW AD-7590S Adapter: 2 ID: 0
Read mode : Secure
Utilize accurate stream : Yes
Defeat audio cache : Yes
Make use of C2 pointers : No
Read offset correction : 48
Overread into Lead-In and Lead-Out : No
Fill up missing offset samples with silence : Yes
Delete leading and trailing silent blocks : No
Null samples used in CRC calculations : Yes
Used interface : Installed external ASPI interface
Gap handling : Appended to previous track
Used output format : User Defined Encoder
Selected bitrate : 768 kBit/s
Quality : High
Add ID3 tag : No
Command line compressor : C:\Program Files\Exact Audio Copy\flac.exe
Additional command line options : -6 -V -T "ARTIST=%a" -T "TITLE=%t" -T "ALBUM=%g" -T"DATE=%y" -T "TRACKNUMBER=%n" -T "GENRE=%m" -T "COMMENT=%e" %s -o %d
TOC of the extracted CD
Track | Start | Length | Start sector | End sector
---------------------------------------------------------
1 | 0:00.00 | 3:15.20 | 0 | 14644
2 | 3:15.20 | 2:57.60 | 14645 | 27979
3 | 6:13.05 | 2:58.07 | 27980 | 41336
4 | 9:11.12 | 3:42.63 | 41337 | 58049
5 | 12:54.00 | 3:55.37 | 58050 | 75711
6 | 16:49.37 | 3:22.25 | 75712 | 90886
7 | 20:11.62 | 3:20.53 | 90887 | 105939
8 | 23:32.40 | 3:36.12 | 105940 | 122151
9 | 27:08.52 | 3:24.65 | 122152 | 137516
10 | 30:33.42 | 4:13.50 | 137517 | 156541
Track 1
Filename C:\Addis Gugsa love your HDD\01 - I Get High On You.wav
Pre-gap length 0:00:02.00
Peak level 70.4 %
Track quality 99.9 %
Test CRC 26AAE7C1
Copy CRC 26AAE7C1
Cannot be verified as accurate (confidence 1) [B730F2FA], AccurateRip returned
[C388193E]
Copy OK
Track 2
Filename C:\Addis Gugsa love your HDD\02 - Crossword Puzzle.wav
Peak level 74.3 %
Track quality 100.0 %
Test CRC 65BFB0FC
Copy CRC 65BFB0FC
Accurately ripped (confidence 1) [F4C6487B]
Copy OK
Track 3
Filename C:\Addis Gugsa love your HDD\03 - That's Lovin' You.wav
Peak level 68.4 %
Track quality 100.0 %
Test CRC 9F3CE1E7
Copy CRC 9F3CE1E7
Accurately ripped (confidence 1) [4BE43E13]
Copy OK
Track 4
Filename C:\Addis Gugsa love your HDD\04 - Who Do You Love .wav
Pre-gap length 0:00:01.82
Peak level 68.5 %
Track quality 99.9 %
Test CRC CBAF3E1E
Copy CRC CBAF3E1E
Accurately ripped (confidence 1) [812916AC]
Copy OK
Track 5
Filename C:\Addis Gugsa love your HDD\05 - Green Eyed Monster Girl.wav
Peak level 73.5 %
Track quality 100.0 %
Test CRC 5DB3316B
Copy CRC 5DB3316B
Accurately ripped (confidence 1) [6C06378A]
Copy OK
Track 6
Filename C:\Addis Gugsa love your HDD\06 - Organize.wav
Pre-gap length 0:00:01.09
Peak level 75.7 %
Track quality 100.0 %
Test CRC C66C57F0
Copy CRC C66C57F0
Cannot be verified as accurate (confidence 1) [7DDD9CA3], AccurateRip returned
[6030A5E7]
Copy OK
Track 7
Filename C:\Addis Gugsa love your HDD\07 - Le Lo Li.wav
Pre-gap length 0:00:01.02
Peak level 60.8 %
Track quality 100.0 %
Test CRC B1638FFC
Copy CRC B1638FFC
Cannot be verified as accurate (confidence 1) [C4BDC6E0], AccurateRip returned
[B0F7E928]
Copy OK
Track 8
Filename C:\Addis Gugsa love your HDD\08 - My World.wav
Peak level 62.6 %
Track quality 99.9 %
Test CRC 93A79B6F
Copy CRC 93A79B6F
Cannot be verified as accurate (confidence 1) [113328A7], AccurateRip returned
[B7EE4559]
Copy OK
Track 9
Filename C:\Addis Gugsa love your HDD\09 - So Good To Me.wav
Pre-gap length 0:00:01.00
Peak level 73.3 %
Track quality 99.9 %
Test CRC 83DC9DCF
Copy CRC 83DC9DCF
Accurately ripped (confidence 1) [1E5D351C]
Copy OK
Track 10
Filename C:\Addis Gugsa love your HDD\10 - Greed.wav
Peak level 75.0 %
Track quality 100.0 %
Test CRC 76282395
Copy CRC 76282395
Accurately ripped (confidence 1) [01E4808B]
Copy OK
6 track(s) accurately ripped
4 track(s) could not be verified as accurate
Some tracks could not be verified as accurate
No errors occurred
End of status report
 
Содержание индексной карты (.CUE)
REM GENRE Funk
REM DATE 1975
REM DISCID 7208270A
REM COMMENT "ExactAudioCopy v0.99pb5"
PERFORMER "Sly Stone"
TITLE "High On You"
FILE "01 - I Get High On You.wav" WAVE
TRACK 01 AUDIO
TITLE "I Get High On You"
PERFORMER "Sly Stone"
INDEX 01 00:00:00
FILE "02 - Crossword Puzzle.wav" WAVE
TRACK 02 AUDIO
TITLE "Crossword Puzzle"
PERFORMER "Sly Stone"
INDEX 01 00:00:00
FILE "03 - That's Lovin' You.wav" WAVE
TRACK 03 AUDIO
TITLE "That's Lovin' You"
PERFORMER "Sly Stone"
INDEX 01 00:00:00
TRACK 04 AUDIO
TITLE "Who Do You Love?"
PERFORMER "Sly Stone"
INDEX 00 02:56:20
FILE "04 - Who Do You Love .wav" WAVE
INDEX 01 00:00:00
FILE "05 - Green Eyed Monster Girl.wav" WAVE
TRACK 05 AUDIO
TITLE "Green Eyed Monster Girl"
PERFORMER "Sly Stone"
INDEX 01 00:00:00
TRACK 06 AUDIO
TITLE "Organize"
PERFORMER "Sly Stone"
INDEX 00 03:54:30
FILE "06 - Organize.wav" WAVE
INDEX 01 00:00:00
TRACK 07 AUDIO
TITLE "Le Lo Li"
PERFORMER "Sly Stone"
INDEX 00 03:21:23
FILE "07 - Le Lo Li.wav" WAVE
INDEX 01 00:00:00
FILE "08 - My World.wav" WAVE
TRACK 08 AUDIO
TITLE "My World"
PERFORMER "Sly Stone"
INDEX 01 00:00:00
TRACK 09 AUDIO
TITLE "So Good To Me"
PERFORMER "Sly Stone"
INDEX 00 03:35:12
FILE "09 - So Good To Me.wav" WAVE
INDEX 01 00:00:00
FILE "10 - Greed.wav" WAVE
TRACK 10 AUDIO
TITLE "Greed"
PERFORMER "Sly Stone"
INDEX 01 00:00:00
Доп. информация: Альбом Слая - High On You 1975 - был аккредитован без всяких там Family Stone, т.е. сольный Слай Стоун.
 
Об альбоме (сборнике)
Приватный:
Нет (DHT включён)
Размер:
7.10 Гб (7,626,264,884 байт) » файлов: 512
Участники:
0 раздают, 1 качают (1 участников всего)
Внешние участники:
7 раздают, 2 качают (9 участников всего) [ Обновить ]
Скорость:
1.08 Мб/c 0/c
No seeders - write a personal message to user M0p94ok. Нет сидеров - пишите личное сообщение пользователю M0p94ok.
11:59
100
Нет комментариев. Ваш будет первым!