Поиск

(Soul) [CD] Gladys Knight & The Pips - Golden Legends - 1999, FLAC (tracks+.cue), lossless

(Soul) [CD] Gladys Knight & The Pips - Golden Legends - 1999, FLAC (tracks+.cue), lossless
Треклист:
Gladys Knight & The Pips / Golden Legends
Жанр: Soul
Носитель: CD
Страна-производитель диска (релиза): Canada
Год издания: 1999
Издатель (лейбл): Direct Source Special Products Inc.
Номер по каталогу: ITEM#GL61382
Аудиокодек: FLAC (*.flac)
Тип рипа: tracks+.cue
Битрейт аудио: lossless
Продолжительность: 0:24:27.
Источник (релизер): clustert
Наличие сканов в содержимом раздачи: да
Треклист:
01. One More Lonely Night [0:02:25.15]
02. Goodnight My Love [0:02:30.05]
03. You Broke Your Promise [0:02:46.50]
04. Operator [0:02:12.60]
05. Jungle Love [0:02:41.60]
06. Every Beat Of My Heart [0:02:04.50]
07. Get A Hold Of Yourself [0:02:59.70]
08. Romm In Your Heart [0:02:02.65]
09. Come See About Me [0:02:45.12]
10. If Ever I Should Fall In Love [0:01:58.38]
 
Лог создания рипа
Exact Audio Copy V1.0 beta 3 from 29. August 2011
Отчёт EAC об извлечении, выполненном 22. сентября 2016, 19:40
Gladys Knight & The Pips / Golden Legends
Дисковод: ASUS DVD-E616A3T Adapter: 5 ID: 0
Режим чтения : Достоверность
Использование точного потока : Да
Отключение кэша аудио : Да
Использование указателей C2 : Нет
Коррекция смещения при чтении : 6
Способность читать области Lead-in и Lead-out : Нет
Заполнение пропущенных сэмплов тишиной : Да
Удаление блоков с тишиной в начале и конце : Нет
При вычислениях CRC использовались нулевые сэмплы : Да
Интерфейс : Встроенный Win32-интерфейс для Win NT/2000
Обработка зазоров : Добавлено к предыдущему треку
Выходной формат : Пользовательский кодировщик
Выбранный битрейт : 128 kBit/s
Качество : Высокий
Добавление ID3-тега : Нет
Утилита сжатия : C:\Program Files\Exact Audio Copy\Flac\flac.exe
Дополнительные параметры : -V -8 -T "Genre=%genre%" -T "Artist=%artist%" -T "Title=%title%" -T "Album=%albumtitle%" -T "Date=%year%" -T "Tracknumber=%tracknr%" -T "Comment=EAC1.0b2 FLAC -8" %source%
TOC извлечённого CD
Трек | Старт | Длительность | Начальный сектор | Конечный сектор
---------------------------------------------------------------------
1 | 0:00.00 | 2:25.15 | 0 | 10889
2 | 2:25.15 | 2:30.05 | 10890 | 22144
3 | 4:55.20 | 2:46.50 | 22145 | 34644
4 | 7:41.70 | 2:12.60 | 34645 | 44604
5 | 9:54.55 | 2:41.60 | 44605 | 56739
6 | 12:36.40 | 2:04.50 | 56740 | 66089
7 | 14:41.15 | 2:59.70 | 66090 | 79584
8 | 17:41.10 | 2:02.65 | 79585 | 88799
9 | 19:44.00 | 2:45.12 | 88800 | 101186
10 | 22:29.12 | 1:58.38 | 101187 | 110074
Трек 1
Имя файла R:\Раздача 67\Gladys Knight & The Pips - 1999 - Golden Legends\01 One More Lonely Night .wav
Длина предзазора 0:00:02.00
Пиковый уровень 82.5 %
Скорость извлечения 1.4 X
Качество трека 100.0 %
CRC теста CA247F5A
CRC копии CA247F5A
Точное извлечение (достоверность 1) [A86E59E8] (AR v1)
Копирование... OK
Трек 2
Имя файла R:\Раздача 67\Gladys Knight & The Pips - 1999 - Golden Legends\02 Goodnight My Love .wav
Пиковый уровень 81.7 %
Скорость извлечения 1.4 X
Качество трека 99.9 %
CRC теста 30D9E9AC
CRC копии 30D9E9AC
Точное извлечение (достоверность 1) [24FC552C] (AR v1)
Копирование... OK
Трек 3
Имя файла R:\Раздача 67\Gladys Knight & The Pips - 1999 - Golden Legends\03 You Broke Your Promise .wav
Пиковый уровень 80.8 %
Скорость извлечения 1.5 X
Качество трека 99.9 %
CRC теста 48840F68
CRC копии 48840F68
Точное извлечение (достоверность 1) [2231103A] (AR v1)
Копирование... OK
Трек 4
Имя файла R:\Раздача 67\Gladys Knight & The Pips - 1999 - Golden Legends\04 Operator .wav
Пиковый уровень 84.7 %
Скорость извлечения 1.4 X
Качество трека 99.9 %
CRC теста 831959E4
CRC копии 831959E4
Точное извлечение (достоверность 1) [195BDDC7] (AR v1)
Копирование... OK
Трек 5
Имя файла R:\Раздача 67\Gladys Knight & The Pips - 1999 - Golden Legends\05 Jungle Love .wav
Пиковый уровень 85.2 %
Скорость извлечения 1.9 X
Качество трека 100.0 %
CRC теста 504BB661
CRC копии 504BB661
Точное извлечение (достоверность 1) [7FEBB838] (AR v1)
Копирование... OK
Трек 6
Имя файла R:\Раздача 67\Gladys Knight & The Pips - 1999 - Golden Legends\06 Every Beat Of My Heart .wav
Пиковый уровень 77.4 %
Скорость извлечения 1.8 X
Качество трека 100.0 %
CRC теста 6ADF1DF0
CRC копии 6ADF1DF0
Точное извлечение (достоверность 1) [721705F0] (AR v1)
Копирование... OK
Трек 7
Имя файла R:\Раздача 67\Gladys Knight & The Pips - 1999 - Golden Legends\07 Get A Hold Of Yourself .wav
Пиковый уровень 70.0 %
Скорость извлечения 1.8 X
Качество трека 99.9 %
CRC теста 6B367EAC
CRC копии 6B367EAC
Точное извлечение (достоверность 1) [A206620C] (AR v1)
Копирование... OK
Трек 8
Имя файла R:\Раздача 67\Gladys Knight & The Pips - 1999 - Golden Legends\08 Romm In Your Heart .wav
Пиковый уровень 70.4 %
Скорость извлечения 1.9 X
Качество трека 100.0 %
CRC теста 8C752EAD
CRC копии 8C752EAD
Точное извлечение (достоверность 1) [300B9F88] (AR v1)
Копирование... OK
Трек 9
Имя файла R:\Раздача 67\Gladys Knight & The Pips - 1999 - Golden Legends\09 Come See About Me .wav
Пиковый уровень 90.4 %
Скорость извлечения 2.2 X
Качество трека 100.0 %
CRC теста 23A82402
CRC копии 23A82402
Точное извлечение (достоверность 1) [686AB27B] (AR v1)
Копирование... OK
Трек 10
Имя файла R:\Раздача 67\Gladys Knight & The Pips - 1999 - Golden Legends\10 If Ever I Should Fall In Love .wav
Пиковый уровень 65.7 %
Скорость извлечения 1.6 X
Качество трека 99.9 %
CRC теста E11D5C4E
CRC копии E11D5C4E
Точное извлечение (достоверность 1) [38B291F1] (AR v1)
Копирование... OK
Все треки извлечены точно
Ошибок не произошло
Конец отчёта
==== Контрольная сумма отчёта E6DCB4DF63624879D6E12B845437A501E08A1D71E7D5DA1DDE87E7A2C9AD6E7D ====
 
Содержание индексной карты (.CUE)
REM GENRE Soul
REM DATE 1999
REM DISCID 8C05BB0A
REM COMMENT "ExactAudioCopy v1.0b3"
PERFORMER "Gladys Knight & The Pips"
TITLE "Golden Legends"
FILE "01 One More Lonely Night .wav" WAVE
TRACK 01 AUDIO
TITLE "One More Lonely Night"
PERFORMER "Gladys Knight & The Pips"
INDEX 01 00:00:00
FILE "02 Goodnight My Love .wav" WAVE
TRACK 02 AUDIO
TITLE "Goodnight My Love"
PERFORMER "Gladys Knight & The Pips"
INDEX 01 00:00:00
FILE "03 You Broke Your Promise .wav" WAVE
TRACK 03 AUDIO
TITLE "You Broke Your Promise"
PERFORMER "Gladys Knight & The Pips"
INDEX 01 00:00:00
FILE "04 Operator .wav" WAVE
TRACK 04 AUDIO
TITLE "Operator"
PERFORMER "Gladys Knight & The Pips"
INDEX 01 00:00:00
FILE "05 Jungle Love .wav" WAVE
TRACK 05 AUDIO
TITLE "Jungle Love"
PERFORMER "Gladys Knight & The Pips"
INDEX 01 00:00:00
FILE "06 Every Beat Of My Heart .wav" WAVE
TRACK 06 AUDIO
TITLE "Every Beat Of My Heart"
PERFORMER "Gladys Knight & The Pips"
INDEX 01 00:00:00
FILE "07 Get A Hold Of Yourself .wav" WAVE
TRACK 07 AUDIO
TITLE "Get A Hold Of Yourself"
PERFORMER "Gladys Knight & The Pips"
INDEX 01 00:00:00
FILE "08 Romm In Your Heart .wav" WAVE
TRACK 08 AUDIO
TITLE "Romm In Your Heart"
PERFORMER "Gladys Knight & The Pips"
INDEX 01 00:00:00
FILE "09 Come See About Me .wav" WAVE
TRACK 09 AUDIO
TITLE "Come See About Me"
PERFORMER "Gladys Knight & The Pips"
INDEX 01 00:00:00
FILE "10 If Ever I Should Fall In Love .wav" WAVE
TRACK 10 AUDIO
TITLE "If Ever I Should Fall In Love"
PERFORMER "Gladys Knight & The Pips"
INDEX 01 00:00:00
Приватный:
Нет (DHT включён)
Размер:
131.26 Мб (137,631,475 байт) » файлов: 19
Участники:
0 раздают, 0 качают (0 участников всего)
Внешние участники:
3 раздают, 1 качают (4 участников всего) [ Обновить ]
Есть вопросы - пишите личное сообщение пользователю M0p94ok.
11:59
54
Нет комментариев. Ваш будет первым!