Поиск

(Soul, R&B) [CD] James Brown - James Brown Sings Raw Soul (1967) - 2003 {Polydor Japan, UICY-9288}, FLAC (tracks+.cue), lossless

(Soul, R&B) [CD] James Brown - James Brown Sings Raw Soul (1967) - 2003 {Polydor Japan, UICY-9288}, FLAC (tracks+.cue), lossless
Треклист:
James Brown - James Brown Sings Raw Soul (1967) Жанр: Soul, R&B
Носитель: CD
Страна-производитель диска: Japan
Год издания: 2003
Издатель (лейбл): Polydor Japan
Номер по каталогу: UICY-9288
Аудиокодек: FLAC (*.flac)
Тип рипа: tracks+.cue
Битрейт аудио: lossless
Продолжительность: 34:31
Источник (релизер): TestTickles
Наличие сканов в содержимом раздачи: да
Треклист:
01. Bring It Up (2:48)
02. Don't Be A Dropout (3:44)
03. Till Then (2:42)
04. Tell Me That You Love Me (1:44)
05. Yours And Mine (3:11)
06. Money Won't Change You, Part 1 (2:49)
07. Money Won't Change You, Part 2 (2:27)
08. Only You (2:50)
09. Let Yourself Go (2:58)
10. The Nearness Of You (3:09)
11. Nobody Knows (3:22)
12. Stone Fox (2:46)
 
 
Лог создания рипа
EAC extraction logfile from 26. March 2007, 18:33 for CD
James Brown / Raw Soul
Used drive : SONY CDRWDVD CRX310S Adapter: 0 ID: 1
Read mode : Secure with NO C2, accurate stream, disable cache
Read offset correction : 6
Overread into Lead-In and Lead-Out : No
Used output format : C:\Program Files\Exact Audio Copy\Compressors\FLAC\flac.exe (User Defined Encoder)
192 kBit/s
Additional command line options : -8 -V -T "artist=%a" -T "title=%t" -T "album=%g" -T "date=%y" -T "tracknumber=%n" -T "genre=%m" -T "comment=EAC 0.95 b4 secure / FLAC 1.1.3b q8" %s
Other options :
Fill up missing offset samples with silence : Yes
Delete leading and trailing silent blocks : No
Native Win32 interface for Win NT & 2000
Track 1
Filename K:\New Rips\James Brown - Raw Soul (1967) [FLAC] {2003 Polydor}\01 - Bring It Up.wav
Pre-gap length 0:00:02.00
Peak level 100.0 %
Track quality 100.0 %
Test CRC CEAE9FC7
Copy CRC CEAE9FC7
Copy OK
Track 2
Filename K:\New Rips\James Brown - Raw Soul (1967) [FLAC] {2003 Polydor}\02 - Don't Be A Dropout.wav
Pre-gap length 0:00:02.84
Peak level 85.1 %
Track quality 99.9 %
Test CRC ED5CF781
Copy CRC ED5CF781
Copy OK
Track 3
Filename K:\New Rips\James Brown - Raw Soul (1967) [FLAC] {2003 Polydor}\03 - Till Then.wav
Pre-gap length 0:00:02.80
Peak level 84.6 %
Track quality 100.0 %
Test CRC 2E246971
Copy CRC 2E246971
Copy OK
Track 4
Filename K:\New Rips\James Brown - Raw Soul (1967) [FLAC] {2003 Polydor}\04 - Tell Me That You Love Me.wav
Pre-gap length 0:00:02.77
Peak level 75.2 %
Track quality 100.0 %
Test CRC 9889D74F
Copy CRC 9889D74F
Copy OK
Track 5
Filename K:\New Rips\James Brown - Raw Soul (1967) [FLAC] {2003 Polydor}\05 - Yours And Mine.wav
Pre-gap length 0:00:02.76
Peak level 100.0 %
Track quality 100.0 %
Test CRC 8FBFF499
Copy CRC 8FBFF499
Copy OK
Track 6
Filename K:\New Rips\James Brown - Raw Soul (1967) [FLAC] {2003 Polydor}\06 - Money Won't Change You, Part 1.wav
Pre-gap length 0:00:02.82
Peak level 88.3 %
Track quality 100.0 %
Test CRC 2854AC2B
Copy CRC 2854AC2B
Copy OK
Track 7
Filename K:\New Rips\James Brown - Raw Soul (1967) [FLAC] {2003 Polydor}\07 - Money Won't Change You, Part 2.wav
Pre-gap length 0:00:02.80
Peak level 87.3 %
Track quality 100.0 %
Test CRC BBF3AC62
Copy CRC BBF3AC62
Copy OK
Track 8
Filename K:\New Rips\James Brown - Raw Soul (1967) [FLAC] {2003 Polydor}\08 - Only You.wav
Pre-gap length 0:00:02.80
Peak level 70.8 %
Track quality 100.0 %
Test CRC 27063E09
Copy CRC 27063E09
Copy OK
Track 9
Filename K:\New Rips\James Brown - Raw Soul (1967) [FLAC] {2003 Polydor}\09 - Let Yourself Go.wav
Pre-gap length 0:00:02.82
Peak level 98.4 %
Track quality 100.0 %
Test CRC 310B0EEE
Copy CRC 310B0EEE
Copy OK
Track 10
Filename K:\New Rips\James Brown - Raw Soul (1967) [FLAC] {2003 Polydor}\10 - The Nearness Of You.wav
Pre-gap length 0:00:02.76
Peak level 78.7 %
Track quality 100.0 %
Test CRC 94A714A0
Copy CRC 94A714A0
Copy OK
Track 11
Filename K:\New Rips\James Brown - Raw Soul (1967) [FLAC] {2003 Polydor}\11 - Nobody Knows.wav
Pre-gap length 0:00:02.80
Peak level 90.9 %
Track quality 100.0 %
Test CRC 65759020
Copy CRC 65759020
Copy OK
Track 12
Filename K:\New Rips\James Brown - Raw Soul (1967) [FLAC] {2003 Polydor}\12 - Stone Fox.wav
Pre-gap length 0:00:02.73
Peak level 100.0 %
Track quality 100.0 %
Test CRC 357A2883
Copy CRC 357A2883
Copy OK
No errors occured
End of status report
 
Содержание индексной карты (.CUE)
REM GENRE Soul
REM DATE 1967
REM DISCID 9908160C
REM COMMENT "ExactAudioCopy v0.95b4"
PERFORMER "James Brown"
TITLE "Raw Soul"
FILE "01 - Bring It Up.wav" WAVE
TRACK 01 AUDIO
TITLE "Bring It Up"
PERFORMER "James Brown"
INDEX 01 00:00:00
TRACK 02 AUDIO
TITLE "Don't Be A Dropout"
PERFORMER "James Brown"
INDEX 00 02:45:07
FILE "02 - Don't Be A Dropout.wav" WAVE
INDEX 01 00:00:00
TRACK 03 AUDIO
TITLE "Till Then"
PERFORMER "James Brown"
INDEX 00 03:40:72
FILE "03 - Till Then.wav" WAVE
INDEX 01 00:00:00
TRACK 04 AUDIO
TITLE "Tell Me That You Love Me"
PERFORMER "James Brown"
INDEX 00 02:39:10
FILE "04 - Tell Me That You Love Me.wav" WAVE
INDEX 01 00:00:00
TRACK 05 AUDIO
TITLE "Yours And Mine"
PERFORMER "James Brown"
INDEX 00 01:40:65
FILE "05 - Yours And Mine.wav" WAVE
INDEX 01 00:00:00
TRACK 06 AUDIO
TITLE "Money Won't Change You, Part 1"
PERFORMER "James Brown"
INDEX 00 03:08:38
FILE "06 - Money Won't Change You, Part 1.wav" WAVE
INDEX 01 00:00:00
TRACK 07 AUDIO
TITLE "Money Won't Change You, Part 2"
PERFORMER "James Brown"
INDEX 00 02:46:48
FILE "07 - Money Won't Change You, Part 2.wav" WAVE
INDEX 01 00:00:00
TRACK 08 AUDIO
TITLE "Only You"
PERFORMER "James Brown"
INDEX 00 02:24:42
FILE "08 - Only You.wav" WAVE
INDEX 01 00:00:00
TRACK 09 AUDIO
TITLE "Let Yourself Go"
PERFORMER "James Brown"
INDEX 00 02:47:43
FILE "09 - Let Yourself Go.wav" WAVE
INDEX 01 00:00:00
TRACK 10 AUDIO
TITLE "The Nearness Of You"
PERFORMER "James Brown"
INDEX 00 02:55:23
FILE "10 - The Nearness Of You.wav" WAVE
INDEX 01 00:00:00
TRACK 11 AUDIO
TITLE "Nobody Knows"
PERFORMER "James Brown"
INDEX 00 03:06:25
FILE "11 - Nobody Knows.wav" WAVE
INDEX 01 00:00:00
TRACK 12 AUDIO
TITLE "Stone Fox"
PERFORMER "James Brown"
INDEX 00 03:19:08
FILE "12 - Stone Fox.wav" WAVE
INDEX 01 00:00:00
Приватный:
Нет (DHT включён)
Размер:
213.70 Мб (224,077,801 байт) » файлов: 25
Участники:
0 раздают, 0 качают (0 участников всего)
Внешние участники:
2 раздают, 1 качают (3 участников всего) [ Обновить ]
No seeders - write a personal message to user M0p94ok. Нет сидеров - пишите личное сообщение пользователю M0p94ok.
10:49
104
Нет комментариев. Ваш будет первым!