Поиск

(Soul, R&B) [CD] James Brown - Live At The Apollo Volume II (2CD) (Deluxe Edition) - 2001, FLAC (tracks+.cue), lossless

(Soul, R&B) [CD] James Brown - Live At The Apollo Volume II (2CD) (Deluxe Edition) - 2001, FLAC (tracks+.cue), lossless
Треклист:
James Brown - Live At The Apollo Volume II (2CD) (Deluxe Edition) Жанр: Soul, R&B
Носитель: CD
Год издания: 2001
Издатель (лейбл): Polydor/Universal
Номер по каталогу: 549 884-2
Аудиокодек: FLAC (*.flac)
Тип рипа: tracks+.cue
Битрейт аудио: lossless
Продолжительность: /
Источник (релизер): TestTickles
Наличие сканов в содержимом раздачи: да
Disc 1 (42:10)

01. Introduction To The James Brown Show (MC Frankie Crocker) (0:32)
02. Think (2:55)
03. I Wanna Be Around (James Brown with Marva Whitney) (3:11)
04. James Brown (Thanks) (1:51)
05. That's Life (4:40)
06. Kansas City (3:53)
07. Sweet Soul Music (Bobby Byrd) (2:38)
08. It's A Man's Man's Man's World (19:12)
09. Caravan (The James Brown Band featuring The J.B. Dancers) (3:19)
 
 
 
 
 
Disc 2 (55:10)

01. Introduction To 'Startime' (Frankie Crocker with Sad Sam)(4:52)
02. Money Won't Change You, Out Of Sight (0:43)
03. Bring It Up (4:40)
04. Try Me (3:13)
05. Let Yourself Go (1:42)
06. There Was A Time (8:53)
07. I Feel All Right (7:05)
08. Cold Sweat (6:02)
09. Prisoner Of Love (8:17)
10. My Girl (Instrumental Interlude) (0:23)
11. Maybe The Last Time (4:36)
12. I Got You (I Feel Good) (0:29)
13. Please, Please, Please (3:02)
14. Bring It Up (Finale) (1:13)
Rec.: Live At The Apollo Theater, NYC, NY, June 24 & 25, 1967.
 
 
Disc 1
 
Лог создания рипа
EAC extraction logfile from 16. May 2007, 5:24 for CD
James Brown / Live At The Apollo Volume II (Deluxe Edition) (Disc 1)
Used drive : LITE-ON DVDRW SOHW-1633S Adapter: 0 ID: 0
Read mode : Secure with NO C2, accurate stream, disable cache
Read offset correction : 12
Overread into Lead-In and Lead-Out : No
Used output format : Internal WAV Routines
44.100 Hz; 16 Bit; Stereo
Other options :
Fill up missing offset samples with silence : Yes
Delete leading and trailing silent blocks : No
Installed external ASPI interface
Track 1
Filename D:\FLAC\James Brown - Live At The Apollo Volume II (1968) [FLAC] {2001 Deluxe Edition}\Disc 1\01 - Introduction To The James Brown Show.wav
Pre-gap length 0:00:02.00
Peak level 89.4 %
Track quality 100.0 %
Test CRC 0DCA7798
Copy CRC 0DCA7798
Copy OK
Track 2
Filename D:\FLAC\James Brown - Live At The Apollo Volume II (1968) [FLAC] {2001 Deluxe Edition}\Disc 1\02 - Think.wav
Pre-gap length 0:00:00.02
Peak level 99.9 %
Track quality 100.0 %
Test CRC 9C45FBBE
Copy CRC 9C45FBBE
Copy OK
Track 3
Filename D:\FLAC\James Brown - Live At The Apollo Volume II (1968) [FLAC] {2001 Deluxe Edition}\Disc 1\03 - I Wanna Be Around.wav
Pre-gap length 0:00:00.02
Peak level 93.0 %
Track quality 99.9 %
Test CRC 291F7AC1
Copy CRC 291F7AC1
Copy OK
Track 4
Filename D:\FLAC\James Brown - Live At The Apollo Volume II (1968) [FLAC] {2001 Deluxe Edition}\Disc 1\04 - James Brown (Thanks).wav
Pre-gap length 0:00:00.13
Peak level 69.1 %
Track quality 100.0 %
Test CRC 1BA18622
Copy CRC 1BA18622
Copy OK
Track 5
Filename D:\FLAC\James Brown - Live At The Apollo Volume II (1968) [FLAC] {2001 Deluxe Edition}\Disc 1\05 - That's Life.wav
Pre-gap length 0:00:00.06
Peak level 92.8 %
Track quality 100.0 %
Test CRC 47683BD0
Copy CRC 47683BD0
Copy OK
Track 6
Filename D:\FLAC\James Brown - Live At The Apollo Volume II (1968) [FLAC] {2001 Deluxe Edition}\Disc 1\06 - Kansas City.wav
Pre-gap length 0:00:00.06
Peak level 100.0 %
Track quality 100.0 %
Test CRC 4C6E2087
Copy CRC 4C6E2087
Copy OK
Track 7
Filename D:\FLAC\James Brown - Live At The Apollo Volume II (1968) [FLAC] {2001 Deluxe Edition}\Disc 1\07 - Sweet Soul Music.wav
Pre-gap length 0:00:00.06
Peak level 100.0 %
Track quality 100.0 %
Test CRC CB6E83E8
Copy CRC CB6E83E8
Copy OK
Track 8
Filename D:\FLAC\James Brown - Live At The Apollo Volume II (1968) [FLAC] {2001 Deluxe Edition}\Disc 1\08 - It's A Man's Man's Man's World.wav
Pre-gap length 0:00:00.10
Peak level 100.0 %
Track quality 99.9 %
Test CRC 6753BCE0
Copy CRC 6753BCE0
Copy OK
Track 9
Filename D:\FLAC\James Brown - Live At The Apollo Volume II (1968) [FLAC] {2001 Deluxe Edition}\Disc 1\09 - Caravan.wav
Pre-gap length 0:00:00.06
Peak level 97.7 %
Track quality 100.0 %
Test CRC 15E65168
Copy CRC 15E65168
Copy OK
No errors occured
End of status report
 
Содержание индексной карты (.CUE)
PERFORMER "Various"
TITLE "Live At The Apollo Volume II (Deluxe Edition) (Disc 1)"
FILE "01 - Introduction To The James Brown Show.wav" WAVE
TRACK 01 AUDIO
TITLE "Introduction To The James Brown Show"
PERFORMER "MC Frankie Crocker"
INDEX 01 00:00:00
TRACK 02 AUDIO
TITLE "Think"
PERFORMER "James Brown with Martha Whitney"
INDEX 00 00:31:65
FILE "02 - Think.wav" WAVE
INDEX 01 00:00:00
TRACK 03 AUDIO
TITLE "I Wanna Be Around"
PERFORMER "James Brown"
INDEX 00 02:54:73
FILE "03 - I Wanna Be Around.wav" WAVE
INDEX 01 00:00:00
TRACK 04 AUDIO
TITLE "James Brown (Thanks)"
PERFORMER "James Brown"
INDEX 00 03:11:05
FILE "04 - James Brown (Thanks).wav" WAVE
INDEX 01 00:00:00
TRACK 05 AUDIO
TITLE "That's Life"
PERFORMER "James Brown"
INDEX 00 01:51:03
FILE "05 - That's Life.wav" WAVE
INDEX 01 00:00:00
TRACK 06 AUDIO
TITLE "Kansas City"
PERFORMER "James Brown"
INDEX 00 04:40:05
FILE "06 - Kansas City.wav" WAVE
INDEX 01 00:00:00
TRACK 07 AUDIO
TITLE "Sweet Soul Music"
PERFORMER "Bobby Byrd"
INDEX 00 03:52:60
FILE "07 - Sweet Soul Music.wav" WAVE
INDEX 01 00:00:00
TRACK 08 AUDIO
TITLE "It's A Man's Man's Man's World"
PERFORMER "James Brown"
INDEX 00 02:37:32
FILE "08 - It's A Man's Man's Man's World.wav" WAVE
INDEX 01 00:00:00
TRACK 09 AUDIO
TITLE "Caravan"
PERFORMER "The James Brown Band Featuring The J.B. Dancers"
INDEX 00 19:11:37
FILE "09 - Caravan.wav" WAVE
INDEX 01 00:00:00
 
Disc 2
 
Лог создания рипа
EAC extraction logfile from 16. May 2007, 9:16 for CD
James Brown / Live At The Apollo Volume II (Deluxe Edition) (Disc 2)
Used drive : PHILIPS CDRW/DVD SCB5265 Adapter: 0 ID: 1
Read mode : Secure with NO C2, accurate stream, disable cache
Read offset correction : 6
Overread into Lead-In and Lead-Out : No
Used output format : Internal WAV Routines
44.100 Hz; 16 Bit; Stereo
Other options :
Fill up missing offset samples with silence : Yes
Delete leading and trailing silent blocks : No
Native Win32 interface for Win NT & 2000
Track 1
Filename D:\FLAC\James Brown - Live At The Apollo Volume II (1968) [FLAC] {2001 Deluxe Edition}\Disc 2\01 - Introduction To 'Startime'.wav
Pre-gap length 0:04:20.00
Peak level 100.0 %
Track quality 99.7 %
Test CRC E0FFE443
Copy CRC E0FFE443
Copy OK
Track 2
Filename D:\FLAC\James Brown - Live At The Apollo Volume II (1968) [FLAC] {2001 Deluxe Edition}\Disc 2\02 - Money Won't Change You, Out Of Sight.wav
Pre-gap length 0:00:00.05
Peak level 99.9 %
Track quality 100.0 %
Test CRC DDEB8353
Copy CRC DDEB8353
Copy OK
Track 3
Filename D:\FLAC\James Brown - Live At The Apollo Volume II (1968) [FLAC] {2001 Deluxe Edition}\Disc 2\03 - Bring It Up.wav
Pre-gap length 0:00:00.05
Peak level 100.0 %
Track quality 100.0 %
Test CRC 4228C7FB
Copy CRC 4228C7FB
Copy OK
Track 4
Filename D:\FLAC\James Brown - Live At The Apollo Volume II (1968) [FLAC] {2001 Deluxe Edition}\Disc 2\04 - Try Me.wav
Peak level 100.0 %
Track quality 99.9 %
Test CRC 4A6337AE
Copy CRC 4A6337AE
Copy OK
Track 5
Filename D:\FLAC\James Brown - Live At The Apollo Volume II (1968) [FLAC] {2001 Deluxe Edition}\Disc 2\05 - Let Yourself Go.wav
Pre-gap length 0:00:00.05
Peak level 100.0 %
Track quality 100.0 %
Test CRC 408BD14C
Copy CRC 408BD14C
Copy OK
Track 6
Filename D:\FLAC\James Brown - Live At The Apollo Volume II (1968) [FLAC] {2001 Deluxe Edition}\Disc 2\06 - There Was A Time.wav
Pre-gap length 0:00:00.05
Peak level 100.0 %
Track quality 100.0 %
Test CRC 4CB45B8E
Copy CRC 4CB45B8E
Copy OK
Track 7
Filename D:\FLAC\James Brown - Live At The Apollo Volume II (1968) [FLAC] {2001 Deluxe Edition}\Disc 2\07 - I Feel All Right.wav
Pre-gap length 0:00:00.05
Peak level 100.0 %
Track quality 100.0 %
Test CRC CEA4DB6F
Copy CRC CEA4DB6F
Copy OK
Track 8
Filename D:\FLAC\James Brown - Live At The Apollo Volume II (1968) [FLAC] {2001 Deluxe Edition}\Disc 2\08 - Cold Sweat.wav
Pre-gap length 0:00:00.05
Peak level 100.0 %
Track quality 100.0 %
Test CRC FAE0F3CA
Copy CRC FAE0F3CA
Copy OK
Track 9
Filename D:\FLAC\James Brown - Live At The Apollo Volume II (1968) [FLAC] {2001 Deluxe Edition}\Disc 2\09 - Prisoner Of Love.wav
Pre-gap length 0:00:00.05
Peak level 100.0 %
Track quality 99.9 %
Test CRC B774E2D6
Copy CRC B774E2D6
Copy OK
Track 10
Filename D:\FLAC\James Brown - Live At The Apollo Volume II (1968) [FLAC] {2001 Deluxe Edition}\Disc 2\10 - My Girl (Instrumental Interlude).wav
Pre-gap length 0:00:00.05
Peak level 88.3 %
Track quality 100.0 %
Test CRC 2C358B26
Copy CRC 2C358B26
Copy OK
Track 11
Filename D:\FLAC\James Brown - Live At The Apollo Volume II (1968) [FLAC] {2001 Deluxe Edition}\Disc 2\11 - Maybe The Last Time.wav
Pre-gap length 0:00:00.05
Peak level 100.0 %
Track quality 100.0 %
Test CRC 957FC505
Copy CRC 957FC505
Copy OK
Track 12
Filename D:\FLAC\James Brown - Live At The Apollo Volume II (1968) [FLAC] {2001 Deluxe Edition}\Disc 2\12 - I Got You (I Feel Good).wav
Pre-gap length 0:00:00.05
Peak level 99.9 %
Track quality 99.6 %
Test CRC 33DA4F54
Copy CRC 33DA4F54
Copy OK
Track 13
Filename D:\FLAC\James Brown - Live At The Apollo Volume II (1968) [FLAC] {2001 Deluxe Edition}\Disc 2\13 - Please, Please, Please.wav
Pre-gap length 0:00:00.05
Peak level 100.0 %
Track quality 100.0 %
Test CRC DE851E85
Copy CRC DE851E85
Copy OK
Track 14
Filename D:\FLAC\James Brown - Live At The Apollo Volume II (1968) [FLAC] {2001 Deluxe Edition}\Disc 2\14 - Bring It Up (Finale).wav
Pre-gap length 0:00:00.05
Peak level 99.2 %
Track quality 100.0 %
Test CRC F3CCB5C7
Copy CRC F3CCB5C7
Copy OK
No errors occured
End of status report
 
Содержание индексной карты (.CUE)
PERFORMER "Various"
TITLE "Live At The Apollo Volume II (Deluxe Edition) (Disc 2)"
FILE "01 - Introduction To 'Startime'.wav" WAVE
TRACK 01 AUDIO
TITLE "Introduction To 'Startime'"
PERFORMER "Frankie Crocker With Sad Sam"
PREGAP 04:18:00
INDEX 01 00:00:00
TRACK 02 AUDIO
TITLE "Money Won't Change You, Out Of Sight"
PERFORMER "James Brown"
INDEX 00 00:34:25
FILE "02 - Money Won't Change You, Out Of Sight.wav" WAVE
INDEX 01 00:00:00
TRACK 03 AUDIO
TITLE "Bring It Up"
PERFORMER "James Brown"
INDEX 00 00:42:60
FILE "03 - Bring It Up.wav" WAVE
INDEX 01 00:00:00
FILE "04 - Try Me.wav" WAVE
TRACK 04 AUDIO
TITLE "Try Me"
PERFORMER "James Brown"
INDEX 01 00:00:00
FILE "05 - Let Yourself Go.wav" WAVE
TRACK 05 AUDIO
TITLE "Let Yourself Go"
PERFORMER "James Brown"
INDEX 01 00:00:00
TRACK 06 AUDIO
TITLE "There Was A Time"
PERFORMER "James Brown"
INDEX 00 01:42:30
FILE "06 - There Was A Time.wav" WAVE
INDEX 01 00:00:00
TRACK 07 AUDIO
TITLE "I Feel All Right"
PERFORMER "James Brown"
INDEX 00 08:52:60
FILE "07 - I Feel All Right.wav" WAVE
INDEX 01 00:00:00
TRACK 08 AUDIO
TITLE "Cold Sweat"
PERFORMER "James Brown"
INDEX 00 07:05:15
FILE "08 - Cold Sweat.wav" WAVE
INDEX 01 00:00:00
TRACK 09 AUDIO
TITLE "Prisoner Of Love"
PERFORMER "James Brown"
INDEX 00 06:02:30
FILE "09 - Prisoner Of Love.wav" WAVE
INDEX 01 00:00:00
TRACK 10 AUDIO
TITLE "My Girl (Instrumental Interlude)"
PERFORMER "James Brown"
INDEX 00 08:16:50
FILE "10 - My Girl (Instrumental Interlude).wav" WAVE
INDEX 01 00:00:00
TRACK 11 AUDIO
TITLE "Maybe The Last Time"
PERFORMER "James Brown"
INDEX 00 00:22:70
FILE "11 - Maybe The Last Time.wav" WAVE
INDEX 01 00:00:00
TRACK 12 AUDIO
TITLE "I Got You (I Feel Good)"
PERFORMER "James Brown"
INDEX 00 04:35:70
FILE "12 - I Got You (I Feel Good).wav" WAVE
INDEX 01 00:00:00
TRACK 13 AUDIO
TITLE "Please, Please, Please"
PERFORMER "James Brown"
INDEX 00 00:28:35
FILE "13 - Please, Please, Please.wav" WAVE
INDEX 01 00:00:00
TRACK 14 AUDIO
TITLE "Bring It Up (Finale)"
PERFORMER "James Brown"
INDEX 00 03:01:35
FILE "14 - Bring It Up (Finale).wav" WAVE
INDEX 01 00:00:00
Приватный:
Нет (DHT включён)
Размер:
689.60 Мб (723,094,976 байт) » файлов: 55
Участники:
0 раздают, 0 качают (0 участников всего)
Внешние участники:
5 раздают, 2 качают (7 участников всего) [ Обновить ]
Есть вопросы - пишите личное сообщение пользователю M0p94ok.
10:50
94
Нет комментариев. Ваш будет первым!