Поиск

(Soul) [CD] Tyrone Davis - Everything In Place (1981) - 2014, FLAC (tracks+.cue), lossless

(Soul) [CD] Tyrone Davis - Everything In Place (1981) - 2014, FLAC (tracks+.cue), lossless
Треклист:
Tyrone Davis - Everything In Place (1981) Жанр: Soul
Носитель: CD
Страна-производитель диска (релиза): Japan
Год издания: 2014
Издатель (лейбл): Sony Music
Номер по каталогу: SICP 30698
Аудиокодек: FLAC (*.flac)
Тип рипа: tracks+.cue
Битрейт аудио: lossless
Продолжительность: 36:51
Rip by JET 1
Наличие сканов в содержимом раздачи: да
Треклист:
01. Just My Luck (4:54)
02. Love (Ain't Over There) (4:53)
03. Headed For Love (3:25)
04. Let's Be Closer Together (5:05)
05. Leave Well Enough Alone (3:48)
06. Turn Back The Hands Of Time (2:57)
07. You Made Me Beautiful (3:34)
08. I Won't Let Go (4:25)
09. You're Heaven Sent (3:50)
 
 
Лог создания рипа
Exact Audio Copy V1.0 beta 3 from 29. August 2011
EAC extraction logfile from 3. February 2016, 11:22
Tyrone Davis / Everything In Place
Used drive : GENERIC CDRCB05 Adapter: 4 ID: 0
Read mode : Secure
Utilize accurate stream : Yes
Defeat audio cache : Yes
Make use of C2 pointers : No
Read offset correction : 102
Overread into Lead-In and Lead-Out : No
Fill up missing offset samples with silence : Yes
Delete leading and trailing silent blocks : No
Null samples used in CRC calculations : Yes
Used interface : Native Win32 interface for Win NT & 2000
Gap handling : Appended to previous track
Used output format : User Defined Encoder
Selected bitrate : 1024 kBit/s
Quality : High
Add ID3 tag : No
Command line compressor : C:\Program Files\FLAC\flac.exe
Additional command line options : -8 -V -T "ARTIST=%artist%" -T "TITLE=%title%" -T "ALBUM=%albumtitle%" -T "DATE=%year%" -T "TRACKNUMBER=%tracknr%" -T "GENRE=%genre%" -T "PERFORMER=%albuminterpret%" -T "COMPOSER=%composer%" %haslyrics%--tag-from-file=LYRICS="%lyricsfile%"%haslyrics% -T "ALBUMARTIST=%albumartist%" -T "DISCNUMBER=%cdnumber%" -T "TOTALDISCS=%totalcds%" -T "TOTALTRACKS=%numtracks%" -T "COMMENT=%comment%" %source% -o %dest%
TOC of the extracted CD
Track | Start | Length | Start sector | End sector
---------------------------------------------------------
1 | 0:00.00 | 4:54.02 | 0 | 22051
2 | 4:54.02 | 4:52.61 | 22052 | 44012
3 | 9:46.63 | 3:24.74 | 44013 | 59386
4 | 13:11.62 | 5:05.01 | 59387 | 82262
5 | 18:16.63 | 3:47.67 | 82263 | 99354
6 | 22:04.55 | 2:57.34 | 99355 | 112663
7 | 25:02.14 | 3:34.35 | 112664 | 128748
8 | 28:36.49 | 4:25.07 | 128749 | 148630
9 | 33:01.56 | 3:49.40 | 148631 | 165845
Track 1
Filename G:\POSTS\Modern Deep Soul [2014 Japan]\Tyrone Davis - Everything In Place (1981) [2014 Japan]\01 - Just My Luck.wav
Pre-gap length 0:00:02.00
Peak level 100.0 %
Extraction speed 2.5 X
Track quality 100.0 %
Test CRC 4E394D88
Copy CRC 4E394D88
Accurately ripped (confidence 3) [0B31ABBF] (AR v2)
Copy OK
Track 2
Filename G:\POSTS\Modern Deep Soul [2014 Japan]\Tyrone Davis - Everything In Place (1981) [2014 Japan]\02 - Love (Ain't Over There).wav
Pre-gap length 0:00:02.00
Peak level 100.0 %
Extraction speed 2.4 X
Track quality 99.9 %
Test CRC 3523B7CF
Copy CRC 3523B7CF
Accurately ripped (confidence 3) [3241F60C] (AR v2)
Copy OK
Track 3
Filename G:\POSTS\Modern Deep Soul [2014 Japan]\Tyrone Davis - Everything In Place (1981) [2014 Japan]\03 - Headed For Love.wav
Pre-gap length 0:00:01.37
Peak level 100.0 %
Extraction speed 2.9 X
Track quality 100.0 %
Test CRC 5310B764
Copy CRC 5310B764
Accurately ripped (confidence 3) [31F37BBC] (AR v2)
Copy OK
Track 4
Filename G:\POSTS\Modern Deep Soul [2014 Japan]\Tyrone Davis - Everything In Place (1981) [2014 Japan]\04 - Let's Be Closer Together.wav
Pre-gap length 0:00:01.42
Peak level 100.0 %
Extraction speed 3.3 X
Track quality 100.0 %
Test CRC 9ABA24D0
Copy CRC 9ABA24D0
Accurately ripped (confidence 3) [E2C56A6F] (AR v2)
Copy OK
Track 5
Filename G:\POSTS\Modern Deep Soul [2014 Japan]\Tyrone Davis - Everything In Place (1981) [2014 Japan]\05 - Leave Well Enough Alone.wav
Pre-gap length 0:00:01.20
Peak level 100.0 %
Extraction speed 3.3 X
Track quality 100.0 %
Test CRC 8EAAD850
Copy CRC 8EAAD850
Accurately ripped (confidence 3) [2259D569] (AR v2)
Copy OK
Track 6
Filename G:\POSTS\Modern Deep Soul [2014 Japan]\Tyrone Davis - Everything In Place (1981) [2014 Japan]\06 - Turn Back The Hands Of Time.wav
Pre-gap length 0:00:01.62
Peak level 100.0 %
Extraction speed 3.3 X
Track quality 100.0 %
Test CRC 91DF7C70
Copy CRC 91DF7C70
Accurately ripped (confidence 3) [15CE50C3] (AR v2)
Copy OK
Track 7
Filename G:\POSTS\Modern Deep Soul [2014 Japan]\Tyrone Davis - Everything In Place (1981) [2014 Japan]\07 - You Made Me Beautiful.wav
Pre-gap length 0:00:01.59
Peak level 100.0 %
Extraction speed 3.1 X
Track quality 99.9 %
Test CRC 353A3FAF
Copy CRC 353A3FAF
Accurately ripped (confidence 3) [BE28CA70] (AR v2)
Copy OK
Track 8
Filename G:\POSTS\Modern Deep Soul [2014 Japan]\Tyrone Davis - Everything In Place (1981) [2014 Japan]\08 - I Won't Let Go.wav
Pre-gap length 0:00:01.45
Peak level 100.0 %
Extraction speed 3.8 X
Track quality 100.0 %
Test CRC 82AF1589
Copy CRC 82AF1589
Accurately ripped (confidence 3) [0A77DD9E] (AR v2)
Copy OK
Track 9
Filename G:\POSTS\Modern Deep Soul [2014 Japan]\Tyrone Davis - Everything In Place (1981) [2014 Japan]\09 - You're Heaven Sent.wav
Pre-gap length 0:00:01.15
Peak level 100.0 %
Extraction speed 3.9 X
Track quality 100.0 %
Test CRC B7D88AD1
Copy CRC B7D88AD1
Accurately ripped (confidence 3) [9CCED360] (AR v2)
Copy OK
All tracks accurately ripped
No errors occurred
End of status report
==== Log checksum A1C786BCFAA61EFDA34457461CDDDE9FC94EB73D395D42CA60F59AE55BDC7822 ====
 
Содержание индексной карты (.CUE)
REM GENRE R&B
REM DATE 2014
REM DISCID 8908A309
REM COMMENT "ExactAudioCopy v1.0b3"
PERFORMER "Tyrone Davis"
TITLE "Everything In Place"
FILE "01 - Just My Luck.wav" WAVE
TRACK 01 AUDIO
TITLE "Just My Luck"
PERFORMER "Tyrone Davis"
INDEX 01 00:00:00
TRACK 02 AUDIO
TITLE "Love (Ain't Over There)"
PERFORMER "Tyrone Davis"
INDEX 00 04:52:02
FILE "02 - Love (Ain't Over There).wav" WAVE
INDEX 01 00:00:00
TRACK 03 AUDIO
TITLE "Headed For Love"
PERFORMER "Tyrone Davis"
INDEX 00 04:51:24
FILE "03 - Headed For Love.wav" WAVE
INDEX 01 00:00:00
TRACK 04 AUDIO
TITLE "Let's Be Closer Together"
PERFORMER "Tyrone Davis"
INDEX 00 03:23:32
FILE "04 - Let's Be Closer Together.wav" WAVE
INDEX 01 00:00:00
TRACK 05 AUDIO
TITLE "Leave Well Enough Alone"
PERFORMER "Tyrone Davis"
INDEX 00 05:03:56
FILE "05 - Leave Well Enough Alone.wav" WAVE
INDEX 01 00:00:00
TRACK 06 AUDIO
TITLE "Turn Back The Hands Of Time"
PERFORMER "Tyrone Davis"
INDEX 00 03:46:05
FILE "06 - Turn Back The Hands Of Time.wav" WAVE
INDEX 01 00:00:00
TRACK 07 AUDIO
TITLE "You Made Me Beautiful"
PERFORMER "Tyrone Davis"
INDEX 00 02:55:50
FILE "07 - You Made Me Beautiful.wav" WAVE
INDEX 01 00:00:00
TRACK 08 AUDIO
TITLE "I Won't Let Go"
PERFORMER "Tyrone Davis"
INDEX 00 03:32:65
FILE "08 - I Won't Let Go.wav" WAVE
INDEX 01 00:00:00
TRACK 09 AUDIO
TITLE "You're Heaven Sent"
PERFORMER "Tyrone Davis"
INDEX 00 04:23:67
FILE "09 - You're Heaven Sent.wav" WAVE
INDEX 01 00:00:00
Приватный:
Нет (DHT включён)
Размер:
334.43 Мб (350,672,260 байт) » файлов: 33
Участники:
0 раздают, 0 качают (0 участников всего)
Внешние участники:
2 раздают, 1 качают (3 участников всего) [ Обновить ]
No seeders - write a personal message to user M0p94ok. Нет сидеров - пишите личное сообщение пользователю M0p94ok.
10:49
71
Нет комментариев. Ваш будет первым!