Поиск

(Soul) [CD] Tyrone Davis - I Just Can't Keep On Going (1980) - 2014, FLAC (tracks+.cue), lossless

(Soul) [CD] Tyrone Davis - I Just Can't Keep On Going (1980) - 2014, FLAC (tracks+.cue), lossless
Треклист:
Tyrone Davis - I Just Can't Keep On Going (1980) Жанр: Soul
Носитель: CD
Страна-производитель диска (релиза): Japan
Год издания: 2014
Издатель (лейбл): Sony Music
Номер по каталогу: SICP 30697
Аудиокодек: FLAC (*.flac)
Тип рипа: tracks+.cue
Битрейт аудио: lossless
Продолжительность: 35:53
Rip by JET 1
Наличие сканов в содержимом раздачи: да
Треклист:
01. How Sweet It Is (To Be Loved By You) (4:05)
02. I Just Can't Keep On Going (4:34)
03. I'm Glad You're Here With Me Tonight (4:31)
04. Overdue (4:01)
05. Comin' Back Baby (4:41)
06. We Don't Need No Music (5:14)
07. Never Stopped Loving You (3:52)
08. Wanna Make It Good (4:55)
 
 
Лог создания рипа
Exact Audio Copy V1.0 beta 3 from 29. August 2011
EAC extraction logfile from 3. February 2016, 9:48
Tyrone Davis / I Just Can't Keep On Going
Used drive : GENERIC CDRCB05 Adapter: 4 ID: 0
Read mode : Secure
Utilize accurate stream : Yes
Defeat audio cache : Yes
Make use of C2 pointers : No
Read offset correction : 102
Overread into Lead-In and Lead-Out : No
Fill up missing offset samples with silence : Yes
Delete leading and trailing silent blocks : No
Null samples used in CRC calculations : Yes
Used interface : Native Win32 interface for Win NT & 2000
Gap handling : Appended to previous track
Used output format : User Defined Encoder
Selected bitrate : 1024 kBit/s
Quality : High
Add ID3 tag : No
Command line compressor : C:\Program Files\FLAC\flac.exe
Additional command line options : -8 -V -T "ARTIST=%artist%" -T "TITLE=%title%" -T "ALBUM=%albumtitle%" -T "DATE=%year%" -T "TRACKNUMBER=%tracknr%" -T "GENRE=%genre%" -T "PERFORMER=%albuminterpret%" -T "COMPOSER=%composer%" %haslyrics%--tag-from-file=LYRICS="%lyricsfile%"%haslyrics% -T "ALBUMARTIST=%albumartist%" -T "DISCNUMBER=%cdnumber%" -T "TOTALDISCS=%totalcds%" -T "TOTALTRACKS=%numtracks%" -T "COMMENT=%comment%" %source% -o %dest%
TOC of the extracted CD
Track | Start | Length | Start sector | End sector
---------------------------------------------------------
1 | 0:00.00 | 4:05.11 | 0 | 18385
2 | 4:05.11 | 4:34.05 | 18386 | 38940
3 | 8:39.16 | 4:31.06 | 38941 | 59271
4 | 13:10.22 | 4:01.10 | 59272 | 77356
5 | 17:11.32 | 4:40.59 | 77357 | 98415
6 | 21:52.16 | 5:13.59 | 98416 | 121949
7 | 27:06.00 | 3:51.59 | 121950 | 139333
8 | 30:57.59 | 4:55.19 | 139334 | 161477
Track 1
Filename G:\POSTS\Modern Deep Soul [2014 Japan]\Tyrone Davis - I Just Can't Keep On Going (1980) [2014 Japan]\01 - How Sweet It Is (To Be Loved By You).wav
Pre-gap length 0:00:02.00
Peak level 100.0 %
Extraction speed 2.3 X
Track quality 100.0 %
Test CRC C8A19923
Copy CRC C8A19923
Track not present in AccurateRip database
Copy OK
Track 2
Filename G:\POSTS\Modern Deep Soul [2014 Japan]\Tyrone Davis - I Just Can't Keep On Going (1980) [2014 Japan]\02 - I Just Can't Keep On Going.wav
Pre-gap length 0:00:02.10
Peak level 100.0 %
Extraction speed 2.7 X
Track quality 100.0 %
Test CRC D5F54711
Copy CRC D5F54711
Track not present in AccurateRip database
Copy OK
Track 3
Filename G:\POSTS\Modern Deep Soul [2014 Japan]\Tyrone Davis - I Just Can't Keep On Going (1980) [2014 Japan]\03 - I'm Glad You're Here With Me Tonight.wav
Pre-gap length 0:00:01.07
Peak level 100.0 %
Extraction speed 2.9 X
Track quality 100.0 %
Test CRC 8BD39F45
Copy CRC 8BD39F45
Track not present in AccurateRip database
Copy OK
Track 4
Filename G:\POSTS\Modern Deep Soul [2014 Japan]\Tyrone Davis - I Just Can't Keep On Going (1980) [2014 Japan]\04 - Overdue.wav
Pre-gap length 0:00:01.14
Peak level 100.0 %
Extraction speed 3.1 X
Track quality 100.0 %
Test CRC 871D0BB3
Copy CRC 871D0BB3
Track not present in AccurateRip database
Copy OK
Track 5
Filename G:\POSTS\Modern Deep Soul [2014 Japan]\Tyrone Davis - I Just Can't Keep On Going (1980) [2014 Japan]\05 - Comin' Back Baby.wav
Pre-gap length 0:00:02.08
Peak level 100.0 %
Extraction speed 3.4 X
Track quality 100.0 %
Test CRC 911629F3
Copy CRC 911629F3
Track not present in AccurateRip database
Copy OK
Track 6
Filename G:\POSTS\Modern Deep Soul [2014 Japan]\Tyrone Davis - I Just Can't Keep On Going (1980) [2014 Japan]\06 - We Don't Need No Music.wav
Pre-gap length 0:00:01.53
Peak level 100.0 %
Extraction speed 3.6 X
Track quality 100.0 %
Test CRC 3B3973A0
Copy CRC 3B3973A0
Track not present in AccurateRip database
Copy OK
Track 7
Filename G:\POSTS\Modern Deep Soul [2014 Japan]\Tyrone Davis - I Just Can't Keep On Going (1980) [2014 Japan]\07 - Never Stopped Loving You.wav
Pre-gap length 0:00:01.09
Peak level 100.0 %
Extraction speed 3.7 X
Track quality 100.0 %
Test CRC F97FF902
Copy CRC F97FF902
Track not present in AccurateRip database
Copy OK
Track 8
Filename G:\POSTS\Modern Deep Soul [2014 Japan]\Tyrone Davis - I Just Can't Keep On Going (1980) [2014 Japan]\08 - Wanna Make It Good.wav
Peak level 100.0 %
Extraction speed 4.0 X
Track quality 100.0 %
Test CRC 5167ABFC
Copy CRC 5167ABFC
Track not present in AccurateRip database
Copy OK
None of the tracks are present in the AccurateRip database
No errors occurred
End of status report
==== Log checksum D0D4F78E6BAB9B78BA3400F14A2B594347AEA120F0637D02E0F822620070ECCD ====
 
Содержание индексной карты (.CUE)
REM GENRE R&B
REM DATE 2014
REM DISCID 61086908
REM COMMENT "ExactAudioCopy v1.0b3"
PERFORMER "Tyrone Davis"
TITLE "I Just Can't Keep On Going"
FILE "01 - How Sweet It Is (To Be Loved By You).wav" WAVE
TRACK 01 AUDIO
TITLE "How Sweet It Is (To Be Loved By You)"
PERFORMER "Tyrone Davis"
INDEX 01 00:00:00
TRACK 02 AUDIO
TITLE "I Just Can't Keep On Going"
PERFORMER "Tyrone Davis"
INDEX 00 04:03:01
FILE "02 - I Just Can't Keep On Going.wav" WAVE
INDEX 01 00:00:00
TRACK 03 AUDIO
TITLE "I'm Glad You're Here With Me Tonight"
PERFORMER "Tyrone Davis"
INDEX 00 04:32:73
FILE "03 - I'm Glad You're Here With Me Tonight.wav" WAVE
INDEX 01 00:00:00
TRACK 04 AUDIO
TITLE "Overdue"
PERFORMER "Tyrone Davis"
INDEX 00 04:29:67
FILE "04 - Overdue.wav" WAVE
INDEX 01 00:00:00
TRACK 05 AUDIO
TITLE "Comin' Back Baby"
PERFORMER "Tyrone Davis"
INDEX 00 03:59:02
FILE "05 - Comin' Back Baby.wav" WAVE
INDEX 01 00:00:00
TRACK 06 AUDIO
TITLE "We Don't Need No Music"
PERFORMER "Tyrone Davis"
INDEX 00 04:39:06
FILE "06 - We Don't Need No Music.wav" WAVE
INDEX 01 00:00:00
TRACK 07 AUDIO
TITLE "Never Stopped Loving You"
PERFORMER "Tyrone Davis"
INDEX 00 05:12:50
FILE "07 - Never Stopped Loving You.wav" WAVE
INDEX 01 00:00:00
FILE "08 - Wanna Make It Good.wav" WAVE
TRACK 08 AUDIO
TITLE "Wanna Make It Good"
PERFORMER "Tyrone Davis"
INDEX 01 00:00:00
Приватный:
Нет (DHT включён)
Размер:
338.13 Мб (354,555,225 байт) » файлов: 29
Участники:
0 раздают, 0 качают (0 участников всего)
Внешние участники:
2 раздают, 1 качают (3 участников всего) [ Обновить ]
Есть вопросы - пишите личное сообщение пользователю M0p94ok.
10:48
87
Нет комментариев. Ваш будет первым!