Поиск

(Funk, Soul) [CD] Betty Padgett - Betty Padgett - 1975 (2008), FLAC (tracks+.cue), lossless

(Funk, Soul) [CD] Betty Padgett - Betty Padgett - 1975 (2008), FLAC (tracks+.cue), lossless
Треклист:
Betty Padgett - Betty Padgett
Жанр: Funk, Soul
Носитель: CD
Страна-производитель диска (релиза): США
Год издания: 1975 (2008)
Издатель (лейбл): Luv N' Haight
Номер по каталогу: lhcd058
Аудиокодек: FLAC (*.flac)
Тип рипа: tracks+.cue
Битрейт аудио: lossless
Продолжительность: 32:12
Источник (релизер): KidCanary (what)
Наличие сканов в содержимом раздачи: сетевые
Треклист:
01. It Would Be a Shame (4:37)
02. My Eyes Adore You (3:05)
03. Sugar Daddy Part 1 (3:27)
04. Tonight Is the Night (2:55)
05. Never, Never, Never (4:13)
06. Gypsy of Love (4:36)
07. Sugar Daddy Part 2 (3:29)
08. Rocking Chair (3:15)
09. Love Me Forever (2:35)
 
Лог создания рипа
Exact Audio Copy V1.0 beta 3 from 29. August 2011
EAC extraction logfile from 12. November 2014, 18:00
Betty Padgett / Betty Padgett
Used drive : ASUS DRW-24B1ST Adapter: 3 ID: 0
Read mode : Secure
Utilize accurate stream : Yes
Defeat audio cache : Yes
Make use of C2 pointers : No
Read offset correction : 6
Overread into Lead-In and Lead-Out : No
Fill up missing offset samples with silence : Yes
Delete leading and trailing silent blocks : No
Null samples used in CRC calculations : Yes
Used interface : Native Win32 interface for Win NT & 2000
Gap handling : Appended to previous track
Used output format : User Defined Encoder
Selected bitrate : 1024 kBit/s
Quality : High
Add ID3 tag : No
Command line compressor : C:\Program Files (x86)\FLAC\flac.exe
Additional command line options : -8 -V -T "ARTIST=%artist%" -T "TITLE=%title%" -T "ALBUM=%albumtitle%" -T "DATE=%year%" -T "TRACKNUMBER=%tracknr%" -T "GENRE=%genre%" -T "PERFORMER=%albuminterpret%" -T "COMPOSER=%composer%" %haslyrics%--tag-from-file=LYRICS="%lyricsfile%"%haslyrics% -T "ALBUMARTIST=%albumartist%" -T "DISCNUMBER=%cdnumber%" -T "TOTALDISCS=%totalcds%" -T "TOTALTRACKS=%numtracks%" -T "COMMENT=%comment%" %source% -o %dest%
TOC of the extracted CD
Track | Start | Length | Start sector | End sector
---------------------------------------------------------
1 | 0:00.00 | 4:36.55 | 0 | 20754
2 | 4:36.55 | 3:05.07 | 20755 | 34636
3 | 7:41.62 | 3:27.29 | 34637 | 50190
4 | 11:09.16 | 2:54.65 | 50191 | 63305
5 | 14:04.06 | 4:13.17 | 63306 | 82297
6 | 18:17.23 | 4:36.00 | 82298 | 102997
7 | 22:53.23 | 3:29.01 | 102998 | 118673
8 | 26:22.24 | 3:14.51 | 118674 | 133274
9 | 29:37.00 | 2:35.18 | 133275 | 144917
Track 1
Filename C:\EACrips\01 - It Would Be a Shame.wav
Pre-gap length 0:00:02.00
Peak level 98.8 %
Extraction speed 1.8 X
Track quality 100.0 %
Test CRC CFBADF65
Copy CRC CFBADF65
Accurately ripped (confidence 4) [F6DEA3C3] (AR v1)
Copy OK
Track 2
Filename C:\EACrips\02 - My Eyes Adore You.wav
Peak level 98.8 %
Extraction speed 1.9 X
Track quality 100.0 %
Test CRC 0EB21E9E
Copy CRC 0EB21E9E
Accurately ripped (confidence 4) [DC07AC4F] (AR v1)
Copy OK
Track 3
Filename C:\EACrips\03 - Sugar Daddy Part 1.wav
Peak level 98.8 %
Extraction speed 2.1 X
Track quality 100.0 %
Test CRC 29F4A1B6
Copy CRC 29F4A1B6
Accurately ripped (confidence 4) [9A3BA6DC] (AR v1)
Copy OK
Track 4
Filename C:\EACrips\04 - Tonight Is the Night.wav
Peak level 98.8 %
Extraction speed 2.2 X
Track quality 100.0 %
Test CRC 04F6DF62
Copy CRC 04F6DF62
Accurately ripped (confidence 4) [1D67BE71] (AR v1)
Copy OK
Track 5
Filename C:\EACrips\05 - Never, Never, Never.wav
Peak level 98.8 %
Extraction speed 2.4 X
Track quality 100.0 %
Test CRC BAF0AFF2
Copy CRC BAF0AFF2
Accurately ripped (confidence 4) [6BF93457] (AR v1)
Copy OK
Track 6
Filename C:\EACrips\06 - Gypsy of Love.wav
Peak level 98.8 %
Extraction speed 2.6 X
Track quality 100.0 %
Test CRC 487D6A35
Copy CRC 487D6A35
Accurately ripped (confidence 4) [CD62E290] (AR v1)
Copy OK
Track 7
Filename C:\EACrips\07 - Sugar Daddy Part 2.wav
Peak level 98.8 %
Extraction speed 2.7 X
Track quality 100.0 %
Test CRC C7FA909D
Copy CRC C7FA909D
Accurately ripped (confidence 4) [F4155125] (AR v1)
Copy OK
Track 8
Filename C:\EACrips\08 - Rocking Chair.wav
Peak level 98.8 %
Extraction speed 2.7 X
Track quality 100.0 %
Test CRC 77F6EC92
Copy CRC 77F6EC92
Accurately ripped (confidence 4) [FA2D95D6] (AR v1)
Copy OK
Track 9
Filename C:\EACrips\09 - Love Me Forever.wav
Peak level 98.8 %
Extraction speed 2.7 X
Track quality 100.0 %
Test CRC 266528CB
Copy CRC 266528CB
Accurately ripped (confidence 4) [383488F1] (AR v1)
Copy OK
All tracks accurately ripped
No errors occurred
End of status report
---- CUETools DB Plugin V2.1.3
[CTDB TOCID: YNjUCTWpAN4ytMsD5sEULALroLQ-] found, Submit result: YNjUCTWpAN4ytMsD5sEULALroLQ- has been confirmed
[a153e575] (1/1) Accurately ripped
==== Log checksum 290ED76DC6505BA9134BD730E580E975430C7FC364B58934B404BC75E159825F ====
 
Содержание индексной карты (.CUE)
REM GENRE Soul
REM DATE 1975
REM DISCID 8D078C09
REM COMMENT "ExactAudioCopy v1.0b3"
PERFORMER "Betty Padgett"
TITLE "Betty Padgett"
FILE "01 - It Would Be a Shame.wav" WAVE
TRACK 01 AUDIO
TITLE "It Would Be a Shame"
PERFORMER "Betty Padgett"
INDEX 01 00:00:00
FILE "02 - My Eyes Adore You.wav" WAVE
TRACK 02 AUDIO
TITLE "My Eyes Adore You"
PERFORMER "Betty Padgett"
INDEX 01 00:00:00
FILE "03 - Sugar Daddy Part 1.wav" WAVE
TRACK 03 AUDIO
TITLE "Sugar Daddy Part 1"
PERFORMER "Betty Padgett"
INDEX 01 00:00:00
FILE "04 - Tonight Is the Night.wav" WAVE
TRACK 04 AUDIO
TITLE "Tonight Is the Night"
PERFORMER "Betty Padgett"
INDEX 01 00:00:00
FILE "05 - Never, Never, Never.wav" WAVE
TRACK 05 AUDIO
TITLE "Never, Never, Never"
PERFORMER "Betty Padgett"
INDEX 01 00:00:00
FILE "06 - Gypsy of Love.wav" WAVE
TRACK 06 AUDIO
TITLE "Gypsy of Love"
PERFORMER "Betty Padgett"
INDEX 01 00:00:00
FILE "07 - Sugar Daddy Part 2.wav" WAVE
TRACK 07 AUDIO
TITLE "Sugar Daddy Part 2"
PERFORMER "Betty Padgett"
INDEX 01 00:00:00
FILE "08 - Rocking Chair.wav" WAVE
TRACK 08 AUDIO
TITLE "Rocking Chair"
PERFORMER "Betty Padgett"
INDEX 01 00:00:00
FILE "09 - Love Me Forever.wav" WAVE
TRACK 09 AUDIO
TITLE "Love Me Forever"
PERFORMER "Betty Padgett"
INDEX 01 00:00:00
 
Отчет CUETools
[CUETools log; Date: 28.05.2016 22:53:33; Version: 2.1.5]
[CTDB TOCID: YNjUCTWpAN4ytMsD5sEULALroLQ-] found.
Track | CTDB Status
1 | (5/5) Accurately ripped
2 | (5/5) Accurately ripped
3 | (5/5) Accurately ripped
4 | (5/5) Accurately ripped
5 | (5/5) Accurately ripped
6 | (5/5) Accurately ripped
7 | (5/5) Accurately ripped
8 | (5/5) Accurately ripped
9 | (5/5) Accurately ripped
[AccurateRip ID: 000b75cc-00538cd1-8d078c09] found.
Track [ CRC | V2 ] Status
01 [f6dea3c3|d48c4379] (4+0/4) Accurately ripped
02 [dc07ac4f|62ecf58c] (4+0/4) Accurately ripped
03 [9a3ba6dc|118bbd5f] (4+0/4) Accurately ripped
04 [1d67be71|3cf92eb2] (4+0/4) Accurately ripped
05 [6bf93457|05e8d72f] (4+0/4) Accurately ripped
06 [cd62e290|5393e000] (4+0/4) Accurately ripped
07 [f4155125|6d07d251] (4+0/4) Accurately ripped
08 [fa2d95d6|55db28f5] (4+0/4) Accurately ripped
09 [383488f1|9c9b5996] (4+0/4) Accurately ripped
Track Peak [ CRC32 ] [W/O NULL] [ LOG ]
-- 98,8 [2BAD5657] [E32774D2]
01 98,8 [CFBADF65] [A2685872] CRC32
02 98,8 [0EB21E9E] [3EB00C31] CRC32
03 98,8 [29F4A1B6] [F8B041C0] CRC32
04 98,8 [04F6DF62] [51519411] CRC32
05 98,8 [BAF0AFF2] [C663E05C] CRC32
06 98,8 [487D6A35] [2FE13293] CRC32
07 98,8 [C7FA909D] [CE3F91C1] CRC32
08 98,8 [77F6EC92] [8900F35B] CRC32
09 98,8 [266528CB] [5B20D10C] CRC32
 
AllMusic Review by K. Ross Hoffman
The 2000s-era soul resurgence has seen a bumper crop of rediscovered and/or rehabilitated "lost" R&B records, gushed-over, too-good-to-be-true reissues of vintage sides that, surprisingly often, have in fact turned out to be that good and that true. Luv N' Haight's re-pressing of this Floridian find from 1975 feels archetypal of these regularly scheduled revelations to an almost unbelievable extent, from the smorgasbord of rare groove styles on offer (sweet Southern soul, groovy proto-disco, Latin-tinged funk) right down to the given name its unheralded titular diva shares with Mmes. Wright, Davis, Swann, LaVette, Harris, and Everett. But believe it, baby: Padgett's pipes are as potent as any of her fellow Bettys (or Bettyes); on the smoother, sweeter side of the spectrum, but soulful to be sure (and uncannily belying her shy 21 years when this was recorded), while the grooves, cut by a crack team of South Florida funk cats, make for grail-worthy gravy. Marquee two-parter "Sugar Daddy," a regionally successful disco single laden with congas, flutes, ear-candy party patter, and some particularly fluffy gold-digging lyrics, is serviceably fresh and funky, if not necessarily Padgett's greatest vocal turn (mostly thanks to its middling melody). The jazzy, sultry, and subtly synth-laced groover "Gypsy of Love" promises a goofy good time as well, but the album's true highlights tend to be those that de-emphasize the disco elements in favor of timeless, backward-looking soul, like the pained but punchy "It Would Be a Shame" and string-laden ballad "Love Me Forever." Best of all is the quartet of cuts that rest, somewhat surprisingly, on an impeccably fluid foundation of Jamaican reggae and rocksteady, over which Padgett croons her romantic pleas and plaints like a Stax/Volt Marcia Aitken, or perhaps one of her U.K. contemporaries in the nascent lovers rock scene. Just a listen to the unrequited schoolgirl love saga of "My Eyes Adore You," with its beautifully self-harmonized chorus, is enough to remind listeners, yet again, that crate-digging dreams really do come true.
Приватный:
Нет (DHT включён)
Размер:
198.43 Мб (208,065,483 байт) » файлов: 16
Участники:
0 раздают, 0 качают (0 участников всего)
Внешние участники:
2 раздают, 1 качают (3 участников всего) [ Обновить ]
Есть вопросы - пишите личное сообщение пользователю M0p94ok.
10:47
61
Нет комментариев. Ваш будет первым!