Поиск

(Psychedelic Funk, Soul) [CD] Bobby Boyd - Bobby Boyd - 1976 (2011), FLAC (tracks+.cue), lossless

(Psychedelic Funk, Soul) [CD] Bobby Boyd - Bobby Boyd - 1976 (2011), FLAC (tracks+.cue), lossless
Треклист:
Bobby Boyd - Bobby Boyd
Жанр: Psychedelic Funk, Soul
Носитель: CD
Страна-производитель диска (релиза): Франция
Год издания: 1976 (2011)
Издатель (лейбл): Vadim Music
Номер по каталогу: VAD039CD
Аудиокодек: FLAC (*.flac)
Тип рипа: tracks+.cue
Битрейт аудио: lossless
Продолжительность: 37:52
Источник (релизер): KidCanary (what)
Наличие сканов в содержимом раздачи: нет
Треклист:
01. Why Are You Cryin' (4:09)
02. Good Woman (5:04)
03. Happy Hooker (5:55)
04. Ain't What You Know (2:42)
05. Girl, I Can Feel Ya (3:48)
06. How Do You Hang On to a Dream (3:24)
07. Let Bygones Be Bygones (5:09)
08. To Be in Love with Yourself (4:01)
09. On This Side of Town (3:40)
 
Лог создания рипа
Exact Audio Copy V1.0 beta 4 from 7. December 2014
EAC extraction logfile from 13. April 2015, 20:16
Bobby Boyd / Bobby Boyd
Used drive : ASUS DRW-24B1ST Adapter: 1 ID: 1
Read mode : Secure
Utilize accurate stream : Yes
Defeat audio cache : Yes
Make use of C2 pointers : No
Read offset correction : 6
Overread into Lead-In and Lead-Out : No
Fill up missing offset samples with silence : Yes
Delete leading and trailing silent blocks : No
Null samples used in CRC calculations : Yes
Used interface : Native Win32 interface for Win NT & 2000
Gap handling : Appended to previous track
Used output format : User Defined Encoder
Selected bitrate : 1024 kBit/s
Quality : High
Add ID3 tag : No
Command line compressor : C:\Program Files\FLAC 1.3.1\win64\flac.exe
Additional command line options : -8 -V -T "ARTIST=%artist%" -T "TITLE=%title%" -T "ALBUM=%albumtitle%" -T "DATE=%year%" -T "TRACKNUMBER=%tracknr%" -T "GENRE=%genre%" -T "PERFORMER=%albuminterpret%" -T "COMPOSER=%composer%" %haslyrics%--tag-from-file=LYRICS="%lyricsfile%"%haslyrics% -T "ALBUMARTIST=%albumartist%" -T "DISCNUMBER=%cdnumber%" -T "TOTALDISCS=%totalcds%" -T "TOTALTRACKS=%numtracks%" -T "COMMENT=%comment%" %source% -o %dest%
TOC of the extracted CD
Track | Start | Length | Start sector | End sector
---------------------------------------------------------
1 | 0:00.00 | 4:09.31 | 0 | 18705
2 | 4:09.31 | 5:04.24 | 18706 | 41529
3 | 9:13.55 | 5:55.28 | 41530 | 68182
4 | 15:09.08 | 2:41.73 | 68183 | 80330
5 | 17:51.06 | 3:48.32 | 80331 | 97462
6 | 21:39.38 | 3:24.25 | 97463 | 112787
7 | 25:03.63 | 5:09.29 | 112788 | 135991
8 | 30:13.17 | 4:01.04 | 135992 | 154070
9 | 34:14.21 | 3:39.56 | 154071 | 170551
Track 1
Filename C:\EAC Rips\01 - Why Are You Cryin'.wav
Pre-gap length 0:00:02.00
Peak level 85.3 %
Extraction speed 3.3 X
Track quality 100.0 %
Test CRC 05A3A92C
Copy CRC 05A3A92C
Track not present in AccurateRip database
Copy OK
Track 2
Filename C:\EAC Rips\02 - Good Woman.wav
Pre-gap length 0:00:02.00
Peak level 90.4 %
Extraction speed 3.9 X
Track quality 100.0 %
Test CRC BBE05121
Copy CRC BBE05121
Track not present in AccurateRip database
Copy OK
Track 3
Filename C:\EAC Rips\03 - Happy Hooker.wav
Pre-gap length 0:00:02.00
Peak level 76.0 %
Extraction speed 4.3 X
Track quality 100.0 %
Test CRC 01F03A47
Copy CRC 01F03A47
Track not present in AccurateRip database
Copy OK
Track 4
Filename C:\EAC Rips\04 - Ain't What You Know.wav
Pre-gap length 0:00:02.00
Peak level 91.1 %
Extraction speed 3.1 X
Track quality 99.9 %
Test CRC 7188CFFD
Copy CRC 7188CFFD
Track not present in AccurateRip database
Copy OK
Track 5
Filename C:\EAC Rips\05 - Girl, I Can Feel Ya.wav
Pre-gap length 0:00:02.00
Peak level 91.6 %
Extraction speed 3.7 X
Track quality 99.9 %
Test CRC B46C1563
Copy CRC B46C1563
Track not present in AccurateRip database
Copy OK
Track 6
Filename C:\EAC Rips\06 - How Do You Hang On to a Dream.wav
Pre-gap length 0:00:02.00
Peak level 91.2 %
Extraction speed 4.8 X
Track quality 100.0 %
Test CRC 24817715
Copy CRC 24817715
Track not present in AccurateRip database
Copy OK
Track 7
Filename C:\EAC Rips\07 - Let Bygones Be Bygones.wav
Pre-gap length 0:00:02.00
Peak level 87.2 %
Extraction speed 4.4 X
Track quality 99.9 %
Test CRC D4A93341
Copy CRC D4A93341
Track not present in AccurateRip database
Copy OK
Track 8
Filename C:\EAC Rips\08 - To Be in Love With Yourself.wav
Pre-gap length 0:00:02.00
Peak level 91.5 %
Extraction speed 5.3 X
Track quality 100.0 %
Test CRC 05C68DE0
Copy CRC 05C68DE0
Track not present in AccurateRip database
Copy OK
Track 9
Filename C:\EAC Rips\09 - On This Side of Town.wav
Pre-gap length 0:00:02.00
Peak level 91.2 %
Extraction speed 4.3 X
Track quality 99.9 %
Test CRC 188619A2
Copy CRC 188619A2
Track not present in AccurateRip database
Copy OK
None of the tracks are present in the AccurateRip database
No errors occurred
End of status report
---- CUETools DB Plugin V2.1.4
[CTDB TOCID: qruUco_pCI5KYnndZy81m0Lx6xc-] found
Submit result: qruUco_pCI5KYnndZy81m0Lx6xc- has been confirmed
Track | CTDB Status
1 | (1/1) Accurately ripped
2 | (1/1) Accurately ripped
3 | (1/1) Accurately ripped
4 | (1/1) Accurately ripped
5 | (1/1) Accurately ripped
6 | (1/1) Accurately ripped
7 | (1/1) Accurately ripped
8 | (1/1) Accurately ripped
9 | (1/1) Accurately ripped
==== Log checksum AD268B3D5E966DC065A8702BEBD90D34D863969726C85B883C2F3D5B4488FE71 ====
 
Содержание индексной карты (.CUE)
REM GENRE Funk
REM DATE 1976
REM DISCID 5B08E209
REM COMMENT "ExactAudioCopy v1.0b4"
PERFORMER "Bobby Boyd"
TITLE "Bobby Boyd"
FILE "01 - Why Are You Cryin'.wav" WAVE
TRACK 01 AUDIO
TITLE "Why Are You Cryin'"
PERFORMER "Bobby Boyd"
INDEX 01 00:00:00
TRACK 02 AUDIO
TITLE "Good Woman"
PERFORMER "Bobby Boyd"
INDEX 00 04:07:31
FILE "02 - Good Woman.wav" WAVE
INDEX 01 00:00:00
TRACK 03 AUDIO
TITLE "Happy Hooker"
PERFORMER "Bobby Boyd"
INDEX 00 05:02:24
FILE "03 - Happy Hooker.wav" WAVE
INDEX 01 00:00:00
TRACK 04 AUDIO
TITLE "Ain't What You Know"
PERFORMER "Bobby Boyd"
INDEX 00 05:53:28
FILE "04 - Ain't What You Know.wav" WAVE
INDEX 01 00:00:00
TRACK 05 AUDIO
TITLE "Girl, I Can Feel Ya"
PERFORMER "Bobby Boyd"
INDEX 00 02:39:73
FILE "05 - Girl, I Can Feel Ya.wav" WAVE
INDEX 01 00:00:00
TRACK 06 AUDIO
TITLE "How Do You Hang On to a Dream"
PERFORMER "Bobby Boyd"
INDEX 00 03:46:32
FILE "06 - How Do You Hang On to a Dream.wav" WAVE
INDEX 01 00:00:00
TRACK 07 AUDIO
TITLE "Let Bygones Be Bygones"
PERFORMER "Bobby Boyd"
INDEX 00 03:22:25
FILE "07 - Let Bygones Be Bygones.wav" WAVE
INDEX 01 00:00:00
TRACK 08 AUDIO
TITLE "To Be in Love with Yourself"
PERFORMER "Bobby Boyd"
INDEX 00 05:07:29
FILE "08 - To Be in Love with Yourself.wav" WAVE
INDEX 01 00:00:00
TRACK 09 AUDIO
TITLE "On This Side of Town"
PERFORMER "Bobby Boyd"
INDEX 00 03:59:04
FILE "09 - On This Side of Town.wav" WAVE
INDEX 01 00:00:00
 
Отчет CUETools
[CUETools log; Date: 28.05.2016 22:38:01; Version: 2.1.5]
[CTDB TOCID: qruUco_pCI5KYnndZy81m0Lx6xc-] found.
Track | CTDB Status
1 | (3/3) Accurately ripped
2 | (3/3) Accurately ripped
3 | (3/3) Accurately ripped
4 | (3/3) Accurately ripped
5 | (3/3) Accurately ripped
6 | (3/3) Accurately ripped
7 | (3/3) Accurately ripped
8 | (3/3) Accurately ripped
9 | (3/3) Accurately ripped
[AccurateRip ID: 000d6c00-006183fb-5b08e209] found.
Track [ CRC | V2 ] Status
01 [e86f766f|151dd166] (0+2/2) Accurately ripped
02 [195b4346|33d805de] (0+2/2) Accurately ripped
03 [627d8714|39f76dcc] (0+2/2) Accurately ripped
04 [aa913d58|42b7a8bb] (0+2/2) Accurately ripped
05 [833c4aa4|ca0d41f3] (0+2/2) Accurately ripped
06 [0b337e01|43d3add1] (0+2/2) Accurately ripped
07 [a2afdde4|4d6cd289] (0+2/2) Accurately ripped
08 [0dfedee5|1f147e5f] (0+2/2) Accurately ripped
09 [ae1661a4|21e6b589] (0+2/2) Accurately ripped
Track Peak [ CRC32 ] [W/O NULL] [ LOG ]
-- 91,6 [4C508BE1] [E2378E48]
01 85,3 [05A3A92C] [5E00572C] CRC32
02 90,4 [BBE05121] [5118A3D8] CRC32
03 76,0 [01F03A47] [B531FAB9] CRC32
04 91,1 [7188CFFD] [0553B119] CRC32
05 91,6 [B46C1563] [DAF992DB] CRC32
06 91,2 [24817715] [FC81EA7D] CRC32
07 87,2 [D4A93341] [A0F947B9] CRC32
08 91,5 [05C68DE0] [778379B2] CRC32
09 91,2 [188619A2] [4BA2803C] CRC32
 
Об альбоме (сборнике)
Vadim continues its painstaking excavation of buried record treasures to finally bring to light what the most dedicated and learned among us consider to be one of the best soul records ever: the second lost album from the legendary Bobby Boyd.
An extremely rare vinyl existing only as rare promo copies and exchanging hands for the highest prices, this coveted funk gem is a real piece of history with a strangely uneven sound quality, caused by a rather mediocre pressing and unreliable sound takes that give the strange impression that the tracks weren’t all recorded together. In the end, this rough production aspect isn’t detrimental to the album at all, rather contributing fully to its bewitching charm and strengthening the fragile and miraculous character of Bobby Boyd’s soul, which he inhabits with his incredible husky voice.
As we journey through compositions that alternate between gentle ballads and wild instrumental sessions, we happily drift away, little by little, and absorb the warmth of a Rhodes piano, the guitar, and elsewhere the twirling sax arabesques. The musicians are excellent, dedicated to each piece, sticking to the essential and avoiding tiring technical demonstrations. The groove is hot, smooth and finely honed, revealing the full sensitivity of his compositions. With this album, Bobby Boyd creates a masterpiece that lingers on the palette and to which we will constantly return to draw from its genuine warmth.
Приватный:
Нет (DHT включён)
Размер:
221.86 Мб (232,632,056 байт) » файлов: 14
Участники:
0 раздают, 0 качают (0 участников всего)
Внешние участники:
5 раздают, 2 качают (7 участников всего) [ Обновить ]
Есть вопросы - пишите личное сообщение пользователю M0p94ok.
10:47
62
Нет комментариев. Ваш будет первым!