Поиск

(Soul, R&B) [CD] Barbara Weathers - Seeing For The Very First Time - 1995, FLAC (tracks+.cue), lossless

(Soul, R&B) [CD] Barbara Weathers - Seeing For The Very First Time - 1995, FLAC (tracks+.cue), lossless
Треклист:
Barbara Weathers - Seeing For The Very First Time Жанр: Soul, R&B
Носитель: CD
Страна-производитель диска: Japan
Год издания: 1995
Издатель (лейбл): VideoArts Music Inc.
Номер по каталогу: VACV-2005
Аудиокодек: FLAC (*.flac)
Тип рипа: tracks+.cue
Битрейт аудио: lossless
Продолжительность: 43:26
Rip by JET 1
Наличие сканов в содержимом раздачи: да
Треклист:
01. What Kind Of World Is This (5:04)
02. Let It Be Me (4:07)
03. Dreams Of Love (3:37)
04. If You Could See You (4:20)
05. Some Things Are Worth The Wait (4:25)
06. Seeing For The Very First Time (3:35)
07. Show Me (3:53)
08. All Of My Love (5:00)
09. Reach Out, I'll Be There (4:25)
10. Love Of My Life (4:58)
 
 
Лог создания рипа
Exact Audio Copy V1.0 beta 3 from 29. August 2011
EAC extraction logfile from 20. January 2016, 21:25
Barbara Weathers / Seeing For The Very First Time
Used drive : GENERIC CDRCB05 Adapter: 4 ID: 0
Read mode : Secure
Utilize accurate stream : Yes
Defeat audio cache : Yes
Make use of C2 pointers : No
Read offset correction : 102
Overread into Lead-In and Lead-Out : No
Fill up missing offset samples with silence : Yes
Delete leading and trailing silent blocks : No
Null samples used in CRC calculations : Yes
Used interface : Native Win32 interface for Win NT & 2000
Gap handling : Appended to previous track
Used output format : User Defined Encoder
Selected bitrate : 1024 kBit/s
Quality : High
Add ID3 tag : No
Command line compressor : C:\Program Files\FLAC\flac.exe
Additional command line options : -8 -V -T "ARTIST=%artist%" -T "TITLE=%title%" -T "ALBUM=%albumtitle%" -T "DATE=%year%" -T "TRACKNUMBER=%tracknr%" -T "GENRE=%genre%" -T "PERFORMER=%albuminterpret%" -T "COMPOSER=%composer%" %haslyrics%--tag-from-file=LYRICS="%lyricsfile%"%haslyrics% -T "ALBUMARTIST=%albumartist%" -T "DISCNUMBER=%cdnumber%" -T "TOTALDISCS=%totalcds%" -T "TOTALTRACKS=%numtracks%" -T "COMMENT=%comment%" %source% -o %dest%
TOC of the extracted CD
Track | Start | Length | Start sector | End sector
---------------------------------------------------------
1 | 0:00.00 | 5:03.72 | 0 | 22796
2 | 5:03.72 | 4:07.23 | 22797 | 41344
3 | 9:11.20 | 3:37.27 | 41345 | 57646
4 | 12:48.47 | 4:20.28 | 57647 | 77174
5 | 17:09.00 | 4:25.35 | 77175 | 97084
6 | 21:34.35 | 3:35.00 | 97085 | 113209
7 | 25:09.35 | 3:53.25 | 113210 | 130709
8 | 29:02.60 | 5:00.25 | 130710 | 153234
9 | 34:03.10 | 4:24.57 | 153235 | 173091
10 | 38:27.67 | 4:58.33 | 173092 | 195474
Track 1
Filename G:\POSTS\Barbara Weathers - Seeing For The Very First Time (1995)\01 - What Kind Of World Is This.wav
Pre-gap length 0:00:02.00
Peak level 99.0 %
Extraction speed 1.5 X
Track quality 100.0 %
Test CRC 12804BF6
Copy CRC 12804BF6
Accurately ripped (confidence 1) [F56BE46D] (AR v1)
Copy OK
Track 2
Filename G:\POSTS\Barbara Weathers - Seeing For The Very First Time (1995)\02 - Let It Be Me.wav
Pre-gap length 0:00:00.67
Peak level 96.3 %
Extraction speed 1.4 X
Track quality 99.9 %
Test CRC CF22D3B0
Copy CRC CF22D3B0
Accurately ripped (confidence 1) [DD3270C4] (AR v1)
Copy OK
Track 3
Filename G:\POSTS\Barbara Weathers - Seeing For The Very First Time (1995)\03 - Dreams Of Love.wav
Pre-gap length 0:00:01.65
Peak level 93.9 %
Extraction speed 1.7 X
Track quality 100.0 %
Test CRC E2758B17
Copy CRC E2758B17
Accurately ripped (confidence 1) [BE678D45] (AR v1)
Copy OK
Track 4
Filename G:\POSTS\Barbara Weathers - Seeing For The Very First Time (1995)\04 - If You Could See You.wav
Pre-gap length 0:00:01.30
Peak level 100.0 %
Extraction speed 1.9 X
Track quality 100.0 %
Test CRC 82E93E35
Copy CRC 82E93E35
Accurately ripped (confidence 1) [CC3620CE] (AR v1)
Copy OK
Track 5
Filename G:\POSTS\Barbara Weathers - Seeing For The Very First Time (1995)\05 - Some Things Are Worth The Wait.wav
Pre-gap length 0:00:00.38
Peak level 99.9 %
Extraction speed 2.0 X
Track quality 100.0 %
Test CRC 69E4B537
Copy CRC 69E4B537
Accurately ripped (confidence 1) [5572C535] (AR v1)
Copy OK
Track 6
Filename G:\POSTS\Barbara Weathers - Seeing For The Very First Time (1995)\06 - Seeing For The Very First Time.wav
Pre-gap length 0:00:00.03
Peak level 95.0 %
Extraction speed 2.1 X
Track quality 100.0 %
Test CRC 77A3316E
Copy CRC 77A3316E
Accurately ripped (confidence 1) [F606A6FD] (AR v1)
Copy OK
Track 7
Filename G:\POSTS\Barbara Weathers - Seeing For The Very First Time (1995)\07 - Show Me.wav
Pre-gap length 0:00:00.70
Peak level 91.6 %
Extraction speed 2.0 X
Track quality 100.0 %
Test CRC 0C272DA7
Copy CRC 0C272DA7
Accurately ripped (confidence 1) [4DD01401] (AR v1)
Copy OK
Track 8
Filename G:\POSTS\Barbara Weathers - Seeing For The Very First Time (1995)\08 - All Of My Love.wav
Pre-gap length 0:00:01.23
Peak level 100.0 %
Extraction speed 2.3 X
Track quality 100.0 %
Test CRC E6C871C2
Copy CRC E6C871C2
Accurately ripped (confidence 1) [4E27A292] (AR v1)
Copy OK
Track 9
Filename G:\POSTS\Barbara Weathers - Seeing For The Very First Time (1995)\09 - Reach Out, I'll Be There.wav
Pre-gap length 0:00:01.53
Peak level 99.9 %
Extraction speed 2.5 X
Track quality 100.0 %
Test CRC D6E41CD3
Copy CRC D6E41CD3
Accurately ripped (confidence 1) [6EF3767F] (AR v1)
Copy OK
Track 10
Filename G:\POSTS\Barbara Weathers - Seeing For The Very First Time (1995)\10 - Love Of My Life.wav
Pre-gap length 0:00:01.07
Peak level 99.2 %
Extraction speed 2.6 X
Track quality 100.0 %
Test CRC 5556A3E8
Copy CRC 5556A3E8
Accurately ripped (confidence 1) [7A699225] (AR v1)
Copy OK
All tracks accurately ripped
No errors occurred
End of status report
==== Log checksum 361D2CB17800F953E979D8A49452B10A4B699CC8A9858FF149F05A5CE350F0B1 ====
 
Содержание индексной карты (.CUE)
REM GENRE R&B
REM DATE 1995
REM DISCID 6D0A2E0A
REM COMMENT "ExactAudioCopy v1.0b3"
PERFORMER "Barbara Weathers"
TITLE "Seeing For The Very First Time"
FILE "01 - What Kind Of World Is This.wav" WAVE
TRACK 01 AUDIO
TITLE "What Kind Of World Is This"
PERFORMER "Barbara Weathers"
INDEX 01 00:00:00
TRACK 02 AUDIO
TITLE "Let It Be Me"
PERFORMER "Barbara Weathers"
INDEX 00 05:03:05
FILE "02 - Let It Be Me.wav" WAVE
INDEX 01 00:00:00
TRACK 03 AUDIO
TITLE "Dreams Of Love"
PERFORMER "Barbara Weathers"
INDEX 00 04:05:33
FILE "03 - Dreams Of Love.wav" WAVE
INDEX 01 00:00:00
TRACK 04 AUDIO
TITLE "If You Could See You"
PERFORMER "Barbara Weathers"
INDEX 00 03:35:72
FILE "04 - If You Could See You.wav" WAVE
INDEX 01 00:00:00
TRACK 05 AUDIO
TITLE "Some Things Are Worth The Wait"
PERFORMER "Barbara Weathers"
INDEX 00 04:19:65
FILE "05 - Some Things Are Worth The Wait.wav" WAVE
INDEX 01 00:00:00
TRACK 06 AUDIO
TITLE "Seeing For The Very First Time"
PERFORMER "Barbara Weathers"
INDEX 00 04:25:32
FILE "06 - Seeing For The Very First Time.wav" WAVE
INDEX 01 00:00:00
TRACK 07 AUDIO
TITLE "Show Me"
PERFORMER "Barbara Weathers"
INDEX 00 03:34:05
FILE "07 - Show Me.wav" WAVE
INDEX 01 00:00:00
TRACK 08 AUDIO
TITLE "All Of My Love"
PERFORMER "Barbara Weathers"
INDEX 00 03:52:02
FILE "08 - All Of My Love.wav" WAVE
INDEX 01 00:00:00
TRACK 09 AUDIO
TITLE "Reach Out, I'll Be There"
PERFORMER "Barbara Weathers"
INDEX 00 04:58:47
FILE "09 - Reach Out, I'll Be There.wav" WAVE
INDEX 01 00:00:00
TRACK 10 AUDIO
TITLE "Love Of My Life"
PERFORMER "Barbara Weathers"
INDEX 00 04:23:50
FILE "10 - Love Of My Life.wav" WAVE
INDEX 01 00:00:00
Приватный:
Нет (DHT включён)
Размер:
440.47 Мб (461,870,021 байт) » файлов: 38
Участники:
0 раздают, 0 качают (0 участников всего)
Внешние участники:
2 раздают, 1 качают (3 участников всего) [ Обновить ]
Есть вопросы - пишите личное сообщение пользователю M0p94ok.
09:36
56
Нет комментариев. Ваш будет первым!