Поиск

(Soul, Funk) [CD] The Blackbyrds - Flying Start (1974) - 2014, FLAC (tracks+.cue), lossless

(Soul, Funk) [CD] The Blackbyrds - Flying Start (1974) - 2014, FLAC (tracks+.cue), lossless
Треклист:
The Blackbyrds - Flying Start (1974) Жанр: Soul, Funk
Носитель: CD
Страна-производитель диска (релиза): Japan
Год издания: 2014
Издатель (лейбл): Universal Music
Номер по каталогу: UCCO-90335
Аудиокодек: FLAC (*.flac)
Тип рипа: tracks+.cue
Битрейт аудио: lossless
Продолжительность: 38:52
Rip by JET 1
Наличие сканов в содержимом раздачи: да
Треклист:
01. I Need You (5:33)
02. The Baby (5:21)
03. Love Is Love (4:49)
04. Blackbyrds' Theme (4:07)
05. Walking In Rhythm (4:17)
06. Future Children, Future Hopes (4:43)
07. April Showers (3:52)
08. Spaced Out (6:11)
 
 
Лог создания рипа
Exact Audio Copy V1.0 beta 3 from 29. August 2011
EAC extraction logfile from 19. January 2016, 21:29
The Blackbyrds / Flying Start
Used drive : GENERIC CDRCB05 Adapter: 4 ID: 0
Read mode : Secure
Utilize accurate stream : Yes
Defeat audio cache : Yes
Make use of C2 pointers : No
Read offset correction : 102
Overread into Lead-In and Lead-Out : No
Fill up missing offset samples with silence : Yes
Delete leading and trailing silent blocks : No
Null samples used in CRC calculations : Yes
Used interface : Native Win32 interface for Win NT & 2000
Gap handling : Appended to previous track
Used output format : User Defined Encoder
Selected bitrate : 1024 kBit/s
Quality : High
Add ID3 tag : No
Command line compressor : C:\Program Files\FLAC\flac.exe
Additional command line options : -8 -V -T "ARTIST=%artist%" -T "TITLE=%title%" -T "ALBUM=%albumtitle%" -T "DATE=%year%" -T "TRACKNUMBER=%tracknr%" -T "GENRE=%genre%" -T "PERFORMER=%albuminterpret%" -T "COMPOSER=%composer%" %haslyrics%--tag-from-file=LYRICS="%lyricsfile%"%haslyrics% -T "ALBUMARTIST=%albumartist%" -T "DISCNUMBER=%cdnumber%" -T "TOTALDISCS=%totalcds%" -T "TOTALTRACKS=%numtracks%" -T "COMMENT=%comment%" %source% -o %dest%
TOC of the extracted CD
Track | Start | Length | Start sector | End sector
---------------------------------------------------------
1 | 0:00.00 | 5:33.23 | 0 | 24997
2 | 5:33.23 | 5:20.40 | 24998 | 49037
3 | 10:53.63 | 4:48.69 | 49038 | 70706
4 | 15:42.57 | 4:07.26 | 70707 | 89257
5 | 19:50.08 | 4:16.42 | 89258 | 108499
6 | 24:06.50 | 4:42.43 | 108500 | 129692
7 | 28:49.18 | 3:52.07 | 129693 | 147099
8 | 32:41.25 | 6:10.61 | 147100 | 174910
Track 1
Filename G:\POSTS\The Blackbyrds - Flying Start (1974) [2014 Rare Groove Funk Best Collection 1000]\01 - I Need You.wav
Pre-gap length 0:00:02.00
Peak level 96.5 %
Extraction speed 2.2 X
Track quality 99.9 %
Test CRC D129EE78
Copy CRC D129EE78
Accurately ripped (confidence 3) [DDE78C9E] (AR v2)
Copy OK
Track 2
Filename G:\POSTS\The Blackbyrds - Flying Start (1974) [2014 Rare Groove Funk Best Collection 1000]\02 - The Baby.wav
Pre-gap length 0:00:02.74
Peak level 99.9 %
Extraction speed 2.7 X
Track quality 100.0 %
Test CRC 0475B036
Copy CRC 0475B036
Accurately ripped (confidence 3) [0BDF0F0B] (AR v2)
Copy OK
Track 3
Filename G:\POSTS\The Blackbyrds - Flying Start (1974) [2014 Rare Groove Funk Best Collection 1000]\03 - Love Is Love.wav
Pre-gap length 0:00:02.72
Peak level 89.6 %
Extraction speed 3.1 X
Track quality 100.0 %
Test CRC A99C10E7
Copy CRC A99C10E7
Accurately ripped (confidence 3) [08AE1156] (AR v2)
Copy OK
Track 4
Filename G:\POSTS\The Blackbyrds - Flying Start (1974) [2014 Rare Groove Funk Best Collection 1000]\04 - Blackbyrds' Theme.wav
Pre-gap length 0:00:03.08
Peak level 97.0 %
Extraction speed 2.6 X
Track quality 99.9 %
Test CRC E4FF7495
Copy CRC E4FF7495
Accurately ripped (confidence 3) [5742484A] (AR v2)
Copy OK
Track 5
Filename G:\POSTS\The Blackbyrds - Flying Start (1974) [2014 Rare Groove Funk Best Collection 1000]\05 - Walking In Rhythm.wav
Pre-gap length 0:00:02.62
Peak level 89.1 %
Extraction speed 3.2 X
Track quality 100.0 %
Test CRC 9FAE8622
Copy CRC 9FAE8622
Accurately ripped (confidence 3) [34F1B959] (AR v2)
Copy OK
Track 6
Filename G:\POSTS\The Blackbyrds - Flying Start (1974) [2014 Rare Groove Funk Best Collection 1000]\06 - Future Children, Future Hopes.wav
Pre-gap length 0:00:03.01
Peak level 93.2 %
Extraction speed 3.7 X
Track quality 100.0 %
Test CRC 8EDB5232
Copy CRC 8EDB5232
Accurately ripped (confidence 3) [077C68CD] (AR v2)
Copy OK
Track 7
Filename G:\POSTS\The Blackbyrds - Flying Start (1974) [2014 Rare Groove Funk Best Collection 1000]\07 - April Showers.wav
Pre-gap length 0:00:03.67
Peak level 76.4 %
Extraction speed 3.2 X
Track quality 99.9 %
Test CRC B6D7DA8E
Copy CRC B6D7DA8E
Accurately ripped (confidence 3) [DF3E1127] (AR v2)
Copy OK
Track 8
Filename G:\POSTS\The Blackbyrds - Flying Start (1974) [2014 Rare Groove Funk Best Collection 1000]\08 - Spaced Out.wav
Pre-gap length 0:00:02.24
Peak level 99.9 %
Extraction speed 4.1 X
Track quality 100.0 %
Test CRC 667A9953
Copy CRC 667A9953
Accurately ripped (confidence 3) [86F59704] (AR v2)
Copy OK
All tracks accurately ripped
No errors occurred
End of status report
==== Log checksum 735ACCD48C035AA5A3EB2BE05BC8219ABAC54FC3D51BDF5FC7BEAF47CF8D77D0 ====
 
Содержание индексной карты (.CUE)
REM GENRE Jazz+Funk
REM DATE 1974
REM DISCID 6B091C08
REM COMMENT "ExactAudioCopy v1.0b3"
PERFORMER "The Blackbyrds"
TITLE "Flying Start"
FILE "01 - I Need You.wav" WAVE
TRACK 01 AUDIO
TITLE "I Need You"
PERFORMER "The Blackbyrds"
INDEX 01 00:00:00
TRACK 02 AUDIO
TITLE "The Baby"
PERFORMER "The Blackbyrds"
INDEX 00 05:30:24
FILE "02 - The Baby.wav" WAVE
INDEX 01 00:00:00
TRACK 03 AUDIO
TITLE "Love Is Love"
PERFORMER "The Blackbyrds"
INDEX 00 05:17:43
FILE "03 - Love Is Love.wav" WAVE
INDEX 01 00:00:00
TRACK 04 AUDIO
TITLE "Blackbyrds' Theme"
PERFORMER "The Blackbyrds"
INDEX 00 04:45:61
FILE "04 - Blackbyrds' Theme.wav" WAVE
INDEX 01 00:00:00
TRACK 05 AUDIO
TITLE "Walking In Rhythm"
PERFORMER "The Blackbyrds"
INDEX 00 04:04:39
FILE "05 - Walking In Rhythm.wav" WAVE
INDEX 01 00:00:00
TRACK 06 AUDIO
TITLE "Future Children, Future Hopes"
PERFORMER "The Blackbyrds"
INDEX 00 04:13:41
FILE "06 - Future Children, Future Hopes.wav" WAVE
INDEX 01 00:00:00
TRACK 07 AUDIO
TITLE "April Showers"
PERFORMER "The Blackbyrds"
INDEX 00 04:38:51
FILE "07 - April Showers.wav" WAVE
INDEX 01 00:00:00
TRACK 08 AUDIO
TITLE "Spaced Out"
PERFORMER "The Blackbyrds"
INDEX 00 03:49:58
FILE "08 - Spaced Out.wav" WAVE
INDEX 01 00:00:00
Приватный:
Нет (DHT включён)
Размер:
338.00 Мб (354,414,220 байт) » файлов: 23
Участники:
0 раздают, 1 качают (1 участников всего)
Внешние участники:
3 раздают, 1 качают (4 участников всего) [ Обновить ]
Скорость:
9.33 Кб/c 0/c
No seeders - write a personal message to user M0p94ok. Нет сидеров - пишите личное сообщение пользователю M0p94ok.
09:35
161
Нет комментариев. Ваш будет первым!