Поиск

(Funk, Soul) [CD] Commodores - Hot On The Tracks / In The Pocket - 1986, FLAC (image+.cue), lossless

(Funk, Soul) [CD] Commodores - Hot On The Tracks / In The Pocket - 1986, FLAC (image+.cue), lossless
Треклист:
Commodores - Hot On The Tracks / In The Pocket Жанр: Funk, Soul
Носитель: CD
Год издания: 1986
Издатель (лейбл): Tamla Motown
Номер по каталогу: ZD72551
Аудиокодек: FLAC (*.flac)
Тип рипа: image+.cue
Битрейт аудио: lossless
Продолжительность: 72:09
Rip by RunawayTrane
Наличие сканов в содержимом раздачи: да
Треклист:
~ Hot On The Tracks (1976) ~
01. Let's Get Started (3:54)
02. Girl, I Think The World About You (4:26)
03. High On Sunshine (3:08)
04. Just To Be Close To You (7:01)
05. Fancy Dancer (4:25)
06. Come Inside (3:46)
07. Thumpin' Music (3:26)
08. Quick Draw (4:20)
09. Can't Let You Tease Me (3:15)
~ In The Pocket (1981) ~
10. Lady (You Bring Me Up) (3:59)
11. Saturday Night (3:55)
12. Keep On Taking Me Higher (5:24)
13. Oh No (3:01)
14. Why You Wanna Try Me (3:56)
15. This Love (5:19)
16. Been Loving You (3:56)
17. Lucy (5:00)
 
 
Лог создания рипа
Exact Audio Copy V1.0 beta 6 from 9. April 2015
EAC extraction logfile from 18. November 2015, 0:20
Commodores / Hot On The Tracks / In The Pocket
Used drive : Memorex 52MAXX 3252AJ1 Adapter: 1 ID: 1
Read mode : Secure
Utilize accurate stream : Yes
Defeat audio cache : Yes
Make use of C2 pointers : No
Read offset correction : 6
Overread into Lead-In and Lead-Out : No
Fill up missing offset samples with silence : Yes
Delete leading and trailing silent blocks : No
Null samples used in CRC calculations : Yes
Used interface : Native Win32 interface for Win NT & 2000
Used output format : User Defined Encoder
Selected bitrate : 1024 kBit/s
Quality : High
Add ID3 tag : No
Command line compressor : C:\Program Files (x86)\Exact Audio Copy\Flac\flac.exe
Additional command line options : %ishigh%-V -p -l 12 -b 4096 -m -e -r 8%ishigh%%islow%-5%islow% --replay-gain -T "ARTIST=%artist%" -T "ALBUM=%albumtitle%" -T "TITLE=%title%" -T "DATE=%year%" -T "TRACKNUMBER=%tracknr%" -T "GENRE=%genre%" -T "ENSEMBLE=%albuminterpret%" -T "ALBUMARTIST=%albumartist%" -T "COMPOSER=%albumcomposer%" -T "DISCNUMBER=%cdnumber%" -T "TOTALDISCS=%totalcds%" -T "TOTALTRACKS=%numtracks%" -T "SOURCEMEDIA=CD" -T "COMMENT=%comment%" %hascover%-T "PICTURE=%coverfile%"%hascover% %source%
TOC of the extracted CD
Track | Start | Length | Start sector | End sector
---------------------------------------------------------
1 | 0:00.00 | 3:53.52 | 0 | 17526
2 | 3:53.52 | 4:25.70 | 17527 | 37471
3 | 8:19.47 | 3:08.20 | 37472 | 51591
4 | 11:27.67 | 7:00.40 | 51592 | 83131
5 | 18:28.32 | 4:24.53 | 83132 | 102984
6 | 22:53.10 | 3:46.25 | 102985 | 119959
7 | 26:39.35 | 3:26.02 | 119960 | 135411
8 | 30:05.37 | 4:19.48 | 135412 | 154884
9 | 34:25.10 | 3:14.57 | 154885 | 169491
10 | 37:39.67 | 3:58.43 | 169492 | 187384
11 | 41:38.35 | 3:54.70 | 187385 | 205004
12 | 45:33.30 | 5:23.65 | 205005 | 229294
13 | 50:57.20 | 3:01.30 | 229295 | 242899
14 | 53:58.50 | 3:55.62 | 242900 | 260586
15 | 57:54.37 | 5:18.65 | 260587 | 284501
16 | 63:13.27 | 3:55.48 | 284502 | 302174
17 | 67:09.00 | 4:59.72 | 302175 | 324671
Range status and errors
Selected range
Filename C:\Users\M@ce\Music\Archives\Rips\Commodores - Hot On The Tracks , In The Pocket.wav
Peak level 100.0 %
Extraction speed 6.4 X
Range quality 99.9 %
Test CRC 68340833
Copy CRC 68340833
Copy OK
No errors occurred
AccurateRip summary
Track 1 accurately ripped (confidence 5) [2F75E620] (AR v2)
Track 2 accurately ripped (confidence 5) [788CEE84] (AR v2)
Track 3 accurately ripped (confidence 5) [E1C5C992] (AR v2)
Track 4 accurately ripped (confidence 5) [8F4A0DCF] (AR v2)
Track 5 accurately ripped (confidence 5) [2961AC2D] (AR v2)
Track 6 accurately ripped (confidence 5) [7AB2798E] (AR v2)
Track 7 accurately ripped (confidence 5) [CE4C1FBC] (AR v2)
Track 8 accurately ripped (confidence 5) [7A5D4CB2] (AR v2)
Track 9 accurately ripped (confidence 5) [F79D8E0B] (AR v2)
Track 10 accurately ripped (confidence 5) [912543F3] (AR v2)
Track 11 accurately ripped (confidence 5) [B7FCF3EB] (AR v2)
Track 12 accurately ripped (confidence 5) [34F8B624] (AR v2)
Track 13 accurately ripped (confidence 5) [0A5AEF78] (AR v2)
Track 14 accurately ripped (confidence 5) [E76BE205] (AR v2)
Track 15 accurately ripped (confidence 5) [02FF8846] (AR v2)
Track 16 accurately ripped (confidence 5) [1214EB2E] (AR v2)
Track 17 accurately ripped (confidence 5) [6F4B1AB9] (AR v2)
All tracks accurately ripped
End of status report
---- CUETools DB Plugin V2.1.6
[CTDB TOCID: Eyt0dL6Cmo36THkLmizIyGgEeSc-] found
Submit result: Eyt0dL6Cmo36THkLmizIyGgEeSc- has been confirmed
Track | CTDB Status
1 | (5/5) Accurately ripped
2 | (5/5) Accurately ripped
3 | (5/5) Accurately ripped
4 | (5/5) Accurately ripped
5 | (5/5) Accurately ripped
6 | (5/5) Accurately ripped
7 | (5/5) Accurately ripped
8 | (5/5) Accurately ripped
9 | (5/5) Accurately ripped
10 | (5/5) Accurately ripped
11 | (5/5) Accurately ripped
12 | (5/5) Accurately ripped
13 | (5/5) Accurately ripped
14 | (5/5) Accurately ripped
15 | (5/5) Accurately ripped
16 | (5/5) Accurately ripped
17 | (5/5) Accurately ripped
==== Log checksum 3DF85F0A0B7A4FB2E09D7A1BE395EABBC722503FD820A5A880DB60BA7C103BC5 ====
 
Содержание индексной карты (.CUE)
REM GENRE Funk
REM DATE 1986
REM DISCID D410E811
REM COMMENT "ExactAudioCopy v1.0b6"
PERFORMER "Commodores"
TITLE "Hot On The Tracks / In The Pocket"
FILE "Commodores - Hot On The Tracks , In The Pocket.flac" WAVE
TRACK 01 AUDIO
TITLE "Let's Get Started"
PERFORMER "Commodores"
INDEX 01 00:00:00
TRACK 02 AUDIO
TITLE "Girl, I Think The World About You"
PERFORMER "Commodores"
INDEX 00 03:52:40
INDEX 01 03:53:52
TRACK 03 AUDIO
TITLE "High On Sunshine"
PERFORMER "Commodores"
INDEX 00 08:18:67
INDEX 01 08:19:47
TRACK 04 AUDIO
TITLE "Just To Be Close To You"
PERFORMER "Commodores"
INDEX 00 11:26:32
INDEX 01 11:27:67
TRACK 05 AUDIO
TITLE "Fancy Dancer"
PERFORMER "Commodores"
INDEX 00 18:25:67
INDEX 01 18:28:32
TRACK 06 AUDIO
TITLE "Come Inside"
PERFORMER "Commodores"
INDEX 01 22:53:10
TRACK 07 AUDIO
TITLE "Thumpin' Music"
PERFORMER "Commodores"
INDEX 00 26:38:57
INDEX 01 26:39:35
TRACK 08 AUDIO
TITLE "Quick Draw"
PERFORMER "Commodores"
INDEX 00 30:04:52
INDEX 01 30:05:37
TRACK 09 AUDIO
TITLE "Can't Let You Tease Me"
PERFORMER "Commodores"
INDEX 00 34:23:65
INDEX 01 34:25:10
TRACK 10 AUDIO
TITLE "Lady (You Bring Me Up)"
PERFORMER "Commodores"
INDEX 00 37:39:00
INDEX 01 37:39:67
TRACK 11 AUDIO
TITLE "Saturday Night"
PERFORMER "Commodores"
INDEX 00 41:37:05
INDEX 01 41:38:35
TRACK 12 AUDIO
TITLE "Keep On Taking Me Higher"
PERFORMER "Commodores"
INDEX 00 45:31:67
INDEX 01 45:33:30
TRACK 13 AUDIO
TITLE "Oh No"
PERFORMER "Commodores"
INDEX 00 50:55:52
INDEX 01 50:57:20
TRACK 14 AUDIO
TITLE "Why You Wanna Try Me"
PERFORMER "Commodores"
INDEX 00 53:56:67
INDEX 01 53:58:50
TRACK 15 AUDIO
TITLE "This Love"
PERFORMER "Commodores"
INDEX 00 57:52:04
INDEX 01 57:54:37
TRACK 16 AUDIO
TITLE "Been Loving You"
PERFORMER "Commodores"
INDEX 00 63:11:37
INDEX 01 63:13:27
TRACK 17 AUDIO
TITLE "Lucy"
PERFORMER "Commodores"
INDEX 00 67:08:17
INDEX 01 67:09:00
Приватный:
Нет (DHT включён)
Размер:
453.50 Мб (475,526,645 байт) » файлов: 12
Участники:
0 раздают, 0 качают (0 участников всего)
Внешние участники:
2 раздают, 1 качают (3 участников всего) [ Обновить ]
No seeders - write a personal message to user M0p94ok. Нет сидеров - пишите личное сообщение пользователю M0p94ok.
09:35
77
Нет комментариев. Ваш будет первым!