Поиск

(Funk, Soul, R&B) [CD] Teddy Pendergrass - Original Album Classics (5 CD Box Set) - 2014, FLAC (tracks+.cue), lossless

(Funk, Soul, R&B) [CD] Teddy Pendergrass - Original Album Classics (5 CD Box Set) - 2014, FLAC (tracks+.cue), lossless
Треклист:
Teddy Pendergrass - Original Album Classics (5 CD Box Set)

Жанр: Funk, Soul, R&B
Носитель: CD
Год издания: 2014
Издатель (лейбл): Sony Music/Legacy/Philadelphia International Records
Номер по каталогу: 88843043842
Аудиокодек: FLAC (*.flac)
Тип рипа: tracks+.cue
Битрейт аудио: lossless
Продолжительность: 03:20:43
Источник (релизер): ruskaval
Наличие сканов в содержимом раздачи: да 
 
 
1977 - Teddy Pendergrass
Продолжительность: 36:45
Треклист:
01. You Can't Hide From Yourself (4:07)
02. Somebody Told Me (5:13)
03. Be Sure (5:17)
04. And If I Had (4:23)
05. I Don't Love You Anymore (3:59)
06. The Whole Town's Laughing At Me (4:28)
07. Easy Easy Got To Take It Easy (4:53)
08. The More I Get The More I Want (4:25)
 
 
Лог создания рипа
Exact Audio Copy V1.0 beta 3 from 29. August 2011
EAC extraction logfile from 13. September 2014, 9:53
Teddy Pendergrass / Teddy Pendergrass
Used drive : TSSTcorp CDDVDW Adapter: 0 ID: 0
Read mode : Secure
Utilize accurate stream : Yes
Defeat audio cache : Yes
Make use of C2 pointers : No
Read offset correction : 6
Overread into Lead-In and Lead-Out : No
Fill up missing offset samples with silence : Yes
Delete leading and trailing silent blocks : No
Null samples used in CRC calculations : Yes
Used interface : Native Win32 interface for Win NT & 2000
Gap handling : Appended to previous track
Used output format : User Defined Encoder
Selected bitrate : 128 kBit/s
Quality : High
Add ID3 tag : No
Command line compressor : C:\Program Files (x86)\Exact Audio Copy\Flac\flac.exe
Additional command line options : -8 -V -T "ARTIST=%artist%" -T "TITLE=%title%" -T "ALBUM=%albumtitle%" -T "DATE=%year%" -T "TRACKNUMBER=%tracknr%" -T "TOTALTRACKS=%numtracks%" -T "GENRE=%genre%" -T "ALBUMARTIST=%albumartist%" -T "ALBUM ARTIST=%albumartist%" -T "COMMENT=EAC Secure Mode, Test & Copy, AccurateRip, FLAC -8" %source%
TOC of the extracted CD
Track | Start | Length | Start sector | End sector
---------------------------------------------------------
1 | 0:00.00 | 4:07.33 | 0 | 18557
2 | 4:07.33 | 5:12.70 | 18558 | 42027
3 | 9:20.28 | 5:16.67 | 42028 | 65794
4 | 14:37.20 | 4:23.10 | 65795 | 85529
5 | 19:00.30 | 3:59.17 | 85530 | 103471
6 | 22:59.47 | 4:28.28 | 103472 | 123599
7 | 27:28.00 | 4:52.57 | 123600 | 145556
8 | 32:20.57 | 4:24.46 | 145557 | 165402
Track 1
Filename C:\AddisistheGodFlac\01 - You Can't Hide From Yourself.wav
Pre-gap length 0:00:02.00
Peak level 98.0 %
Extraction speed 2.6 X
Track quality 100.0 %
Test CRC 0F4825B2
Copy CRC 0F4825B2
Accurately ripped (confidence 12) [737F4F4C] (AR v2)
Copy OK
Track 2
Filename C:\AddisistheGodFlac\02 - Somebody Told Me.wav
Pre-gap length 0:00:01.10
Peak level 99.9 %
Extraction speed 3.1 X
Track quality 100.0 %
Test CRC 213E1FC2
Copy CRC 213E1FC2
Accurately ripped (confidence 12) [33C0E4FB] (AR v2)
Copy OK
Track 3
Filename C:\AddisistheGodFlac\03 - Be Sure.wav
Pre-gap length 0:00:00.62
Peak level 99.9 %
Extraction speed 3.4 X
Track quality 100.0 %
Test CRC F60DE0ED
Copy CRC F60DE0ED
Accurately ripped (confidence 12) [E46EF9AF] (AR v2)
Copy OK
Track 4
Filename C:\AddisistheGodFlac\04 - And If I Had.wav
Pre-gap length 0:00:01.08
Peak level 96.1 %
Extraction speed 3.6 X
Track quality 100.0 %
Test CRC 15A63E18
Copy CRC 15A63E18
Accurately ripped (confidence 12) [3396BB54] (AR v2)
Copy OK
Track 5
Filename C:\AddisistheGodFlac\05 - I Don't Love You Anymore.wav
Pre-gap length 0:00:01.33
Peak level 99.9 %
Extraction speed 3.8 X
Track quality 100.0 %
Test CRC C9C812F1
Copy CRC C9C812F1
Accurately ripped (confidence 12) [2B6352BD] (AR v2)
Copy OK
Track 6
Filename C:\AddisistheGodFlac\06 - The Whole Town's Laughing At Me.wav
Pre-gap length 0:00:01.00
Peak level 99.9 %
Extraction speed 4.1 X
Track quality 100.0 %
Test CRC AEFC653D
Copy CRC AEFC653D
Accurately ripped (confidence 12) [1089EEA5] (AR v2)
Copy OK
Track 7
Filename C:\AddisistheGodFlac\07 - Easy Easy Got To Take It Easy.wav
Pre-gap length 0:00:01.17
Peak level 99.9 %
Extraction speed 4.3 X
Track quality 100.0 %
Test CRC 6B641591
Copy CRC 6B641591
Accurately ripped (confidence 12) [857A00FE] (AR v2)
Copy OK
Track 8
Filename C:\AddisistheGodFlac\08 - The More I Get The More I Want.wav
Peak level 99.9 %
Extraction speed 3.7 X
Track quality 99.9 %
Test CRC 1D3F824F
Copy CRC 1D3F824F
Accurately ripped (confidence 12) [9D9D1272] (AR v2)
Copy OK
All tracks accurately ripped
No errors occurred
End of status report
==== Log checksum 5F64F9FD2179C9BC4FDEC2F7AE62CD45438E05480945F2BAC6DF96763B9927D2 ====
 
Содержание индексной карты (.CUE)
REM GENRE Soul
REM DATE 1977
REM DISCID 67089D08
REM COMMENT "ExactAudioCopy v1.0b3"
PERFORMER "Teddy Pendergrass"
TITLE "Teddy Pendergrass"
FILE "01 - You Can't Hide From Yourself.wav" WAVE
TRACK 01 AUDIO
TITLE "You Can't Hide From Yourself"
PERFORMER "Teddy Pendergrass"
INDEX 01 00:00:00
TRACK 02 AUDIO
TITLE "Somebody Told Me"
PERFORMER "Teddy Pendergrass"
INDEX 00 04:06:23
FILE "02 - Somebody Told Me.wav" WAVE
INDEX 01 00:00:00
TRACK 03 AUDIO
TITLE "Be Sure"
PERFORMER "Teddy Pendergrass"
INDEX 00 05:12:08
FILE "03 - Be Sure.wav" WAVE
INDEX 01 00:00:00
TRACK 04 AUDIO
TITLE "And If I Had"
PERFORMER "Teddy Pendergrass"
INDEX 00 05:15:59
FILE "04 - And If I Had.wav" WAVE
INDEX 01 00:00:00
TRACK 05 AUDIO
TITLE "I Don't Love You Anymore"
PERFORMER "Teddy Pendergrass"
INDEX 00 04:21:52
FILE "05 - I Don't Love You Anymore.wav" WAVE
INDEX 01 00:00:00
TRACK 06 AUDIO
TITLE "The Whole Town's Laughing At Me"
PERFORMER "Teddy Pendergrass"
INDEX 00 03:58:17
FILE "06 - The Whole Town's Laughing At Me.wav" WAVE
INDEX 01 00:00:00
TRACK 07 AUDIO
TITLE "Easy Easy Got To Take It Easy"
PERFORMER "Teddy Pendergrass"
INDEX 00 04:27:11
FILE "07 - Easy Easy Got To Take It Easy.wav" WAVE
INDEX 01 00:00:00
FILE "08 - The More I Get The More I Want.wav" WAVE
TRACK 08 AUDIO
TITLE "The More I Get The More I Want"
PERFORMER "Teddy Pendergrass"
INDEX 01 00:00:00
 
1978 - Life Is A Song Worth Singing
Продолжительность: 46:30
Треклист:
01. Life Is A Song Worth Singing (4:12)
02. Only You (5:06)
03. Cold Cold World (4:35)
04. Get Up Get Down Get Funky Get Loose (5:25)
05. Close The Door (5:27)
06. It Don't Hurt Now (6:02)
07. When Somebody Loves You Back (4:59)
08. Only You (Single Version) (3:35)
09. Get Down Get Funky (Disco Version) (7:09)
 
 
Лог создания рипа
Exact Audio Copy V1.0 beta 3 from 29. August 2011
EAC extraction logfile from 13. September 2014, 10:49
Teddy Pendergrass / Life Is A Song Worth Singing
Used drive : TSSTcorp CDDVDW Adapter: 0 ID: 0
Read mode : Secure
Utilize accurate stream : Yes
Defeat audio cache : Yes
Make use of C2 pointers : No
Read offset correction : 6
Overread into Lead-In and Lead-Out : No
Fill up missing offset samples with silence : Yes
Delete leading and trailing silent blocks : No
Null samples used in CRC calculations : Yes
Used interface : Native Win32 interface for Win NT & 2000
Gap handling : Appended to previous track
Used output format : User Defined Encoder
Selected bitrate : 128 kBit/s
Quality : High
Add ID3 tag : No
Command line compressor : C:\Program Files (x86)\Exact Audio Copy\Flac\flac.exe
Additional command line options : -8 -V -T "ARTIST=%artist%" -T "TITLE=%title%" -T "ALBUM=%albumtitle%" -T "DATE=%year%" -T "TRACKNUMBER=%tracknr%" -T "TOTALTRACKS=%numtracks%" -T "GENRE=%genre%" -T "ALBUMARTIST=%albumartist%" -T "ALBUM ARTIST=%albumartist%" -T "COMMENT=EAC Secure Mode, Test & Copy, AccurateRip, FLAC -8" %source%
TOC of the extracted CD
Track | Start | Length | Start sector | End sector
---------------------------------------------------------
1 | 0:00.00 | 4:11.44 | 0 | 18868
2 | 4:11.44 | 5:05.59 | 18869 | 41802
3 | 9:17.28 | 4:34.46 | 41803 | 62398
4 | 13:51.74 | 5:24.71 | 62399 | 86769
5 | 19:16.70 | 5:27.21 | 86770 | 111315
6 | 24:44.16 | 6:02.04 | 111316 | 138469
7 | 30:46.20 | 4:59.23 | 138470 | 160917
8 | 35:45.43 | 3:35.37 | 160918 | 177079
9 | 39:21.05 | 7:09.21 | 177080 | 209275
Track 1
Filename C:\AddisistheGodFlac\01 - Life Is A Song Worth Singing.wav
Pre-gap length 0:00:02.00
Peak level 99.9 %
Extraction speed 2.7 X
Track quality 100.0 %
Test CRC 2F77C4C8
Copy CRC 2F77C4C8
Accurately ripped (confidence 9) [BF6ABE0A] (AR v2)
Copy OK
Track 2
Filename C:\AddisistheGodFlac\02 - Only You.wav
Pre-gap length 0:00:00.61
Peak level 99.9 %
Extraction speed 2.6 X
Track quality 99.9 %
Test CRC 00DE100D
Copy CRC 00DE100D
Accurately ripped (confidence 9) [0704E1C7] (AR v2)
Copy OK
Track 3
Filename C:\AddisistheGodFlac\03 - Cold Cold World.wav
Pre-gap length 0:00:01.72
Peak level 99.9 %
Extraction speed 3.3 X
Track quality 100.0 %
Test CRC 9F8C820D
Copy CRC 9F8C820D
Accurately ripped (confidence 9) [DDC46F0D] (AR v2)
Copy OK
Track 4
Filename C:\AddisistheGodFlac\04 - Get Up Get Down Get Funky Get Loose.wav
Pre-gap length 0:00:01.63
Peak level 99.9 %
Extraction speed 3.7 X
Track quality 100.0 %
Test CRC 4736FED0
Copy CRC 4736FED0
Accurately ripped (confidence 9) [1E948A8E] (AR v2)
Copy OK
Track 5
Filename C:\AddisistheGodFlac\05 - Close The Door.wav
Pre-gap length 0:00:01.30
Peak level 99.8 %
Extraction speed 4.0 X
Track quality 100.0 %
Test CRC 69BDFFA6
Copy CRC 69BDFFA6
Accurately ripped (confidence 9) [E59636B0] (AR v2)
Copy OK
Track 6
Filename C:\AddisistheGodFlac\06 - It Don't Hurt Now.wav
Pre-gap length 0:00:01.59
Peak level 94.1 %
Extraction speed 4.3 X
Track quality 100.0 %
Test CRC 964843BB
Copy CRC 964843BB
Accurately ripped (confidence 9) [49F13681] (AR v2)
Copy OK
Track 7
Filename C:\AddisistheGodFlac\07 - When Somebody Loves You Back.wav
Pre-gap length 0:00:01.49
Peak level 99.8 %
Extraction speed 4.4 X
Track quality 100.0 %
Test CRC E00382C0
Copy CRC E00382C0
Accurately ripped (confidence 9) [7C5C3A47] (AR v2)
Copy OK
Track 8
Filename C:\AddisistheGodFlac\08 - Only You (Single Version).wav
Pre-gap length 0:00:02.32
Peak level 99.9 %
Extraction speed 4.4 X
Track quality 100.0 %
Test CRC 7D5E549E
Copy CRC 7D5E549E
Accurately ripped (confidence 9) [59094D99] (AR v2)
Copy OK
Track 9
Filename C:\AddisistheGodFlac\09 - Get Down Get Funky (Disco Version).wav
Pre-gap length 0:00:01.44
Peak level 89.0 %
Extraction speed 4.4 X
Track quality 99.9 %
Test CRC 1A5C9FCB
Copy CRC 1A5C9FCB
Accurately ripped (confidence 9) [9D3DD3E8] (AR v2)
Copy OK
All tracks accurately ripped
No errors occurred
End of status report
==== Log checksum 27C4AA3B8395ADD1F96A86F2024A1653DAE6FF4E36065869172CB9B7646509EF ====
 
Содержание индексной карты (.CUE)
REM GENRE Soul
REM DATE 1978
REM DISCID 800AE609
REM COMMENT "ExactAudioCopy v1.0b3"
PERFORMER "Teddy Pendergrass"
TITLE "Life Is A Song Worth Singing"
FILE "01 - Life Is A Song Worth Singing.wav" WAVE
TRACK 01 AUDIO
TITLE "Life Is A Song Worth Singing"
PERFORMER "Teddy Pendergrass"
INDEX 01 00:00:00
TRACK 02 AUDIO
TITLE "Only You"
PERFORMER "Teddy Pendergrass"
INDEX 00 04:10:58
FILE "02 - Only You.wav" WAVE
INDEX 01 00:00:00
TRACK 03 AUDIO
TITLE "Cold Cold World"
PERFORMER "Teddy Pendergrass"
INDEX 00 05:03:62
FILE "03 - Cold Cold World.wav" WAVE
INDEX 01 00:00:00
TRACK 04 AUDIO
TITLE "Get Up Get Down Get Funky Get Loose"
PERFORMER "Teddy Pendergrass"
INDEX 00 04:32:58
FILE "04 - Get Up Get Down Get Funky Get Loose.wav" WAVE
INDEX 01 00:00:00
TRACK 05 AUDIO
TITLE "Close The Door"
PERFORMER "Teddy Pendergrass"
INDEX 00 05:23:41
FILE "05 - Close The Door.wav" WAVE
INDEX 01 00:00:00
TRACK 06 AUDIO
TITLE "It Don't Hurt Now"
PERFORMER "Teddy Pendergrass"
INDEX 00 05:25:37
FILE "06 - It Don't Hurt Now.wav" WAVE
INDEX 01 00:00:00
TRACK 07 AUDIO
TITLE "When Somebody Loves You Back"
PERFORMER "Teddy Pendergrass"
INDEX 00 06:00:30
FILE "07 - When Somebody Loves You Back.wav" WAVE
INDEX 01 00:00:00
TRACK 08 AUDIO
TITLE "Only You (Single Version)"
PERFORMER "Teddy Pendergrass"
INDEX 00 04:56:66
FILE "08 - Only You (Single Version).wav" WAVE
INDEX 01 00:00:00
TRACK 09 AUDIO
TITLE "Get Down Get Funky (Disco Version)"
PERFORMER "Teddy Pendergrass"
INDEX 00 03:33:68
FILE "09 - Get Down Get Funky (Disco Version).wav" WAVE
INDEX 01 00:00:00
 
1979 - Teddy
Продолжительность: 41:57
Треклист:
01. Come Go With Me (5:50)
02. Turn Off The Lights (5:57)
03. I'll Never See Heaven Again (4:48)
04. All I Need Is You (4:37)
05. If You Know Like I Know (5:06)
06. Do Me (4:42)
07. Set Me Free (5:08)
08. Life Is A Circle (5:49)
 
 
Лог создания рипа
Exact Audio Copy V1.0 beta 3 from 29. August 2011
EAC extraction logfile from 13. September 2014, 11:16
Teddy Pendergrass / Teddy
Used drive : TSSTcorp CDDVDW Adapter: 0 ID: 0
Read mode : Secure
Utilize accurate stream : Yes
Defeat audio cache : Yes
Make use of C2 pointers : No
Read offset correction : 6
Overread into Lead-In and Lead-Out : No
Fill up missing offset samples with silence : Yes
Delete leading and trailing silent blocks : No
Null samples used in CRC calculations : Yes
Used interface : Native Win32 interface for Win NT & 2000
Gap handling : Appended to previous track
Used output format : User Defined Encoder
Selected bitrate : 128 kBit/s
Quality : High
Add ID3 tag : No
Command line compressor : C:\Program Files (x86)\Exact Audio Copy\Flac\flac.exe
Additional command line options : -8 -V -T "ARTIST=%artist%" -T "TITLE=%title%" -T "ALBUM=%albumtitle%" -T "DATE=%year%" -T "TRACKNUMBER=%tracknr%" -T "TOTALTRACKS=%numtracks%" -T "GENRE=%genre%" -T "ALBUMARTIST=%albumartist%" -T "ALBUM ARTIST=%albumartist%" -T "COMMENT=EAC Secure Mode, Test & Copy, AccurateRip, FLAC -8" %source%
TOC of the extracted CD
Track | Start | Length | Start sector | End sector
---------------------------------------------------------
1 | 0:00.00 | 5:50.13 | 0 | 26262
2 | 5:50.13 | 5:57.34 | 26263 | 53071
3 | 11:47.47 | 4:48.20 | 53072 | 74691
4 | 16:35.67 | 4:36.56 | 74692 | 95447
5 | 21:12.48 | 5:05.66 | 95448 | 118388
6 | 26:18.39 | 4:41.40 | 118389 | 139503
7 | 31:00.04 | 5:07.50 | 139504 | 162578
8 | 36:07.54 | 5:48.60 | 162579 | 188738
Track 1
Filename C:\AddisistheGodFlac\01 - Come Go With Me.wav
Pre-gap length 0:00:02.00
Peak level 99.9 %
Extraction speed 2.8 X
Track quality 100.0 %
Test CRC FDBDFF33
Copy CRC FDBDFF33
Cannot be verified as accurate (confidence 4) [A1DC213C], AccurateRip returned [327A31DD] (AR v2)
Copy OK
Track 2
Filename C:\AddisistheGodFlac\02 - Turn Off The Lights.wav
Pre-gap length 0:00:02.45
Peak level 99.9 %
Extraction speed 3.3 X
Track quality 100.0 %
Test CRC 5FB97E43
Copy CRC 5FB97E43
Cannot be verified as accurate (confidence 4) [300915A8], AccurateRip returned [8E3B6E3E] (AR v2)
Copy OK
Track 3
Filename C:\AddisistheGodFlac\03 - I'll Never See Heaven Again.wav
Pre-gap length 0:00:02.45
Peak level 99.9 %
Extraction speed 3.5 X
Track quality 100.0 %
Test CRC FC175E32
Copy CRC FC175E32
Cannot be verified as accurate (confidence 4) [AF73BF17], AccurateRip returned [697EA5BE] (AR v2)
Copy OK
Track 4
Filename C:\AddisistheGodFlac\04 - All I Need Is You.wav
Pre-gap length 0:00:02.45
Peak level 99.9 %
Extraction speed 3.8 X
Track quality 100.0 %
Test CRC 906236ED
Copy CRC 906236ED
Cannot be verified as accurate (confidence 4) [D2BD0D58], AccurateRip returned [417C639E] (AR v2)
Copy OK
Track 5
Filename C:\AddisistheGodFlac\05 - If You Know Like I Know.wav
Pre-gap length 0:00:03.45
Peak level 99.9 %
Extraction speed 4.0 X
Track quality 100.0 %
Test CRC 29DF6A9C
Copy CRC 29DF6A9C
Cannot be verified as accurate (confidence 4) [3F100BF4], AccurateRip returned [9AB79ADE] (AR v2)
Copy OK
Track 6
Filename C:\AddisistheGodFlac\06 - Do Me.wav
Pre-gap length 0:00:02.45
Peak level 99.9 %
Extraction speed 3.5 X
Track quality 99.9 %
Test CRC E4892675
Copy CRC E4892675
Cannot be verified as accurate (confidence 4) [3CA7E121], AccurateRip returned [32B1FDAE] (AR v2)
Copy OK
Track 7
Filename C:\AddisistheGodFlac\07 - Set Me Free.wav
Pre-gap length 0:00:02.45
Peak level 99.9 %
Extraction speed 4.5 X
Track quality 100.0 %
Test CRC EBDDDCE0
Copy CRC EBDDDCE0
Cannot be verified as accurate (confidence 4) [41FF1BFB], AccurateRip returned [568BDDA5] (AR v2)
Copy OK
Track 8
Filename C:\AddisistheGodFlac\08 - Life Is A Circle.wav
Pre-gap length 0:00:02.45
Peak level 99.9 %
Extraction speed 4.8 X
Track quality 100.0 %
Test CRC C1D60F1A
Copy CRC C1D60F1A
Cannot be verified as accurate (confidence 4) [8B0A9FB0], AccurateRip returned [1C6E8781] (AR v2)
Copy OK
No tracks could be verified as accurate
You may have a different pressing from the one(s) in the database
No errors occurred
End of status report
==== Log checksum 46786D2AB5594D7B60D80FA37C9640EC87F6771E91EEC7DF2714C2926C63E881 ====
 
Содержание индексной карты (.CUE)
REM GENRE Soul
REM DATE 1979
REM DISCID 7409D408
REM COMMENT "ExactAudioCopy v1.0b3"
PERFORMER "Teddy Pendergrass"
TITLE "Teddy"
FILE "01 - Come Go With Me.wav" WAVE
TRACK 01 AUDIO
TITLE "Come Go With Me"
PERFORMER "Teddy Pendergrass"
INDEX 01 00:00:00
TRACK 02 AUDIO
TITLE "Turn Off The Lights"
PERFORMER "Teddy Pendergrass"
INDEX 00 05:47:43
FILE "02 - Turn Off The Lights.wav" WAVE
INDEX 01 00:00:00
TRACK 03 AUDIO
TITLE "I'll Never See Heaven Again"
PERFORMER "Teddy Pendergrass"
INDEX 00 05:54:64
FILE "03 - I'll Never See Heaven Again.wav" WAVE
INDEX 01 00:00:00
TRACK 04 AUDIO
TITLE "All I Need Is You"
PERFORMER "Teddy Pendergrass"
INDEX 00 04:45:50
FILE "04 - All I Need Is You.wav" WAVE
INDEX 01 00:00:00
TRACK 05 AUDIO
TITLE "If You Know Like I Know"
PERFORMER "Teddy Pendergrass"
INDEX 00 04:33:11
FILE "05 - If You Know Like I Know.wav" WAVE
INDEX 01 00:00:00
TRACK 06 AUDIO
TITLE "Do Me"
PERFORMER "Teddy Pendergrass"
INDEX 00 05:03:21
FILE "06 - Do Me.wav" WAVE
INDEX 01 00:00:00
TRACK 07 AUDIO
TITLE "Set Me Free"
PERFORMER "Teddy Pendergrass"
INDEX 00 04:38:70
FILE "07 - Set Me Free.wav" WAVE
INDEX 01 00:00:00
TRACK 08 AUDIO
TITLE "Life Is A Circle"
PERFORMER "Teddy Pendergrass"
INDEX 00 05:05:05
FILE "08 - Life Is A Circle.wav" WAVE
INDEX 01 00:00:00
 
1980 - TP
Продолжительность: 39:44
Треклист:
01. Is It Still Good To Ya (4:39)
02. Take Me In Your Arms Tonight (5:28)
03. I Just Called To Say (4:32)
04. Can't We Try (5:07)
05. Feel The Fire (5:36)
06. Girl You Know (4:06)
07. Love T.K.O. (5:02)
08. Let Me Love You (5:15)
 
 
Лог создания рипа
Exact Audio Copy V1.0 beta 3 from 29. August 2011
EAC extraction logfile from 13. September 2014, 11:51
Teddy Pendergrass / TP
Used drive : TSSTcorp CDDVDW Adapter: 0 ID: 0
Read mode : Secure
Utilize accurate stream : Yes
Defeat audio cache : Yes
Make use of C2 pointers : No
Read offset correction : 6
Overread into Lead-In and Lead-Out : No
Fill up missing offset samples with silence : Yes
Delete leading and trailing silent blocks : No
Null samples used in CRC calculations : Yes
Used interface : Native Win32 interface for Win NT & 2000
Gap handling : Appended to previous track
Used output format : User Defined Encoder
Selected bitrate : 128 kBit/s
Quality : High
Add ID3 tag : No
Command line compressor : C:\Program Files (x86)\Exact Audio Copy\Flac\flac.exe
Additional command line options : -8 -V -T "ARTIST=%artist%" -T "TITLE=%title%" -T "ALBUM=%albumtitle%" -T "DATE=%year%" -T "TRACKNUMBER=%tracknr%" -T "TOTALTRACKS=%numtracks%" -T "GENRE=%genre%" -T "ALBUMARTIST=%albumartist%" -T "ALBUM ARTIST=%albumartist%" -T "COMMENT=EAC Secure Mode, Test & Copy, AccurateRip, FLAC -8" %source%
TOC of the extracted CD
Track | Start | Length | Start sector | End sector
---------------------------------------------------------
1 | 0:00.00 | 4:38.51 | 0 | 20900
2 | 4:38.51 | 5:27.50 | 20901 | 45475
3 | 10:06.26 | 4:31.59 | 45476 | 65859
4 | 14:38.10 | 5:07.30 | 65860 | 88914
5 | 19:45.40 | 5:35.59 | 88915 | 114098
6 | 25:21.24 | 4:05.56 | 114099 | 132529
7 | 29:27.05 | 5:01.50 | 132530 | 155154
8 | 34:28.55 | 5:15.01 | 155155 | 178780
Track 1
Filename C:\AddisistheGodFlac\01 - Is It Still Good To Ya.wav
Pre-gap length 0:00:02.00
Peak level 99.9 %
Extraction speed 2.7 X
Track quality 100.0 %
Test CRC D4FFC3A4
Copy CRC D4FFC3A4
Accurately ripped (confidence 3) [D35931C8] (AR v2)
Copy OK
Track 2
Filename C:\AddisistheGodFlac\02 - Take Me In Your Arms Tonight.wav
Pre-gap length 0:00:02.45
Peak level 89.0 %
Extraction speed 2.7 X
Track quality 99.9 %
Test CRC 13D47BFE
Copy CRC 13D47BFE
Accurately ripped (confidence 3) [4B3ADB41] (AR v2)
Copy OK
Track 3
Filename C:\AddisistheGodFlac\03 - I Just Called To Say.wav
Pre-gap length 0:00:02.45
Peak level 99.9 %
Extraction speed 3.4 X
Track quality 100.0 %
Test CRC 4E83E84F
Copy CRC 4E83E84F
Accurately ripped (confidence 3) [123D16ED] (AR v2)
Copy OK
Track 4
Filename C:\AddisistheGodFlac\04 - Can't We Try.wav
Pre-gap length 0:00:02.45
Peak level 99.9 %
Extraction speed 3.1 X
Track quality 99.9 %
Test CRC 7EAA15AD
Copy CRC 7EAA15AD
Accurately ripped (confidence 2) [E82B32A6] (AR v2)
Copy OK
Track 5
Filename C:\AddisistheGodFlac\05 - Feel The Fire.wav
Pre-gap length 0:00:03.45
Peak level 99.9 %
Extraction speed 4.0 X
Track quality 100.0 %
Test CRC EDC47414
Copy CRC EDC47414
Accurately ripped (confidence 3) [558515AB] (AR v2)
Copy OK
Track 6
Filename C:\AddisistheGodFlac\06 - Girl You Know.wav
Pre-gap length 0:00:02.45
Peak level 89.0 %
Extraction speed 4.1 X
Track quality 100.0 %
Test CRC 94E32A96
Copy CRC 94E32A96
Accurately ripped (confidence 3) [78DD416B] (AR v2)
Copy OK
Track 7
Filename C:\AddisistheGodFlac\07 - Love T.K.O..wav
Pre-gap length 0:00:02.45
Peak level 99.9 %
Extraction speed 4.4 X
Track quality 100.0 %
Test CRC 9D318099
Copy CRC 9D318099
Accurately ripped (confidence 3) [E51CA863] (AR v2)
Copy OK
Track 8
Filename C:\AddisistheGodFlac\08 - Let Me Love You.wav
Pre-gap length 0:00:02.45
Peak level 99.9 %
Extraction speed 4.7 X
Track quality 100.0 %
Test CRC 7090C575
Copy CRC 7090C575
Accurately ripped (confidence 3) [F1539611] (AR v2)
Copy OK
All tracks accurately ripped
No errors occurred
End of status report
==== Log checksum 07A52931864057BBB4C3355A9686229A40223ED85B79C8D92C87E749DBC579E2 ====
 
Содержание индексной карты (.CUE)
REM GENRE Soul
REM DATE 1980
REM DISCID 66094F08
REM COMMENT "ExactAudioCopy v1.0b3"
PERFORMER "Teddy Pendergrass"
TITLE "TP"
FILE "01 - Is It Still Good To Ya.wav" WAVE
TRACK 01 AUDIO
TITLE "Is It Still Good To Ya"
PERFORMER "Teddy Pendergrass"
INDEX 01 00:00:00
TRACK 02 AUDIO
TITLE "Take Me In Your Arms Tonight"
PERFORMER "Teddy Pendergrass"
INDEX 00 04:36:06
FILE "02 - Take Me In Your Arms Tonight.wav" WAVE
INDEX 01 00:00:00
TRACK 03 AUDIO
TITLE "I Just Called To Say"
PERFORMER "Teddy Pendergrass"
INDEX 00 05:25:05
FILE "03 - I Just Called To Say.wav" WAVE
INDEX 01 00:00:00
TRACK 04 AUDIO
TITLE "Can't We Try"
PERFORMER "Teddy Pendergrass"
INDEX 00 04:29:14
FILE "04 - Can't We Try.wav" WAVE
INDEX 01 00:00:00
TRACK 05 AUDIO
TITLE "Feel The Fire"
PERFORMER "Teddy Pendergrass"
INDEX 00 05:03:60
FILE "05 - Feel The Fire.wav" WAVE
INDEX 01 00:00:00
TRACK 06 AUDIO
TITLE "Girl You Know"
PERFORMER "Teddy Pendergrass"
INDEX 00 05:33:14
FILE "06 - Girl You Know.wav" WAVE
INDEX 01 00:00:00
TRACK 07 AUDIO
TITLE "Love T.K.O."
PERFORMER "Teddy Pendergrass"
INDEX 00 04:03:11
FILE "07 - Love T.K.O..wav" WAVE
INDEX 01 00:00:00
TRACK 08 AUDIO
TITLE "Let Me Love You"
PERFORMER "Teddy Pendergrass"
INDEX 00 04:59:05
FILE "08 - Let Me Love You.wav" WAVE
INDEX 01 00:00:00
 
1981 - It's Time For Love
Продолжительность: 35:47
Треклист:
01. I Can't Live Without Your Love (3:03)
02. You're My Latest, My Greatest Inspiration (5:24)
03. Nine Times Out Of Ten (4:15)
04. Keep On Lovin' Me (4:36)
05. It's Time For Love (6:00)
06. She's Over Me (3:55)
07. I Can't Leave Your Love Alone (4:45)
08. You Must Live On (3:49)
 
 
Лог создания рипа
Exact Audio Copy V1.0 beta 3 from 29. August 2011
EAC extraction logfile from 13. September 2014, 23:51
Teddy Pendergrass / It's Time For Love
Used drive : TSSTcorp CDDVDW Adapter: 0 ID: 0
Read mode : Secure
Utilize accurate stream : Yes
Defeat audio cache : Yes
Make use of C2 pointers : No
Read offset correction : 6
Overread into Lead-In and Lead-Out : No
Fill up missing offset samples with silence : Yes
Delete leading and trailing silent blocks : No
Null samples used in CRC calculations : Yes
Used interface : Native Win32 interface for Win NT & 2000
Gap handling : Appended to previous track
Used output format : User Defined Encoder
Selected bitrate : 128 kBit/s
Quality : High
Add ID3 tag : No
Command line compressor : C:\Program Files (x86)\Exact Audio Copy\Flac\flac.exe
Additional command line options : -8 -V -T "ARTIST=%artist%" -T "TITLE=%title%" -T "ALBUM=%albumtitle%" -T "DATE=%year%" -T "TRACKNUMBER=%tracknr%" -T "TOTALTRACKS=%numtracks%" -T "GENRE=%genre%" -T "ALBUMARTIST=%albumartist%" -T "ALBUM ARTIST=%albumartist%" -T "COMMENT=EAC Secure Mode, Test & Copy, AccurateRip, FLAC -8" %source%
TOC of the extracted CD
Track | Start | Length | Start sector | End sector
---------------------------------------------------------
1 | 0:00.00 | 3:02.71 | 0 | 13720
2 | 3:02.71 | 5:23.52 | 13721 | 37997
3 | 8:26.48 | 4:15.25 | 37998 | 57147
4 | 12:41.73 | 4:36.24 | 57148 | 77871
5 | 17:18.22 | 5:59.70 | 77872 | 104866
6 | 23:18.17 | 3:55.06 | 104867 | 122497
7 | 27:13.23 | 4:44.71 | 122498 | 143868
8 | 31:58.19 | 3:49.15 | 143869 | 161058
Track 1
Filename C:\AddisistheGodFlac\01 - I Can't Live Without Your Love.wav
Pre-gap length 0:00:02.00
Peak level 99.9 %
Extraction speed 2.0 X
Track quality 99.9 %
Test CRC E99CE571
Copy CRC E99CE571
Cannot be verified as accurate (confidence 2) [3E80DF8C], AccurateRip returned [967BEAC4] (AR v2)
Copy OK
Track 2
Filename C:\AddisistheGodFlac\02 - You're My Latest, My Greatest Inspiration.wav
Pre-gap length 0:00:02.45
Peak level 99.9 %
Extraction speed 2.6 X
Track quality 99.9 %
Test CRC 1659BFC1
Copy CRC 1659BFC1
Cannot be verified as accurate (confidence 2) [5F36C79A], AccurateRip returned [1A60A2AD] (AR v2)
Copy OK
Track 3
Filename C:\AddisistheGodFlac\03 - Nine Times Out Of Ten.wav
Pre-gap length 0:00:02.45
Peak level 99.9 %
Extraction speed 3.2 X
Track quality 100.0 %
Test CRC 2EDF660C
Copy CRC 2EDF660C
Accurately ripped (confidence 2) [676617CD] (AR v2)
Copy OK
Track 4
Filename C:\AddisistheGodFlac\04 - Keep On Lovin' Me.wav
Pre-gap length 0:00:02.45
Peak level 99.9 %
Extraction speed 3.5 X
Track quality 100.0 %
Test CRC 2A458380
Copy CRC 2A458380
Accurately ripped (confidence 2) [DE1F771D] (AR v2)
Copy OK
Track 5
Filename C:\AddisistheGodFlac\05 - It's Time For Love.wav
Pre-gap length 0:00:03.45
Peak level 99.9 %
Extraction speed 3.9 X
Track quality 100.0 %
Test CRC 175C8ECC
Copy CRC 175C8ECC
Cannot be verified as accurate (confidence 2) [879E5FE3], AccurateRip returned [85A7A627] (AR v2)
Copy OK
Track 6
Filename C:\AddisistheGodFlac\06 - She's Over Me.wav
Pre-gap length 0:00:02.45
Peak level 99.8 %
Extraction speed 4.0 X
Track quality 100.0 %
Test CRC D24DAB59
Copy CRC D24DAB59
Accurately ripped (confidence 2) [C89250F4] (AR v2)
Copy OK
Track 7
Filename C:\AddisistheGodFlac\07 - I Can't Leave Your Love Alone.wav
Pre-gap length 0:00:02.45
Peak level 99.9 %
Extraction speed 4.3 X
Track quality 100.0 %
Test CRC 203D35E5
Copy CRC 203D35E5
Cannot be verified as accurate (confidence 2) [5D1D580E], AccurateRip returned [9C8D3360] (AR v2)
Copy OK
Track 8
Filename C:\AddisistheGodFlac\08 - You Must Live On.wav
Pre-gap length 0:00:02.45
Peak level 99.9 %
Extraction speed 4.4 X
Track quality 100.0 %
Test CRC 7EE077AE
Copy CRC 7EE077AE
Cannot be verified as accurate (confidence 2) [4AD92C87], AccurateRip returned [33124641] (AR v2)
Copy OK
3 track(s) accurately ripped
5 track(s) could not be verified as accurate
Some tracks could not be verified as accurate
No errors occurred
End of status report
==== Log checksum 21D83EBB4268DBD545431B5901961BED3F5B07DACA702C4A252294BF114CB471 ====
 
Содержание индексной карты (.CUE)
REM GENRE Soul
REM DATE 1981
REM DISCID 51086308
REM COMMENT "ExactAudioCopy v1.0b3"
PERFORMER "Teddy Pendergrass"
TITLE "It's Time For Love"
FILE "01 - I Can't Live Without Your Love.wav" WAVE
TRACK 01 AUDIO
TITLE "I Can't Live Without Your Love"
PERFORMER "Teddy Pendergrass"
INDEX 01 00:00:00
TRACK 02 AUDIO
TITLE "You're My Latest, My Greatest Inspiration"
PERFORMER "Teddy Pendergrass"
INDEX 00 03:00:26
FILE "02 - You're My Latest, My Greatest Inspiration.wav" WAVE
INDEX 01 00:00:00
TRACK 03 AUDIO
TITLE "Nine Times Out Of Ten"
PERFORMER "Teddy Pendergrass"
INDEX 00 05:21:07
FILE "03 - Nine Times Out Of Ten.wav" WAVE
INDEX 01 00:00:00
TRACK 04 AUDIO
TITLE "Keep On Lovin' Me"
PERFORMER "Teddy Pendergrass"
INDEX 00 04:12:55
FILE "04 - Keep On Lovin' Me.wav" WAVE
INDEX 01 00:00:00
TRACK 05 AUDIO
TITLE "It's Time For Love"
PERFORMER "Teddy Pendergrass"
INDEX 00 04:32:54
FILE "05 - It's Time For Love.wav" WAVE
INDEX 01 00:00:00
TRACK 06 AUDIO
TITLE "She's Over Me"
PERFORMER "Teddy Pendergrass"
INDEX 00 05:57:25
FILE "06 - She's Over Me.wav" WAVE
INDEX 01 00:00:00
TRACK 07 AUDIO
TITLE "I Can't Leave Your Love Alone"
PERFORMER "Teddy Pendergrass"
INDEX 00 03:52:36
FILE "07 - I Can't Leave Your Love Alone.wav" WAVE
INDEX 01 00:00:00
TRACK 08 AUDIO
TITLE "You Must Live On"
PERFORMER "Teddy Pendergrass"
INDEX 00 04:42:26
FILE "08 - You Must Live On.wav" WAVE
INDEX 01 00:00:00
 
Приватный:
Нет (DHT включён)
Размер:
1.28 Гб (1,375,278,466 байт) » файлов: 80
Участники:
0 раздают, 1 качают (1 участников всего)
Внешние участники:
5 раздают, 2 качают (7 участников всего) [ Обновить ]
Скорость:
2.95 Мб/c 0/c
For power users only: no seeders - write to support@pro-jazz.com. Для power user: нет сидеров - пишите на support@pro-jazz.com.
09:34
72
Нет комментариев. Ваш будет первым!