Поиск

(Soul, Funk) [CD] The Blackbyrds - The Blackbyrds (1974) - 2014, FLAC (tracks+.cue), lossless

(Soul, Funk) [CD] The Blackbyrds - The Blackbyrds (1974) - 2014, FLAC (tracks+.cue), lossless
Треклист:
The Blackbyrds - The Blackbyrds (1974) Жанр: Soul, Funk
Носитель: CD
Страна-производитель диска (релиза): Japan
Год издания: 2014
Издатель (лейбл): Universal Music
Номер по каталогу: UCCO-90334
Аудиокодек: FLAC (*.flac)
Тип рипа: tracks+.cue
Битрейт аудио: lossless
Продолжительность: 36:50
Rip by JET 1
Наличие сканов в содержимом раздачи: да
Треклист:
01. Do It, Fluid (5:28)
02. Gut Level (4:12)
03. Reggins (4:09)
04. The Runaway (4:16)
05. Funky Junkie (7:04)
06. Summer Love (5:11)
07. Life Styles (3:15)
08. A Hot Day Today (3:15)
 
 
Лог создания рипа
Exact Audio Copy V1.0 beta 3 from 29. August 2011
EAC extraction logfile from 16. January 2016, 16:22
The Blackbyrds / The Blackbyrds
Used drive : GENERIC CDRCB05 Adapter: 4 ID: 0
Read mode : Secure
Utilize accurate stream : Yes
Defeat audio cache : Yes
Make use of C2 pointers : No
Read offset correction : 102
Overread into Lead-In and Lead-Out : No
Fill up missing offset samples with silence : Yes
Delete leading and trailing silent blocks : No
Null samples used in CRC calculations : Yes
Used interface : Native Win32 interface for Win NT & 2000
Gap handling : Appended to previous track
Used output format : User Defined Encoder
Selected bitrate : 1024 kBit/s
Quality : High
Add ID3 tag : No
Command line compressor : C:\Program Files\FLAC\flac.exe
Additional command line options : -8 -V -T "ARTIST=%artist%" -T "TITLE=%title%" -T "ALBUM=%albumtitle%" -T "DATE=%year%" -T "TRACKNUMBER=%tracknr%" -T "GENRE=%genre%" -T "PERFORMER=%albuminterpret%" -T "COMPOSER=%composer%" %haslyrics%--tag-from-file=LYRICS="%lyricsfile%"%haslyrics% -T "ALBUMARTIST=%albumartist%" -T "DISCNUMBER=%cdnumber%" -T "TOTALDISCS=%totalcds%" -T "TOTALTRACKS=%numtracks%" -T "COMMENT=%comment%" %source% -o %dest%
TOC of the extracted CD
Track | Start | Length | Start sector | End sector
---------------------------------------------------------
1 | 0:00.00 | 5:28.25 | 0 | 24624
2 | 5:28.25 | 4:12.02 | 24625 | 43526
3 | 9:40.27 | 4:08.60 | 43527 | 62186
4 | 13:49.12 | 4:15.45 | 62187 | 81356
5 | 18:04.57 | 7:03.53 | 81357 | 113134
6 | 25:08.35 | 5:10.72 | 113135 | 136456
7 | 30:19.32 | 3:15.25 | 136457 | 151106
8 | 33:34.57 | 3:15.24 | 151107 | 165755
Track 1
Filename G:\POSTS\The Blackbyrds - The Blackbyrds (1974) [2014 Rare Groove Funk Best Collection 1000]\01 - Do It, Fluid.wav
Pre-gap length 0:00:02.00
Peak level 100.0 %
Extraction speed 2.3 X
Track quality 99.9 %
Test CRC AC285B1D
Copy CRC AC285B1D
Accurately ripped (confidence 2) [AA189AE7] (AR v2)
Copy OK
Track 2
Filename G:\POSTS\The Blackbyrds - The Blackbyrds (1974) [2014 Rare Groove Funk Best Collection 1000]\02 - Gut Level.wav
Pre-gap length 0:00:02.20
Peak level 89.1 %
Extraction speed 2.7 X
Track quality 100.0 %
Test CRC 76CBD622
Copy CRC 76CBD622
Accurately ripped (confidence 2) [53D71294] (AR v2)
Copy OK
Track 3
Filename G:\POSTS\The Blackbyrds - The Blackbyrds (1974) [2014 Rare Groove Funk Best Collection 1000]\03 - Reggins.wav
Pre-gap length 0:00:03.35
Peak level 100.0 %
Extraction speed 3.0 X
Track quality 100.0 %
Test CRC B869DA36
Copy CRC B869DA36
Accurately ripped (confidence 2) [DF7EDD35] (AR v2)
Copy OK
Track 4
Filename G:\POSTS\The Blackbyrds - The Blackbyrds (1974) [2014 Rare Groove Funk Best Collection 1000]\04 - The Runaway.wav
Pre-gap length 0:00:04.00
Peak level 99.9 %
Extraction speed 2.8 X
Track quality 99.9 %
Test CRC 9E880EB8
Copy CRC 9E880EB8
Accurately ripped (confidence 2) [712A7B82] (AR v2)
Copy OK
Track 5
Filename G:\POSTS\The Blackbyrds - The Blackbyrds (1974) [2014 Rare Groove Funk Best Collection 1000]\05 - Funky Junkie.wav
Pre-gap length 0:00:02.03
Peak level 100.0 %
Extraction speed 3.7 X
Track quality 100.0 %
Test CRC E27F13FD
Copy CRC E27F13FD
Accurately ripped (confidence 2) [0BF0F92F] (AR v2)
Copy OK
Track 6
Filename G:\POSTS\The Blackbyrds - The Blackbyrds (1974) [2014 Rare Groove Funk Best Collection 1000]\06 - Summer Love.wav
Pre-gap length 0:00:02.20
Peak level 99.9 %
Extraction speed 3.8 X
Track quality 100.0 %
Test CRC B0C2CE55
Copy CRC B0C2CE55
Accurately ripped (confidence 2) [E1A0D691] (AR v2)
Copy OK
Track 7
Filename G:\POSTS\The Blackbyrds - The Blackbyrds (1974) [2014 Rare Groove Funk Best Collection 1000]\07 - Life Styles.wav
Pre-gap length 0:00:03.17
Peak level 99.9 %
Extraction speed 3.7 X
Track quality 100.0 %
Test CRC 7EC6E028
Copy CRC 7EC6E028
Accurately ripped (confidence 2) [4C08E5E6] (AR v2)
Copy OK
Track 8
Filename G:\POSTS\The Blackbyrds - The Blackbyrds (1974) [2014 Rare Groove Funk Best Collection 1000]\08 - A Hot Day Today.wav
Pre-gap length 0:00:03.60
Peak level 99.9 %
Extraction speed 3.8 X
Track quality 100.0 %
Test CRC EA5BDB01
Copy CRC EA5BDB01
Accurately ripped (confidence 2) [5D094E45] (AR v2)
Copy OK
All tracks accurately ripped
No errors occurred
End of status report
==== Log checksum FE948F6CD2F6EC14348C758977285C32610B71C5D197F2BAC095932DB90FDE0B ====
 
Содержание индексной карты (.CUE)
REM GENRE Soul
REM DATE 1974
REM DISCID 4E08A208
REM COMMENT "ExactAudioCopy v1.0b3"
PERFORMER "The Blackbyrds"
TITLE "The Blackbyrds"
FILE "01 - Do It, Fluid.wav" WAVE
TRACK 01 AUDIO
TITLE "Do It, Fluid"
PERFORMER "The Blackbyrds"
INDEX 01 00:00:00
TRACK 02 AUDIO
TITLE "Gut Level"
PERFORMER "The Blackbyrds"
INDEX 00 05:26:05
FILE "02 - Gut Level.wav" WAVE
INDEX 01 00:00:00
TRACK 03 AUDIO
TITLE "Reggins"
PERFORMER "The Blackbyrds"
INDEX 00 04:08:42
FILE "03 - Reggins.wav" WAVE
INDEX 01 00:00:00
TRACK 04 AUDIO
TITLE "The Runaway"
PERFORMER "The Blackbyrds"
INDEX 00 04:04:60
FILE "04 - The Runaway.wav" WAVE
INDEX 01 00:00:00
TRACK 05 AUDIO
TITLE "Funky Junkie"
PERFORMER "The Blackbyrds"
INDEX 00 04:13:42
FILE "05 - Funky Junkie.wav" WAVE
INDEX 01 00:00:00
TRACK 06 AUDIO
TITLE "Summer Love"
PERFORMER "The Blackbyrds"
INDEX 00 07:01:33
FILE "06 - Summer Love.wav" WAVE
INDEX 01 00:00:00
TRACK 07 AUDIO
TITLE "Life Styles"
PERFORMER "The Blackbyrds"
INDEX 00 05:07:55
FILE "07 - Life Styles.wav" WAVE
INDEX 01 00:00:00
TRACK 08 AUDIO
TITLE "A Hot Day Today"
PERFORMER "The Blackbyrds"
INDEX 00 03:11:40
FILE "08 - A Hot Day Today.wav" WAVE
INDEX 01 00:00:00
Приватный:
Нет (DHT включён)
Размер:
322.95 Мб (338,632,550 байт) » файлов: 24
Участники:
0 раздают, 0 качают (0 участников всего)
Внешние участники:
5 раздают, 1 качают (6 участников всего) [ Обновить ]
No seeders - write a personal message to user M0p94ok. Нет сидеров - пишите личное сообщение пользователю M0p94ok.
09:33
95
Нет комментариев. Ваш будет первым!