Поиск

(Funk, Soul) [CD] Curtis Mayfield - Original Album Series 1970-1974 (5CD BoxSet) - 2013, FLAC (tracks+.cue), lossless

(Funk, Soul) [CD] Curtis Mayfield - Original Album Series 1970-1974 (5CD BoxSet) - 2013, FLAC (tracks+.cue), lossless
Треклист:
Curtis Mayfield - Original Album Series (5CD BoxSet)

Жанр: Funk, Soul | Носитель: CD
Год издания: 2013 | Издатель (лейбл): Rhino/Warner/Curtom | Номер по каталогу: 8122796489
Аудиокодек: FLAC (*.flac) | Тип рипа: tracks+.cue | Битрейт аудио: lossless
Продолжительность: 03:36:11 | Источник (релизер): ruskaval
Наличие сканов в содержимом раздачи: да 
 
 
CD 1 - Curtis (1970)
Продолжительность: 40:35
Треклист:
01. (Don't Worry) If There's Hell Below We're All Gonna Go (7:51)
02. The Other Side of Town (4:02)
03. The Making of You (3:44)
04. We The People Who Are Darker Than Blue (6:06)
05. Move on Up (8:54)
06. Miss Black America (2:59)
07. Wild and Free (3:16)
08. Give It Up (3:44)
 
 
Лог создания рипа
Exact Audio Copy V1.0 beta 3 from 29. August 2011
EAC extraction logfile from 5. May 2014, 16:28
Curtis Mayfield / Curtis CD1
Used drive : TSSTcorpCDDVDW TS-L633C Adapter: 0 ID: 0
Read mode : Secure
Utilize accurate stream : Yes
Defeat audio cache : Yes
Make use of C2 pointers : No
Read offset correction : 6
Overread into Lead-In and Lead-Out : No
Fill up missing offset samples with silence : Yes
Delete leading and trailing silent blocks : No
Null samples used in CRC calculations : Yes
Used interface : Native Win32 interface for Win NT & 2000
Gap handling : Appended to previous track
Used output format : User Defined Encoder
Selected bitrate : 1024 kBit/s
Quality : High
Add ID3 tag : No
Command line compressor : C:\Program Files (x86)\Exact Audio Copy\Flac\flac.exe
Additional command line options : -8 -V -T "ARTIST=%artist%" -T "TITLE=%title%" -T "ALBUM=%albumtitle%" -T "DATE=%year%" -T "TRACKNUMBER=%tracknr%" -T "TOTALTRACKS=%numtracks%" -T "GENRE=%genre%" -T "ALBUMARTIST=%albumartist%" -T "ALBUM ARTIST=%albumartist%" -T "COMMENT=EAC Secure Mode, Test & Copy, AccurateRip, FLAC -8" %source%
TOC of the extracted CD
Track | Start | Length | Start sector | End sector
---------------------------------------------------------
1 | 0:00.00 | 7:50.38 | 0 | 35287
2 | 7:50.38 | 4:01.65 | 35288 | 53427
3 | 11:52.28 | 3:43.65 | 53428 | 70217
4 | 15:36.18 | 6:05.65 | 70218 | 97657
5 | 21:42.08 | 8:54.25 | 97658 | 137732
6 | 30:36.33 | 2:58.40 | 137733 | 151122
7 | 33:34.73 | 3:16.35 | 151123 | 165857
8 | 36:51.33 | 3:43.45 | 165858 | 182627
Track 1
Filename C:\FLAC\01 - (Don't Worry) If There's Hell Below We're All Gonna Go.wav
Pre-gap length 0:00:02.00
Peak level 94.6 %
Extraction speed 1.2 X
Track quality 100.0 %
Test CRC 0DED9431
Copy CRC 0DED9431
Accurately ripped (confidence 3) [C3633BFB] (AR v2)
Copy OK
Track 2
Filename C:\FLAC\02 - The Other Side of Town.wav
Peak level 97.2 %
Extraction speed 1.3 X
Track quality 100.0 %
Test CRC CD6D18EC
Copy CRC CD6D18EC
Accurately ripped (confidence 3) [503B7A2B] (AR v2)
Copy OK
Track 3
Filename C:\FLAC\03 - The Making of You.wav
Peak level 94.6 %
Extraction speed 1.4 X
Track quality 100.0 %
Test CRC B013D9CB
Copy CRC B013D9CB
Accurately ripped (confidence 3) [9A07E714] (AR v2)
Copy OK
Track 4
Filename C:\FLAC\04 - We The People Who Are Darker Than Blue.wav
Peak level 94.6 %
Extraction speed 1.4 X
Track quality 99.9 %
Test CRC CB6BF23B
Copy CRC CB6BF23B
Accurately ripped (confidence 3) [FBA97614] (AR v2)
Copy OK
Track 5
Filename C:\FLAC\05 - Move on Up.wav
Peak level 94.6 %
Extraction speed 1.8 X
Track quality 100.0 %
Test CRC CE4A0C0D
Copy CRC CE4A0C0D
Accurately ripped (confidence 3) [94AC4024] (AR v2)
Copy OK
Track 6
Filename C:\FLAC\06 - Miss Black America.wav
Peak level 97.2 %
Extraction speed 1.7 X
Track quality 100.0 %
Test CRC 1D5A7520
Copy CRC 1D5A7520
Accurately ripped (confidence 3) [57179AED] (AR v2)
Copy OK
Track 7
Filename C:\FLAC\07 - Wild and Free.wav
Peak level 97.2 %
Extraction speed 1.7 X
Track quality 100.0 %
Test CRC 10B464FC
Copy CRC 10B464FC
Accurately ripped (confidence 3) [9ECCAF23] (AR v2)
Copy OK
Track 8
Filename C:\FLAC\08 - Give It Up.wav
Peak level 97.2 %
Extraction speed 1.7 X
Track quality 100.0 %
Test CRC 78183506
Copy CRC 78183506
Accurately ripped (confidence 3) [18E15267] (AR v2)
Copy OK
All tracks accurately ripped
No errors occurred
End of status report
==== Log checksum 338B2D7689451D0F0ABFDB6D8D904C4014BCA27EE0AEE16BFEE0751497E84E7C ====
 
Содержание индексной карты (.CUE)
REM GENRE Soul
REM DATE 1970
REM DISCID 5C098308
REM COMMENT "ExactAudioCopy v1.0b3"
PERFORMER "Curtis Mayfield"
TITLE "Curtis CD1"
FILE "01 - (Don't Worry) If There's Hell Below We're All Gonna Go.wav" WAVE
TRACK 01 AUDIO
TITLE "(Don't Worry) If There's Hell Below We're All Gonna Go"
PERFORMER "Curtis Mayfield"
INDEX 01 00:00:00
FILE "02 - The Other Side of Town.wav" WAVE
TRACK 02 AUDIO
TITLE "The Other Side of Town"
PERFORMER "Curtis Mayfield"
INDEX 01 00:00:00
FILE "03 - The Making of You.wav" WAVE
TRACK 03 AUDIO
TITLE "The Making of You"
PERFORMER "Curtis Mayfield"
INDEX 01 00:00:00
FILE "04 - We The People Who Are Darker Than Blue.wav" WAVE
TRACK 04 AUDIO
TITLE "We The People Who Are Darker Than Blue"
PERFORMER "Curtis Mayfield"
INDEX 01 00:00:00
FILE "05 - Move on Up.wav" WAVE
TRACK 05 AUDIO
TITLE "Move on Up"
PERFORMER "Curtis Mayfield"
INDEX 01 00:00:00
FILE "06 - Miss Black America.wav" WAVE
TRACK 06 AUDIO
TITLE "Miss Black America"
PERFORMER "Curtis Mayfield"
INDEX 01 00:00:00
FILE "07 - Wild and Free.wav" WAVE
TRACK 07 AUDIO
TITLE "Wild and Free"
PERFORMER "Curtis Mayfield"
INDEX 01 00:00:00
FILE "08 - Give It Up.wav" WAVE
TRACK 08 AUDIO
TITLE "Give It Up"
PERFORMER "Curtis Mayfield"
INDEX 01 00:00:00
 
CD 2 - Curtis/Live! (1971)
Продолжительность: 68:05
Треклист:
01. Mighty Mighty (Spade and Whitey) [Live] (6:57)
02. Rap [Live] (0:27)
03. I Plan to Stay a Believer [Live] (3:16)
04. We're a Winner [Live] (4:47)
05. Rap [Live] (0:51)
06. We've Only Just Begun [Live] (3:44)
07. People Get Ready [Live] (3:47)
08. Rap [Live] (0:34)
09. Stare and Stare [Live] (6:13)
10. Check Out Your Mind [Live] (3:53)
11. Gypsy Woman [Live] (3:48)
12. The Makings of You [Live] (3:28)
13. Rap [Live] (2:02)
14. We the People Who Are Darker Than Blue [Live] (6:46)
15. (Don't Worry) If There's a Hell Below We're All Going to Go [Live] (9:27)
16. Stone Junkie [Live] (8:05)
 
 
Лог создания рипа
Exact Audio Copy V1.0 beta 3 from 29. August 2011
EAC extraction logfile from 7. May 2014, 20:04
Curtis Mayfield / Curtis Live! CD2
Used drive : PLEXTOR CD-R PREMIUM2 Adapter: 4 ID: 0
Read mode : Secure
Utilize accurate stream : Yes
Defeat audio cache : Yes
Make use of C2 pointers : No
Read offset correction : 30
Overread into Lead-In and Lead-Out : Yes
Fill up missing offset samples with silence : Yes
Delete leading and trailing silent blocks : No
Null samples used in CRC calculations : Yes
Used interface : Native Win32 interface for Win NT & 2000
Gap handling : Appended to previous track
Used output format : User Defined Encoder
Selected bitrate : 1024 kBit/s
Quality : High
Add ID3 tag : No
Command line compressor : C:\Program Files (x86)\Exact Audio Copy\Flac\flac.exe
Additional command line options : -8 -V -T "ARTIST=%artist%" -T "TITLE=%title%" -T "ALBUM=%albumtitle%" -T "DATE=%year%" -T "TRACKNUMBER=%tracknr%" -T "TOTALTRACKS=%numtracks%" -T "GENRE=%genre%" -T "ALBUMARTIST=%albumartist%" -T "ALBUM ARTIST=%albumartist%" -T "COMMENT=EAC Secure Mode, Test & Copy, AccurateRip, FLAC -8" %source%
TOC of the extracted CD
Track | Start | Length | Start sector | End sector
---------------------------------------------------------
1 | 0:00.00 | 6:56.73 | 0 | 31272
2 | 6:56.73 | 0:26.52 | 31273 | 33274
3 | 7:23.50 | 3:16.03 | 33275 | 47977
4 | 10:39.53 | 4:47.07 | 47978 | 69509
5 | 15:26.60 | 0:51.10 | 69510 | 73344
6 | 16:17.70 | 3:44.08 | 73345 | 90152
7 | 20:02.03 | 3:47.02 | 90153 | 107179
8 | 23:49.05 | 0:34.05 | 107180 | 109734
9 | 24:23.10 | 6:12.48 | 109735 | 137682
10 | 30:35.58 | 3:53.10 | 137683 | 155167
11 | 34:28.68 | 3:48.02 | 155168 | 172269
12 | 38:16.70 | 3:28.18 | 172270 | 187887
13 | 41:45.13 | 2:01.45 | 187888 | 197007
14 | 43:46.58 | 6:46.00 | 197008 | 227457
15 | 50:32.58 | 9:27.07 | 227458 | 269989
16 | 59:59.65 | 8:05.15 | 269990 | 306379
Track 1
Filename G:\FLAC\01 - Mighty Mighty (Spade and Whitey) [Live].wav
Pre-gap length 0:00:02.00
Peak level 97.7 %
Extraction speed 1.9 X
Track quality 99.9 %
Test CRC 4875C4D8
Copy CRC 4875C4D8
Accurately ripped (confidence 3) [80C24F6D] (AR v2)
Copy OK
Track 2
Filename G:\FLAC\02 - Rap [Live].wav
Peak level 64.4 %
Extraction speed 1.6 X
Track quality 100.0 %
Test CRC B05760EC
Copy CRC B05760EC
Accurately ripped (confidence 3) [6D40F242] (AR v2)
Copy OK
Track 3
Filename G:\FLAC\03 - I Plan to Stay a Believer [Live].wav
Peak level 97.4 %
Extraction speed 1.9 X
Track quality 100.0 %
Test CRC D58B05F5
Copy CRC D58B05F5
Accurately ripped (confidence 3) [6ADC8D76] (AR v2)
Copy OK
Track 4
Filename G:\FLAC\04 - We're a Winner [Live].wav
Peak level 98.0 %
Extraction speed 1.9 X
Track quality 100.0 %
Test CRC F8797D6A
Copy CRC F8797D6A
Accurately ripped (confidence 3) [7D02E971] (AR v2)
Copy OK
Track 5
Filename G:\FLAC\05 - Rap [Live].wav
Peak level 97.2 %
Extraction speed 1.6 X
Track quality 99.7 %
Test CRC 8AA4FC12
Copy CRC 8AA4FC12
Accurately ripped (confidence 3) [EF806D71] (AR v2)
Copy OK
Track 6
Filename G:\FLAC\06 - We've Only Just Begun [Live].wav
Peak level 97.8 %
Extraction speed 1.8 X
Track quality 99.9 %
Test CRC 3FF5FA9D
Copy CRC 3FF5FA9D
Accurately ripped (confidence 3) [91FDDDC8] (AR v2)
Copy OK
Track 7
Filename G:\FLAC\07 - People Get Ready [Live].wav
Peak level 98.3 %
Extraction speed 1.9 X
Track quality 100.0 %
Test CRC FB405921
Copy CRC FB405921
Accurately ripped (confidence 3) [93F8A2FA] (AR v2)
Copy OK
Track 8
Filename G:\FLAC\08 - Rap [Live].wav
Peak level 83.1 %
Extraction speed 1.7 X
Track quality 100.0 %
Test CRC 04ED1680
Copy CRC 04ED1680
Accurately ripped (confidence 3) [0BD78E61] (AR v2)
Copy OK
Track 9
Filename G:\FLAC\09 - Stare and Stare [Live].wav
Peak level 97.8 %
Extraction speed 1.9 X
Track quality 100.0 %
Test CRC C4956CD6
Copy CRC C4956CD6
Accurately ripped (confidence 3) [F95EDE25] (AR v2)
Copy OK
Track 10
Filename G:\FLAC\10 - Check Out Your Mind [Live].wav
Peak level 98.0 %
Extraction speed 1.8 X
Track quality 100.0 %
Test CRC 674A9011
Copy CRC 674A9011
Accurately ripped (confidence 3) [D845A6EB] (AR v2)
Copy OK
Track 11
Filename G:\FLAC\11 - Gypsy Woman [Live].wav
Peak level 98.3 %
Extraction speed 1.9 X
Track quality 100.0 %
Test CRC B0A58BD0
Copy CRC B0A58BD0
Accurately ripped (confidence 3) [A6BFDE8C] (AR v2)
Copy OK
Track 12
Filename G:\FLAC\12 - The Makings of You [Live].wav
Peak level 97.9 %
Extraction speed 1.8 X
Track quality 100.0 %
Test CRC F4886CFD
Copy CRC F4886CFD
Accurately ripped (confidence 3) [291FB0AA] (AR v2)
Copy OK
Track 13
Filename G:\FLAC\13 - Rap [Live].wav
Peak level 81.8 %
Extraction speed 1.8 X
Track quality 100.0 %
Test CRC 7BC704E6
Copy CRC 7BC704E6
Accurately ripped (confidence 3) [E2CA12CE] (AR v2)
Copy OK
Track 14
Filename G:\FLAC\14 - We the People Who Are Darker Than Blue [Live].wav
Peak level 97.9 %
Extraction speed 1.8 X
Track quality 99.9 %
Test CRC AC9857DC
Copy CRC AC9857DC
Accurately ripped (confidence 3) [9B1FAED4] (AR v2)
Copy OK
Track 15
Filename G:\FLAC\15 - (Don't Worry) If There's a Hell Below We're All Going to Go [Live].wav
Peak level 98.2 %
Extraction speed 1.9 X
Track quality 100.0 %
Test CRC 148A3EE9
Copy CRC 148A3EE9
Accurately ripped (confidence 3) [BCFF7643] (AR v2)
Copy OK
Track 16
Filename G:\FLAC\16 - Stone Junkie [Live].wav
Peak level 98.0 %
Extraction speed 1.9 X
Track quality 100.0 %
Test CRC 68FD510E
Copy CRC 68FD510E
Accurately ripped (confidence 3) [7A6C8686] (AR v2)
Copy OK
All tracks accurately ripped
No errors occurred
End of status report
==== Log checksum FC8DA6A90153BE1D0B7DDF0C55DF5620B88D4BAAAADCEBE600FC98DDCC210DBE ====
 
Содержание индексной карты (.CUE)
REM GENRE Soul
REM DATE 1971
REM DISCID D80FF510
REM COMMENT "ExactAudioCopy v1.0b3"
PERFORMER "Curtis Mayfield"
TITLE "Curtis Live! CD2"
FILE "01 - Mighty Mighty (Spade and Whitey) [Live].wav" WAVE
TRACK 01 AUDIO
TITLE "Mighty Mighty (Spade and Whitey) [Live]"
PERFORMER "Curtis Mayfield"
INDEX 01 00:00:00
FILE "02 - Rap [Live].wav" WAVE
TRACK 02 AUDIO
TITLE "Rap [Live]"
PERFORMER "Curtis Mayfield"
INDEX 01 00:00:00
FILE "03 - I Plan to Stay a Believer [Live].wav" WAVE
TRACK 03 AUDIO
TITLE "I Plan to Stay a Believer [Live]"
PERFORMER "Curtis Mayfield"
INDEX 01 00:00:00
FILE "04 - We're a Winner [Live].wav" WAVE
TRACK 04 AUDIO
TITLE "We're a Winner [Live]"
PERFORMER "Curtis Mayfield"
INDEX 01 00:00:00
FILE "05 - Rap [Live].wav" WAVE
TRACK 05 AUDIO
TITLE "Rap [Live]"
PERFORMER "Curtis Mayfield"
INDEX 01 00:00:00
FILE "06 - We've Only Just Begun [Live].wav" WAVE
TRACK 06 AUDIO
TITLE "We've Only Just Begun [Live]"
PERFORMER "Curtis Mayfield"
INDEX 01 00:00:00
FILE "07 - People Get Ready [Live].wav" WAVE
TRACK 07 AUDIO
TITLE "People Get Ready [Live]"
PERFORMER "Curtis Mayfield"
INDEX 01 00:00:00
FILE "08 - Rap [Live].wav" WAVE
TRACK 08 AUDIO
TITLE "Rap [Live]"
PERFORMER "Curtis Mayfield"
INDEX 01 00:00:00
FILE "09 - Stare and Stare [Live].wav" WAVE
TRACK 09 AUDIO
TITLE "Stare and Stare [Live]"
PERFORMER "Curtis Mayfield"
INDEX 01 00:00:00
FILE "10 - Check Out Your Mind [Live].wav" WAVE
TRACK 10 AUDIO
TITLE "Check Out Your Mind [Live]"
PERFORMER "Curtis Mayfield"
INDEX 01 00:00:00
FILE "11 - Gypsy Woman [Live].wav" WAVE
TRACK 11 AUDIO
TITLE "Gypsy Woman [Live]"
PERFORMER "Curtis Mayfield"
INDEX 01 00:00:00
FILE "12 - The Makings of You [Live].wav" WAVE
TRACK 12 AUDIO
TITLE "The Makings of You [Live]"
PERFORMER "Curtis Mayfield"
INDEX 01 00:00:00
FILE "13 - Rap [Live].wav" WAVE
TRACK 13 AUDIO
TITLE "Rap [Live]"
PERFORMER "Curtis Mayfield"
INDEX 01 00:00:00
FILE "14 - We the People Who Are Darker Than Blue [Live].wav" WAVE
TRACK 14 AUDIO
TITLE "We the People Who Are Darker Than Blue [Live]"
PERFORMER "Curtis Mayfield"
INDEX 01 00:00:00
FILE "15 - (Don't Worry) If There's a Hell Below We're All Going to Go [Live].wav" WAVE
TRACK 15 AUDIO
TITLE "(Don't Worry) If There's a Hell Below We're All Going to Go [Live]"
PERFORMER "Curtis Mayfield"
INDEX 01 00:00:00
FILE "16 - Stone Junkie [Live].wav" WAVE
TRACK 16 AUDIO
TITLE "Stone Junkie [Live]"
PERFORMER "Curtis Mayfield"
INDEX 01 00:00:00
 
CD 3 - Roots (1971)
Продолжительность: 39:11
Треклист:
01. Get Down (5:48)
02. Keep On Keeping Up (5:10)
03. Underground (5:18)
04. We Got To Have Peace (4:47)
05. Beautiful Brother Of Mine (7:27)
06. Now You're Gone (6:53)
07. Love To Keep You In My Mind (3:47)
 
 
Лог создания рипа
Exact Audio Copy V1.0 beta 3 from 29. August 2011
EAC extraction logfile from 7. May 2014, 20:55
Curtis Mayfield / Roots CD3
Used drive : PLEXTOR CD-R PREMIUM2 Adapter: 4 ID: 0
Read mode : Secure
Utilize accurate stream : Yes
Defeat audio cache : Yes
Make use of C2 pointers : No
Read offset correction : 30
Overread into Lead-In and Lead-Out : Yes
Fill up missing offset samples with silence : Yes
Delete leading and trailing silent blocks : No
Null samples used in CRC calculations : Yes
Used interface : Native Win32 interface for Win NT & 2000
Gap handling : Appended to previous track
Used output format : User Defined Encoder
Selected bitrate : 1024 kBit/s
Quality : High
Add ID3 tag : No
Command line compressor : C:\Program Files (x86)\Exact Audio Copy\Flac\flac.exe
Additional command line options : -8 -V -T "ARTIST=%artist%" -T "TITLE=%title%" -T "ALBUM=%albumtitle%" -T "DATE=%year%" -T "TRACKNUMBER=%tracknr%" -T "TOTALTRACKS=%numtracks%" -T "GENRE=%genre%" -T "ALBUMARTIST=%albumartist%" -T "ALBUM ARTIST=%albumartist%" -T "COMMENT=EAC Secure Mode, Test & Copy, AccurateRip, FLAC -8" %source%
TOC of the extracted CD
Track | Start | Length | Start sector | End sector
---------------------------------------------------------
1 | 0:00.00 | 5:48.25 | 0 | 26124
2 | 5:48.25 | 5:10.18 | 26125 | 49392
3 | 10:58.43 | 5:17.60 | 49393 | 73227
4 | 16:16.28 | 4:47.25 | 73228 | 94777
5 | 21:03.53 | 7:27.15 | 94778 | 128317
6 | 28:30.68 | 6:52.72 | 128318 | 159289
7 | 35:23.65 | 3:46.70 | 159290 | 176309
Track 1
Filename G:\FLAC\01 - Get Down.wav
Pre-gap length 0:00:02.00
Peak level 97.2 %
Extraction speed 1.9 X
Track quality 100.0 %
Test CRC C9BFB4FA
Copy CRC C9BFB4FA
Accurately ripped (confidence 3) [0999E593] (AR v2)
Copy OK
Track 2
Filename G:\FLAC\02 - Keep On Keeping Up.wav
Peak level 97.2 %
Extraction speed 1.9 X
Track quality 100.0 %
Test CRC C4D4EFDF
Copy CRC C4D4EFDF
Accurately ripped (confidence 4) [AA974F35] (AR v2)
Copy OK
Track 3
Filename G:\FLAC\03 - Underground.wav
Peak level 97.2 %
Extraction speed 1.9 X
Track quality 100.0 %
Test CRC 4DB2FA9D
Copy CRC 4DB2FA9D
Accurately ripped (confidence 4) [44E0706A] (AR v2)
Copy OK
Track 4
Filename G:\FLAC\04 - We Got To Have Peace.wav
Peak level 97.2 %
Extraction speed 1.9 X
Track quality 100.0 %
Test CRC 44A54B62
Copy CRC 44A54B62
Accurately ripped (confidence 4) [ABAEF429] (AR v2)
Copy OK
Track 5
Filename G:\FLAC\05 - Beautiful Brother Of Mine.wav
Peak level 97.2 %
Extraction speed 1.9 X
Track quality 99.9 %
Test CRC EC5DBF87
Copy CRC EC5DBF87
Accurately ripped (confidence 4) [76F9D17C] (AR v2)
Copy OK
Track 6
Filename G:\FLAC\06 - Now You're Gone.wav
Peak level 97.2 %
Extraction speed 1.8 X
Track quality 99.9 %
Test CRC FFC7F795
Copy CRC FFC7F795
Accurately ripped (confidence 4) [90D58F67] (AR v2)
Copy OK
Track 7
Filename G:\FLAC\07 - Love To Keep You In My Mind.wav
Peak level 97.2 %
Extraction speed 1.9 X
Track quality 100.0 %
Test CRC 74B18918
Copy CRC 74B18918
Accurately ripped (confidence 4) [8B74D9A8] (AR v2)
Copy OK
All tracks accurately ripped
No errors occurred
End of status report
==== Log checksum 283DD2B99C1A4ACBD0C860B2FDA819A59C0A29D00E07FF8BAFA36DF2B82EA42E ====
 
Содержание индексной карты (.CUE)
REM GENRE Misc
REM DATE 1971
REM DISCID 51092E07
REM COMMENT "ExactAudioCopy v1.0b3"
PERFORMER "Curtis Mayfield"
TITLE "Roots CD3"
FILE "01 - Get Down.wav" WAVE
TRACK 01 AUDIO
TITLE "Get Down"
PERFORMER "Curtis Mayfield"
INDEX 01 00:00:00
FILE "02 - Keep On Keeping Up.wav" WAVE
TRACK 02 AUDIO
TITLE "Keep On Keeping Up"
PERFORMER "Curtis Mayfield"
INDEX 01 00:00:00
FILE "03 - Underground.wav" WAVE
TRACK 03 AUDIO
TITLE "Underground"
PERFORMER "Curtis Mayfield"
INDEX 01 00:00:00
FILE "04 - We Got To Have Peace.wav" WAVE
TRACK 04 AUDIO
TITLE "We Got To Have Peace"
PERFORMER "Curtis Mayfield"
INDEX 01 00:00:00
FILE "05 - Beautiful Brother Of Mine.wav" WAVE
TRACK 05 AUDIO
TITLE "Beautiful Brother Of Mine"
PERFORMER "Curtis Mayfield"
INDEX 01 00:00:00
FILE "06 - Now You're Gone.wav" WAVE
TRACK 06 AUDIO
TITLE "Now You're Gone"
PERFORMER "Curtis Mayfield"
INDEX 01 00:00:00
FILE "07 - Love To Keep You In My Mind.wav" WAVE
TRACK 07 AUDIO
TITLE "Love To Keep You In My Mind"
PERFORMER "Curtis Mayfield"
INDEX 01 00:00:00
 
CD 4 - Back To The World (1973)
Продолжительность: 36:12
Треклист:
01. Back to the World (6:50)
02. Future Shock (5:21)
03. Right On for the Darkness (7:30)
04. Future Song (Love a Good Woman, Love a Good Man) (5:02)
05. If I Were Only a Child Again (2:54)
06. Can't Say Nothin' (5:17)
07. Keep On Trippin' (3:18)
 
 
Лог создания рипа
Exact Audio Copy V1.0 beta 3 from 29. August 2011
EAC extraction logfile from 7. May 2014, 21:35
Curtis Mayfield / Back to the World CD4
Used drive : PLEXTOR CD-R PREMIUM2 Adapter: 4 ID: 0
Read mode : Secure
Utilize accurate stream : Yes
Defeat audio cache : Yes
Make use of C2 pointers : No
Read offset correction : 30
Overread into Lead-In and Lead-Out : Yes
Fill up missing offset samples with silence : Yes
Delete leading and trailing silent blocks : No
Null samples used in CRC calculations : Yes
Used interface : Native Win32 interface for Win NT & 2000
Gap handling : Appended to previous track
Used output format : User Defined Encoder
Selected bitrate : 1024 kBit/s
Quality : High
Add ID3 tag : No
Command line compressor : C:\Program Files (x86)\Exact Audio Copy\Flac\flac.exe
Additional command line options : -8 -V -T "ARTIST=%artist%" -T "TITLE=%title%" -T "ALBUM=%albumtitle%" -T "DATE=%year%" -T "TRACKNUMBER=%tracknr%" -T "TOTALTRACKS=%numtracks%" -T "GENRE=%genre%" -T "ALBUMARTIST=%albumartist%" -T "ALBUM ARTIST=%albumartist%" -T "COMMENT=EAC Secure Mode, Test & Copy, AccurateRip, FLAC -8" %source%
TOC of the extracted CD
Track | Start | Length | Start sector | End sector
---------------------------------------------------------
1 | 0:00.00 | 6:49.55 | 0 | 30729
2 | 6:49.55 | 5:20.40 | 30730 | 54769
3 | 12:10.20 | 7:29.55 | 54770 | 88499
4 | 19:40.00 | 5:02.37 | 88500 | 111186
5 | 24:42.37 | 2:54.18 | 111187 | 124254
6 | 27:36.55 | 5:17.32 | 124255 | 148061
7 | 32:54.12 | 3:17.55 | 148062 | 162891
Track 1
Filename G:\FLAC\01 - Back to the World.wav
Pre-gap length 0:00:02.00
Peak level 90.6 %
Extraction speed 1.9 X
Track quality 100.0 %
Test CRC BFB9ADFB
Copy CRC BFB9ADFB
Accurately ripped (confidence 3) [6D423DA0] (AR v2)
Copy OK
Track 2
Filename G:\FLAC\02 - Future Shock.wav
Peak level 96.3 %
Extraction speed 1.9 X
Track quality 100.0 %
Test CRC ADDA459E
Copy CRC ADDA459E
Accurately ripped (confidence 3) [7C113FFA] (AR v2)
Copy OK
Track 3
Filename G:\FLAC\03 - Right On for the Darkness.wav
Peak level 81.5 %
Extraction speed 1.9 X
Track quality 100.0 %
Test CRC DA4C0755
Copy CRC DA4C0755
Accurately ripped (confidence 3) [FE80B80C] (AR v2)
Copy OK
Track 4
Filename G:\FLAC\04 - Future Song (Love a Good Woman, Love a Good Man).wav
Peak level 87.3 %
Extraction speed 1.9 X
Track quality 100.0 %
Test CRC 94E17552
Copy CRC 94E17552
Accurately ripped (confidence 3) [C3730391] (AR v2)
Copy OK
Track 5
Filename G:\FLAC\05 - If I Were Only a Child Again.wav
Peak level 91.6 %
Extraction speed 1.8 X
Track quality 100.0 %
Test CRC 9ABA9E59
Copy CRC 9ABA9E59
Accurately ripped (confidence 3) [61305752] (AR v2)
Copy OK
Track 6
Filename G:\FLAC\06 - Can't Say Nothin'.wav
Peak level 89.7 %
Extraction speed 1.8 X
Track quality 100.0 %
Test CRC 0C12D6F6
Copy CRC 0C12D6F6
Accurately ripped (confidence 3) [F3255DD0] (AR v2)
Copy OK
Track 7
Filename G:\FLAC\07 - Keep On Trippin'.wav
Peak level 89.3 %
Extraction speed 1.9 X
Track quality 100.0 %
Test CRC 98A7D70C
Copy CRC 98A7D70C
Accurately ripped (confidence 3) [6FFC8CBB] (AR v2)
Copy OK
All tracks accurately ripped
No errors occurred
End of status report
==== Log checksum 2F9F9BF65A325A65BBE4318AA8F387A0DA1FAE3B2124BB1D1BE4D57E3D4D8104 ====
 
Содержание индексной карты (.CUE)
REM GENRE Soul
REM DATE 1973
REM DISCID 5C087B07
REM COMMENT "ExactAudioCopy v1.0b3"
PERFORMER "Curtis Mayfield"
TITLE "Back to the World CD4"
FILE "01 - Back to the World.wav" WAVE
TRACK 01 AUDIO
TITLE "Back to the World"
PERFORMER "Curtis Mayfield"
INDEX 01 00:00:00
FILE "02 - Future Shock.wav" WAVE
TRACK 02 AUDIO
TITLE "Future Shock"
PERFORMER "Curtis Mayfield"
INDEX 01 00:00:00
FILE "03 - Right On for the Darkness.wav" WAVE
TRACK 03 AUDIO
TITLE "Right On for the Darkness"
PERFORMER "Curtis Mayfield"
INDEX 01 00:00:00
FILE "04 - Future Song (Love a Good Woman, Love a Good Man).wav" WAVE
TRACK 04 AUDIO
TITLE "Future Song (Love a Good Woman, Love a Good Man)"
PERFORMER "Curtis Mayfield"
INDEX 01 00:00:00
FILE "05 - If I Were Only a Child Again.wav" WAVE
TRACK 05 AUDIO
TITLE "If I Were Only a Child Again"
PERFORMER "Curtis Mayfield"
INDEX 01 00:00:00
FILE "06 - Can't Say Nothin'.wav" WAVE
TRACK 06 AUDIO
TITLE "Can't Say Nothin'"
PERFORMER "Curtis Mayfield"
INDEX 01 00:00:00
FILE "07 - Keep On Trippin'.wav" WAVE
TRACK 07 AUDIO
TITLE "Keep On Trippin'"
PERFORMER "Curtis Mayfield"
INDEX 01 00:00:00
 
CD 5 - Sweet Exorcist (1974)
Продолжительность: 32:08
Треклист:
01. Ain't Got Time (5:07)
02. Sweet Exorcist (3:48)
03. To Be Invisible (4:09)
04. Power To The People (3:23)
05. Kung Fu (6:09)
06. Suffer (4:02)
07. Make Me Believe In You (5:31)
 
 
Лог создания рипа
Exact Audio Copy V1.0 beta 3 from 29. August 2011
EAC extraction logfile from 7. May 2014, 22:20
Curtis Mayfield / Sweet Exorcist CD5
Used drive : PLEXTOR CD-R PREMIUM2 Adapter: 4 ID: 0
Read mode : Secure
Utilize accurate stream : Yes
Defeat audio cache : Yes
Make use of C2 pointers : No
Read offset correction : 30
Overread into Lead-In and Lead-Out : Yes
Fill up missing offset samples with silence : Yes
Delete leading and trailing silent blocks : No
Null samples used in CRC calculations : Yes
Used interface : Native Win32 interface for Win NT & 2000
Gap handling : Appended to previous track
Used output format : User Defined Encoder
Selected bitrate : 1024 kBit/s
Quality : High
Add ID3 tag : No
Command line compressor : C:\Program Files (x86)\Exact Audio Copy\Flac\flac.exe
Additional command line options : -8 -V -T "ARTIST=%artist%" -T "TITLE=%title%" -T "ALBUM=%albumtitle%" -T "DATE=%year%" -T "TRACKNUMBER=%tracknr%" -T "TOTALTRACKS=%numtracks%" -T "GENRE=%genre%" -T "ALBUMARTIST=%albumartist%" -T "ALBUM ARTIST=%albumartist%" -T "COMMENT=EAC Secure Mode, Test & Copy, AccurateRip, FLAC -8" %source%
TOC of the extracted CD
Track | Start | Length | Start sector | End sector
---------------------------------------------------------
1 | 0:00.00 | 5:06.64 | 0 | 23013
2 | 5:06.64 | 3:47.60 | 23014 | 40098
3 | 8:54.49 | 4:09.17 | 40099 | 58790
4 | 13:03.66 | 3:22.55 | 58791 | 73995
5 | 16:26.46 | 6:08.64 | 73996 | 101659
6 | 22:35.35 | 4:01.45 | 101660 | 119779
7 | 26:37.05 | 5:30.51 | 119780 | 144580
Track 1
Filename G:\FLAC\01 - Ain't Got Time.wav
Pre-gap length 0:00:02.00
Peak level 76.6 %
Extraction speed 1.9 X
Track quality 100.0 %
Test CRC 69C1B880
Copy CRC 69C1B880
Accurately ripped (confidence 3) [27748FC2] (AR v2)
Copy OK
Track 2
Filename G:\FLAC\02 - Sweet Exorcist.wav
Peak level 78.9 %
Extraction speed 1.9 X
Track quality 100.0 %
Test CRC B910A280
Copy CRC B910A280
Accurately ripped (confidence 3) [942DB370] (AR v2)
Copy OK
Track 3
Filename G:\FLAC\03 - To Be Invisible.wav
Peak level 72.8 %
Extraction speed 1.9 X
Track quality 100.0 %
Test CRC B49FF891
Copy CRC B49FF891
Accurately ripped (confidence 3) [AE4DF4F1] (AR v2)
Copy OK
Track 4
Filename G:\FLAC\04 - Power To The People.wav
Peak level 69.8 %
Extraction speed 1.9 X
Track quality 100.0 %
Test CRC 70ED5805
Copy CRC 70ED5805
Accurately ripped (confidence 3) [80C79E78] (AR v2)
Copy OK
Track 5
Filename G:\FLAC\05 - Kung Fu.wav
Peak level 78.6 %
Extraction speed 1.8 X
Track quality 99.9 %
Test CRC 6BD09D4C
Copy CRC 6BD09D4C
Accurately ripped (confidence 3) [E50B43B0] (AR v2)
Copy OK
Track 6
Filename G:\FLAC\06 - Suffer.wav
Peak level 86.0 %
Extraction speed 1.9 X
Track quality 100.0 %
Test CRC 63240C8E
Copy CRC 63240C8E
Accurately ripped (confidence 3) [A8E99EE9] (AR v2)
Copy OK
Track 7
Filename G:\FLAC\07 - Make Me Believe In You.wav
Peak level 85.0 %
Extraction speed 1.9 X
Track quality 99.9 %
Test CRC F0FB14D9
Copy CRC F0FB14D9
Accurately ripped (confidence 3) [505225D9] (AR v2)
Copy OK
All tracks accurately ripped
No errors occurred
End of status report
==== Log checksum 160E95368680C75845B12F8BBA26DC7817EA4E0D984554C8F1D87B7D8A5A218A ====
 
Содержание индексной карты (.CUE)
REM GENRE Soul
REM DATE 1974
REM DISCID 70078707
REM COMMENT "ExactAudioCopy v1.0b3"
PERFORMER "Curtis Mayfield"
TITLE "Sweet Exorcist CD5"
FILE "01 - Ain't Got Time.wav" WAVE
TRACK 01 AUDIO
TITLE "Ain't Got Time"
PERFORMER "Curtis Mayfield"
INDEX 01 00:00:00
FILE "02 - Sweet Exorcist.wav" WAVE
TRACK 02 AUDIO
TITLE "Sweet Exorcist"
PERFORMER "Curtis Mayfield"
INDEX 01 00:00:00
FILE "03 - To Be Invisible.wav" WAVE
TRACK 03 AUDIO
TITLE "To Be Invisible"
PERFORMER "Curtis Mayfield"
INDEX 01 00:00:00
FILE "04 - Power To The People.wav" WAVE
TRACK 04 AUDIO
TITLE "Power To The People"
PERFORMER "Curtis Mayfield"
INDEX 01 00:00:00
FILE "05 - Kung Fu.wav" WAVE
TRACK 05 AUDIO
TITLE "Kung Fu"
PERFORMER "Curtis Mayfield"
INDEX 01 00:00:00
FILE "06 - Suffer.wav" WAVE
TRACK 06 AUDIO
TITLE "Suffer"
PERFORMER "Curtis Mayfield"
INDEX 01 00:00:00
FILE "07 - Make Me Believe In You.wav" WAVE
TRACK 07 AUDIO
TITLE "Make Me Believe In You"
PERFORMER "Curtis Mayfield"
INDEX 01 00:00:00
Приватный:
Нет (DHT включён)
Размер:
1.37 Гб (1,466,999,554 байт) » файлов: 83
Участники:
59 раздают, 0 качают (59 участников всего)
Внешние участники:
9 раздают, 3 качают (12 участников всего) [ Обновить ]
Есть вопросы - пишите личное сообщение пользователю M0p94ok.
09:32
86
Нет комментариев. Ваш будет первым!