Поиск

(Funk, Soul) [CD] Jr. Walker - Back Street Boogie (1979) - 2011, FLAC (tracks+.cue), lossless

(Funk, Soul) [CD] Jr. Walker - Back Street Boogie (1979) - 2011, FLAC (tracks+.cue), lossless
Треклист:
Jr. Walker - Back Street Boogie (1979) Жанр: Funk, Soul
Носитель: CD
Год издания: 2011
Издатель (лейбл): Wounded Bird Records
Номер по каталогу: WOU 3331
Аудиокодек: FLAC (*.flac)
Тип рипа: tracks+.cue
Битрейт аудио: lossless
Продолжительность: 35:08
Rip by JET 1
Наличие сканов в содержимом раздачи: да
Треклист:
01. Back Street Boogie (7:24)
02. Girl I Wanna Marry You (3:37)
03. Wishing On A Star (6:03)
04. Hole In The Wall (5:23)
05. Don't Let Me Go Astray (3:57)
06. Tiger In My Tank (5:04)
07. Sax Attack (3:40)
 
 
Лог создания рипа
Exact Audio Copy V1.0 beta 3 from 29. August 2011
EAC extraction logfile from 20. January 2016, 19:32
Jr. Walker / Back Street Boogie
Used drive : GENERIC CDRCB05 Adapter: 4 ID: 0
Read mode : Secure
Utilize accurate stream : Yes
Defeat audio cache : Yes
Make use of C2 pointers : No
Read offset correction : 102
Overread into Lead-In and Lead-Out : No
Fill up missing offset samples with silence : Yes
Delete leading and trailing silent blocks : No
Null samples used in CRC calculations : Yes
Used interface : Native Win32 interface for Win NT & 2000
Gap handling : Appended to previous track
Used output format : User Defined Encoder
Selected bitrate : 1024 kBit/s
Quality : High
Add ID3 tag : No
Command line compressor : C:\Program Files\FLAC\flac.exe
Additional command line options : -8 -V -T "ARTIST=%artist%" -T "TITLE=%title%" -T "ALBUM=%albumtitle%" -T "DATE=%year%" -T "TRACKNUMBER=%tracknr%" -T "GENRE=%genre%" -T "PERFORMER=%albuminterpret%" -T "COMPOSER=%composer%" %haslyrics%--tag-from-file=LYRICS="%lyricsfile%"%haslyrics% -T "ALBUMARTIST=%albumartist%" -T "DISCNUMBER=%cdnumber%" -T "TOTALDISCS=%totalcds%" -T "TOTALTRACKS=%numtracks%" -T "COMMENT=%comment%" %source% -o %dest%
TOC of the extracted CD
Track | Start | Length | Start sector | End sector
---------------------------------------------------------
1 | 0:00.00 | 7:23.47 | 0 | 33271
2 | 7:23.47 | 3:37.06 | 33272 | 49552
3 | 11:00.53 | 6:02.53 | 49553 | 76755
4 | 17:03.31 | 5:22.71 | 76756 | 100976
5 | 22:26.27 | 3:57.28 | 100977 | 118779
6 | 26:23.55 | 5:04.13 | 118780 | 141592
7 | 31:27.68 | 3:39.48 | 141593 | 158065
Track 1
Filename G:\POSTS\Jr. Walker - Back Street Boogie (1979) [2011 Wounded Bird]\01 - Back Street Boogie.wav
Pre-gap length 0:00:02.00
Peak level 94.4 %
Extraction speed 1.6 X
Track quality 100.0 %
Test CRC EB2C1D8A
Copy CRC EB2C1D8A
Accurately ripped (confidence 3) [677D8E94] (AR v2)
Copy OK
Track 2
Filename G:\POSTS\Jr. Walker - Back Street Boogie (1979) [2011 Wounded Bird]\02 - Girl I Wanna Marry You.wav
Pre-gap length 0:00:02.00
Peak level 94.4 %
Extraction speed 1.7 X
Track quality 100.0 %
Test CRC 2E0EBE58
Copy CRC 2E0EBE58
Accurately ripped (confidence 3) [6D0A9AFD] (AR v2)
Copy OK
Track 3
Filename G:\POSTS\Jr. Walker - Back Street Boogie (1979) [2011 Wounded Bird]\03 - Wishing On A Star.wav
Pre-gap length 0:00:02.00
Peak level 94.4 %
Extraction speed 2.0 X
Track quality 100.0 %
Test CRC 71D248FC
Copy CRC 71D248FC
Accurately ripped (confidence 3) [94B96445] (AR v2)
Copy OK
Track 4
Filename G:\POSTS\Jr. Walker - Back Street Boogie (1979) [2011 Wounded Bird]\04 - Hole In The Wall.wav
Pre-gap length 0:00:02.00
Peak level 94.4 %
Extraction speed 2.1 X
Track quality 100.0 %
Test CRC ED349C0A
Copy CRC ED349C0A
Accurately ripped (confidence 3) [0D42929F] (AR v2)
Copy OK
Track 5
Filename G:\POSTS\Jr. Walker - Back Street Boogie (1979) [2011 Wounded Bird]\05 - Don't Let Me Go Astray.wav
Pre-gap length 0:00:02.00
Peak level 94.4 %
Extraction speed 1.9 X
Track quality 99.9 %
Test CRC 37AF2584
Copy CRC 37AF2584
Accurately ripped (confidence 3) [EA63F8AB] (AR v2)
Copy OK
Track 6
Filename G:\POSTS\Jr. Walker - Back Street Boogie (1979) [2011 Wounded Bird]\06 - Tiger In My Tank.wav
Pre-gap length 0:00:02.00
Peak level 94.4 %
Extraction speed 2.4 X
Track quality 100.0 %
Test CRC 85D5E273
Copy CRC 85D5E273
Accurately ripped (confidence 3) [65E77212] (AR v2)
Copy OK
Track 7
Filename G:\POSTS\Jr. Walker - Back Street Boogie (1979) [2011 Wounded Bird]\07 - Sax Attack.wav
Pre-gap length 0:00:02.00
Peak level 94.4 %
Extraction speed 2.3 X
Track quality 100.0 %
Test CRC A6DF11F8
Copy CRC A6DF11F8
Accurately ripped (confidence 3) [0BAB3EB7] (AR v2)
Copy OK
All tracks accurately ripped
No errors occurred
End of status report
==== Log checksum 99D2B75BA0345B6DCF8F7439CA11EEC7253E41E2C7760A7E47DE21882CF4A8EE ====
 
Содержание индексной карты (.CUE)
REM GENRE Soul
REM DATE 1979
REM DISCID 62083B07
REM COMMENT "ExactAudioCopy v1.0b3"
PERFORMER "Jr. Walker"
TITLE "Back Street Boogie"
FILE "01 - Back Street Boogie.wav" WAVE
TRACK 01 AUDIO
TITLE "Back Street Boogie"
PERFORMER "Jr. Walker"
INDEX 01 00:00:00
TRACK 02 AUDIO
TITLE "Girl I Wanna Marry You"
PERFORMER "Jr. Walker"
INDEX 00 07:21:47
FILE "02 - Girl I Wanna Marry You.wav" WAVE
INDEX 01 00:00:00
TRACK 03 AUDIO
TITLE "Wishing On A Star"
PERFORMER "Jr. Walker"
INDEX 00 03:35:06
FILE "03 - Wishing On A Star.wav" WAVE
INDEX 01 00:00:00
TRACK 04 AUDIO
TITLE "Hole In The Wall"
PERFORMER "Jr. Walker"
INDEX 00 06:00:53
FILE "04 - Hole In The Wall.wav" WAVE
INDEX 01 00:00:00
TRACK 05 AUDIO
TITLE "Don't Let Me Go Astray"
PERFORMER "Jr. Walker"
INDEX 00 05:20:71
FILE "05 - Don't Let Me Go Astray.wav" WAVE
INDEX 01 00:00:00
TRACK 06 AUDIO
TITLE "Tiger In My Tank"
PERFORMER "Jr. Walker"
INDEX 00 03:55:28
FILE "06 - Tiger In My Tank.wav" WAVE
INDEX 01 00:00:00
TRACK 07 AUDIO
TITLE "Sax Attack"
PERFORMER "Jr. Walker"
INDEX 00 05:02:13
FILE "07 - Sax Attack.wav" WAVE
INDEX 01 00:00:00
Приватный:
Нет (DHT включён)
Размер:
283.18 Мб (296,931,105 байт) » файлов: 17
Участники:
0 раздают, 0 качают (0 участников всего)
Внешние участники:
3 раздают, 1 качают (4 участников всего) [ Обновить ]
Есть вопросы - пишите личное сообщение пользователю M0p94ok.
09:37
43
Нет комментариев. Ваш будет первым!