Поиск

(Funk, Soul, R&B) [CD] Bobby Byrd And Vicki Anderson - Hot Pants - I'm Comin', Comin', I'm Comin' - 1990, FLAC (tracks+.cue), lossless

(Funk, Soul, R&B) [CD] Bobby Byrd And Vicki Anderson - Hot Pants - I'm Comin', Comin', I'm Comin' - 1990, FLAC (tracks+.cue), lossless
Треклист:
Bobby Byrd And Vicki Anderson - Hot Pants - I'm Comin', Comin', I'm Comin' Жанр: Funk, Soul, R&B
Носитель: CD
Год издания: 1990
Издатель (лейбл): Polydor K.K./P-Vine Records
Номер по каталогу: PCD-1391
Аудиокодек: FLAC (*.flac)
Тип рипа: tracks+.cue
Битрейт аудио: lossless
Продолжительность: 56:02
Источник (релизер): TestTickles
Наличие сканов в содержимом раздачи: да
Треклист:
Bobby Byrd
01. Sayin' It And Doin It Are Two Different Things (3:13)
02. Hot Pants - I'm Coming, Coming, I'm Coming (2:30)
03. Never Get Enough (3:18)
04. Let Me Know (3:10)
05. Hang It Up (2:35)
06. Keep On Doin' What You're Doin' (2:50)
07. My Concerto (3:24)
08. I Need Help (I Can't Do It Alone) (3:10)
09. Signed, Sealed & Delivered (2:16)
10. You've Got To Change Your Mind (3:06)
11. If You Got A Love You Better (Hold On To It) (4:22)
Vicki Anderson
12. I'm Too Tough For Mr. Big Stuff (Hot Pants) (3:28)
13. I'll Work It Out (2:55)
14. Sound Funky (2:40)
15. In The Land Of Milk And Honey (2:59)
16. Don't Throw Your Love In The Garbage Can (2:51)
Momie-O
17. Once You Get Started (3:37)
18. You're Welcome, Stop On By (3:39)
 
 
Об альбоме
Hot Pants - I'm Comin', Comin', I'm Comin' is a 1989 Japanese-only compilation by soul vocalists Bobby Byrd and wife Vicki Anderson. Part of James Brown's world of artists, the CD is from material released by Brownstone Records (a collaboration between Brown and record company executive Henry Stone) with eleven songs by Byrd and seven songs by Anderson, two of which were released under the name Momie-O when Anderson released only one single on the I Dentify label in 1975.
 
 
Лог создания рипа
Exact Audio Copy V0.99 prebeta 4 from 23. January 2008
EAC extraction logfile from 19. March 2008, 8:00
Bobby Byrd / Hot Pants--I'm Comin
Used drive : TSSTcorpDVD+-RW TS-H553A Adapter: 0 ID: 2
Read mode : Secure
Utilize accurate stream : Yes
Defeat audio cache : Yes
Make use of C2 pointers : No
Read offset correction : 6
Overread into Lead-In and Lead-Out : No
Fill up missing offset samples with silence : Yes
Delete leading and trailing silent blocks : No
Null samples used in CRC calculations : Yes
Used interface : Native Win32 interface for Win NT & 2000
Gap handling : Appended to previous track
Used output format : User Defined Encoder
Selected bitrate : 768 kBit/s
Quality : High
Add ID3 tag : No
Command line compressor : C:\Program Files\Exact Audio Copy\FLAC\FLAC.EXE
Additional command line options : -6 -V -T "ARTIST=%a" -T "TITLE=%t" -T "ALBUM=%g" -T "DATE=%y" -T "TRACKNUMBER=%n" -T "GENRE=%m" -T "COMMENT=%e" %s -o %d
TOC of the extracted CD
Track | Start | Length | Start sector | End sector
---------------------------------------------------------
1 | 0:00.00 | 3:12.50 | 0 | 14449
2 | 3:12.50 | 2:30.12 | 14450 | 25711
3 | 5:42.62 | 3:17.38 | 25712 | 40524
4 | 9:00.25 | 3:10.25 | 40525 | 54799
5 | 12:10.50 | 2:34.62 | 54800 | 66411
6 | 14:45.37 | 2:49.38 | 66412 | 79124
7 | 17:35.00 | 3:23.50 | 79125 | 94399
8 | 20:58.50 | 3:09.62 | 94400 | 108636
9 | 24:08.37 | 2:15.50 | 108637 | 118811
10 | 26:24.12 | 3:06.13 | 118812 | 132774
11 | 29:30.25 | 4:22.12 | 132775 | 152436
12 | 33:52.37 | 3:27.38 | 152437 | 167999
13 | 37:20.00 | 2:55.00 | 168000 | 181124
14 | 40:15.00 | 2:40.37 | 181125 | 193161
15 | 42:55.37 | 2:59.25 | 193162 | 206611
16 | 45:54.62 | 2:51.13 | 206612 | 219449
17 | 48:46.00 | 3:37.12 | 219450 | 235736
18 | 52:23.12 | 3:38.38 | 235737 | 252124
Track 1
Filename K:\New Rips\Bobby Byrd - Hot Pants--I'm Comin (1970) [FLAC]\01 - Sayin' It And Doin It Are Two Different Things.wav
Pre-gap length 0:00:02.00
Peak level 80.2 %
Track quality 100.0 %
Test CRC 643B8BEF
Copy CRC 643B8BEF
Track not present in AccurateRip database
Copy OK
Track 2
Filename K:\New Rips\Bobby Byrd - Hot Pants--I'm Comin (1970) [FLAC]\02 - Hot Pants - I'm Coming, Coming, I'm Coming.wav
Pre-gap length 0:00:02.77
Peak level 86.6 %
Track quality 100.0 %
Test CRC 204A9DB8
Copy CRC 204A9DB8
Track not present in AccurateRip database
Copy OK
Track 3
Filename K:\New Rips\Bobby Byrd - Hot Pants--I'm Comin (1970) [FLAC]\03 - Never Get Enough.wav
Pre-gap length 0:00:03.02
Peak level 92.2 %
Track quality 100.0 %
Test CRC C5543681
Copy CRC C5543681
Track not present in AccurateRip database
Copy OK
Track 4
Filename K:\New Rips\Bobby Byrd - Hot Pants--I'm Comin (1970) [FLAC]\04 - Let Me Know.wav
Pre-gap length 0:00:02.80
Peak level 93.6 %
Track quality 100.0 %
Test CRC 4D33A0FD
Copy CRC 4D33A0FD
Track not present in AccurateRip database
Copy OK
Track 5
Filename K:\New Rips\Bobby Byrd - Hot Pants--I'm Comin (1970) [FLAC]\05 - Hang It Up.wav
Pre-gap length 0:00:02.84
Peak level 74.1 %
Track quality 100.0 %
Test CRC 3D4FD01C
Copy CRC 3D4FD01C
Track not present in AccurateRip database
Copy OK
Track 6
Filename K:\New Rips\Bobby Byrd - Hot Pants--I'm Comin (1970) [FLAC]\06 - Keep On Doin' What You're Doin'.wav
Pre-gap length 0:00:02.82
Peak level 87.3 %
Track quality 100.0 %
Test CRC 5C6812E8
Copy CRC 5C6812E8
Track not present in AccurateRip database
Copy OK
Track 7
Filename K:\New Rips\Bobby Byrd - Hot Pants--I'm Comin (1970) [FLAC]\07 - My Concerto.wav
Pre-gap length 0:00:02.73
Peak level 66.0 %
Track quality 100.0 %
Test CRC EF255C82
Copy CRC EF255C82
Track not present in AccurateRip database
Copy OK
Track 8
Filename K:\New Rips\Bobby Byrd - Hot Pants--I'm Comin (1970) [FLAC]\08 - I Need Help (I Can't Do It Alone).wav
Pre-gap length 0:00:02.77
Peak level 83.0 %
Track quality 100.0 %
Test CRC F8B50DC9
Copy CRC F8B50DC9
Track not present in AccurateRip database
Copy OK
Track 9
Filename K:\New Rips\Bobby Byrd - Hot Pants--I'm Comin (1970) [FLAC]\09 - Signed, Sealed & Delivered.wav
Pre-gap length 0:00:02.80
Peak level 88.0 %
Track quality 100.0 %
Test CRC DCF55BCF
Copy CRC DCF55BCF
Track not present in AccurateRip database
Copy OK
Track 10
Filename K:\New Rips\Bobby Byrd - Hot Pants--I'm Comin (1970) [FLAC]\10 - You've Got To Change Your Mind.wav
Pre-gap length 0:00:02.69
Peak level 83.4 %
Track quality 100.0 %
Test CRC A8D2E3A0
Copy CRC A8D2E3A0
Track not present in AccurateRip database
Copy OK
Track 11
Filename K:\New Rips\Bobby Byrd - Hot Pants--I'm Comin (1970) [FLAC]\11 - If You Got A Love You Better (Hold On To It).wav
Pre-gap length 0:00:02.70
Peak level 76.0 %
Track quality 100.0 %
Test CRC 92330317
Copy CRC 92330317
Track not present in AccurateRip database
Copy OK
Track 12
Filename K:\New Rips\Bobby Byrd - Hot Pants--I'm Comin (1970) [FLAC]\12 - I'm Too Tough For Mr. Big Stuff (Hot Pants).wav
Pre-gap length 0:00:02.76
Peak level 84.5 %
Track quality 100.0 %
Test CRC 4F9E1D78
Copy CRC 4F9E1D78
Track not present in AccurateRip database
Copy OK
Track 13
Filename K:\New Rips\Bobby Byrd - Hot Pants--I'm Comin (1970) [FLAC]\13 - I'll Work It Out.wav
Pre-gap length 0:00:02.80
Peak level 82.0 %
Track quality 99.9 %
Test CRC 1A8639F7
Copy CRC 1A8639F7
Track not present in AccurateRip database
Copy OK
Track 14
Filename K:\New Rips\Bobby Byrd - Hot Pants--I'm Comin (1970) [FLAC]\14 - Sound Funky.wav
Pre-gap length 0:00:02.70
Peak level 89.9 %
Track quality 100.0 %
Test CRC F5A9112F
Copy CRC F5A9112F
Track not present in AccurateRip database
Copy OK
Track 15
Filename K:\New Rips\Bobby Byrd - Hot Pants--I'm Comin (1970) [FLAC]\15 - In The Land Of Milk And Honey.wav
Pre-gap length 0:00:02.86
Peak level 73.4 %
Track quality 99.9 %
Test CRC 9607E144
Copy CRC 9607E144
Track not present in AccurateRip database
Copy OK
Track 16
Filename K:\New Rips\Bobby Byrd - Hot Pants--I'm Comin (1970) [FLAC]\16 - Don't Throw Your Love In The Garbage Can.wav
Pre-gap length 0:00:02.80
Peak level 73.1 %
Track quality 100.0 %
Test CRC B578C623
Copy CRC B578C623
Track not present in AccurateRip database
Copy OK
Track 17
Filename K:\New Rips\Bobby Byrd - Hot Pants--I'm Comin (1970) [FLAC]\17 - Once You Get Started.wav
Pre-gap length 0:00:02.84
Peak level 83.7 %
Track quality 99.9 %
Test CRC 898B2503
Copy CRC 898B2503
Track not present in AccurateRip database
Copy OK
Track 18
Filename K:\New Rips\Bobby Byrd - Hot Pants--I'm Comin (1970) [FLAC]\18 - You're Welcome, Stop On By.wav
Pre-gap length 0:00:02.82
Peak level 78.9 %
Track quality 99.9 %
Test CRC 0C05407A
Copy CRC 0C05407A
Track not present in AccurateRip database
Copy OK
None of the tracks are present in the AccurateRip database
No errors occurred
End of status report
 
Содержание индексной карты (.CUE)
REM GENRE Funk
REM DATE 1990
REM DISCID FA0D2112
REM COMMENT "ExactAudioCopy v0.99pb4"
CATALOG 0000000000000
PERFORMER "Bobby Byrd"
TITLE "Hot Pants - I'm Comin, Comin, I'm Comin"
FILE "01 - Sayin' It And Doin It Are Two Different Things.flac" WAVE
TRACK 01 AUDIO
TITLE "Sayin' It And Doin It Are Two Different Things"
PERFORMER "Bobby Byrd"
ISRC 000000000000
INDEX 01 00:00:00
TRACK 02 AUDIO
TITLE "Hot Pants - I'm Coming, Coming, I'm Coming"
PERFORMER "Bobby Byrd"
ISRC 000000000000
INDEX 00 03:09:67
FILE "02 - Hot Pants - I'm Coming, Coming, I'm Coming.flac" WAVE
INDEX 01 00:00:00
TRACK 03 AUDIO
TITLE "Never Get Enough"
PERFORMER "Bobby Byrd"
ISRC 000000000000
INDEX 00 02:27:10
FILE "03 - Never Get Enough.flac" WAVE
INDEX 01 00:00:00
TRACK 04 AUDIO
TITLE "Let Me Know"
PERFORMER "Bobby Byrd"
ISRC 000000000000
INDEX 00 03:14:53
FILE "04 - Let Me Know.flac" WAVE
INDEX 01 00:00:00
TRACK 05 AUDIO
TITLE "Hang It Up"
PERFORMER "Bobby Byrd"
ISRC 000000000000
INDEX 00 03:07:37
FILE "05 - Hang It Up.flac" WAVE
INDEX 01 00:00:00
TRACK 06 AUDIO
TITLE "Keep On Doin' What You're Doin'"
PERFORMER "Bobby Byrd"
ISRC 000000000000
INDEX 00 02:32:00
FILE "06 - Keep On Doin' What You're Doin'.flac" WAVE
INDEX 01 00:00:00
TRACK 07 AUDIO
TITLE "My Concerto"
PERFORMER "Bobby Byrd"
ISRC 000000000000
INDEX 00 02:46:58
FILE "07 - My Concerto.flac" WAVE
INDEX 01 00:00:00
TRACK 08 AUDIO
TITLE "I Need Help (I Can't Do It Alone)"
PERFORMER "Bobby Byrd"
ISRC 000000000000
INDEX 00 03:20:67
FILE "08 - I Need Help (I Can't Do It Alone).flac" WAVE
INDEX 01 00:00:00
TRACK 09 AUDIO
TITLE "Signed, Sealed & Delivered"
PERFORMER "Bobby Byrd"
ISRC 000000000000
INDEX 00 03:07:02
FILE "09 - Signed, Sealed & Delivered.flac" WAVE
INDEX 01 00:00:00
TRACK 10 AUDIO
TITLE "You've Got To Change Your Mind"
PERFORMER "Bobby Byrd"
ISRC 000000000000
INDEX 00 02:12:73
FILE "10 - You've Got To Change Your Mind.flac" WAVE
INDEX 01 00:00:00
TRACK 11 AUDIO
TITLE "If You Got A Love You Better (Hold On To It)"
PERFORMER "Bobby Byrd"
ISRC 000000000000
INDEX 00 03:03:35
FILE "11 - If You Got A Love You Better (Hold On To It).flac" WAVE
INDEX 01 00:00:00
TRACK 12 AUDIO
TITLE "I'm Too Tough For Mr. Big Stuff (Hot Pants)"
PERFORMER "Bobby Byrd"
ISRC 000000000000
INDEX 00 04:19:30
FILE "12 - I'm Too Tough For Mr. Big Stuff (Hot Pants).flac" WAVE
INDEX 01 00:00:00
TRACK 13 AUDIO
TITLE "I'll Work It Out"
PERFORMER "Bobby Byrd"
ISRC 000000000000
INDEX 00 03:24:53
FILE "13 - I'll Work It Out.flac" WAVE
INDEX 01 00:00:00
TRACK 14 AUDIO
TITLE "Sound Funky"
PERFORMER "Bobby Byrd"
ISRC 000000000000
INDEX 00 02:52:22
FILE "14 - Sound Funky.flac" WAVE
INDEX 01 00:00:00
TRACK 15 AUDIO
TITLE "In The Land Of Milk And Honey"
PERFORMER "Bobby Byrd"
ISRC 000000000000
INDEX 00 02:37:47
FILE "15 - In The Land Of Milk And Honey.flac" WAVE
INDEX 01 00:00:00
TRACK 16 AUDIO
TITLE "Don't Throw Your Love In The Garbage Can"
PERFORMER "Bobby Byrd"
ISRC 000000000000
INDEX 00 02:56:40
FILE "16 - Don't Throw Your Love In The Garbage Can.flac" WAVE
INDEX 01 00:00:00
TRACK 17 AUDIO
TITLE "Once You Get Started"
PERFORMER "Bobby Byrd"
ISRC 000000000000
INDEX 00 02:48:25
FILE "17 - Once You Get Started.flac" WAVE
INDEX 01 00:00:00
TRACK 18 AUDIO
TITLE "You're Welcome, Stop On By"
PERFORMER "Bobby Byrd"
ISRC 000000000000
INDEX 00 03:34:25
FILE "18 - You're Welcome, Stop On By.flac" WAVE
INDEX 01 00:00:00
Приватный:
Нет (DHT включён)
Размер:
309.18 Мб (324,196,382 байт) » файлов: 28
Участники:
0 раздают, 0 качают (0 участников всего)
Внешние участники:
5 раздают, 2 качают (7 участников всего) [ Обновить ]
Есть вопросы - пишите личное сообщение пользователю M0p94ok.
09:37
78
Нет комментариев. Ваш будет первым!